  0
SECTION
  2
HEADER
  9
$ACADVER
  1
AC1021
  9
$ACADMAINTVER
 70
    25
  9
$DWGCODEPAGE
  3
ANSI_1250
  9
$INSBASE
 10
0.0
 20
0.0
 30
0.0
  9
$EXTMIN
 10
0.0
 20
0.0
 30
0.0
  9
$EXTMAX
 10
297.0
 20
210.0
 30
0.0
  9
$LIMMIN
 10
0.0
 20
0.0
  9
$LIMMAX
 10
297.0
 20
210.0
  9
$ORTHOMODE
 70
     0
  9
$REGENMODE
 70
     1
  9
$FILLMODE
 70
     1
  9
$QTEXTMODE
 70
     0
  9
$MIRRTEXT
 70
     1
  9
$LTSCALE
 40
1.0
  9
$ATTMODE
 70
     1
  9
$TEXTSIZE
 40
3.5
  9
$TRACEWID
 40
1.0
  9
$TEXTSTYLE
  7
Standard
  9
$CLAYER
  8
0
  9
$CELTYPE
  6
ByLayer
  9
$CECOLOR
 62
   256
  9
$CELTSCALE
 40
1.0
  9
$DISPSILH
 70
     0
  9
$DIMSCALE
 40
1.0
  9
$DIMASZ
 40
3.302
  9
$DIMEXO
 40
1.0
  9
$DIMDLI
 40
3.75
  9
$DIMRND
 40
0.0
  9
$DIMDLE
 40
0.0
  9
$DIMEXE
 40
1.0
  9
$DIMTP
 40
0.0
  9
$DIMTM
 40
0.0
  9
$DIMTXT
 40
3.5
  9
$DIMCEN
 40
2.5
  9
$DIMTSZ
 40
0.0
  9
$DIMTOL
 70
     0
  9
$DIMLIM
 70
     0
  9
$DIMTIH
 70
     1
  9
$DIMTOH
 70
     1
  9
$DIMSE1
 70
     0
  9
$DIMSE2
 70
     0
  9
$DIMTAD
 70
     1
  9
$DIMZIN
 70
     0
  9
$DIMBLK
  1

  9
$DIMASO
 70
     1
  9
$DIMSHO
 70
     1
  9
$DIMPOST
  1

  9
$DIMAPOST
  1

  9
$DIMALT
 70
     0
  9
$DIMALTD
 70
     3
  9
$DIMALTF
 40
0.0393700787
  9
$DIMLFAC
 40
1.0
  9
$DIMTOFL
 70
     1
  9
$DIMTVP
 40
0.0
  9
$DIMTIX
 70
     0
  9
$DIMSOXD
 70
     0
  9
$DIMSAH
 70
     0
  9
$DIMBLK1
  1

  9
$DIMBLK2
  1

  9
$DIMSTYLE
  2
ISO-25
  9
$DIMCLRD
 70
     0
  9
$DIMCLRE
 70
     0
  9
$DIMCLRT
 70
     0
  9
$DIMTFAC
 40
1.0
  9
$DIMGAP
 40
1.524
  9
$DIMJUST
 70
     0
  9
$DIMSD1
 70
     0
  9
$DIMSD2
 70
     0
  9
$DIMTOLJ
 70
     0
  9
$DIMTZIN
 70
     0
  9
$DIMALTZ
 70
     0
  9
$DIMALTTZ
 70
     0
  9
$DIMUPT
 70
     0
  9
$DIMDEC
 70
     2
  9
$DIMTDEC
 70
     2
  9
$DIMALTU
 70
     2
  9
$DIMALTTD
 70
     3
  9
$DIMTXSTY
  7
Standard
  9
$DIMAUNIT
 70
     0
  9
$DIMADEC
 70
     2
  9
$DIMALTRND
 40
0.0
  9
$DIMAZIN
 70
     0
  9
$DIMDSEP
 70
    44
  9
$DIMATFIT
 70
     3
  9
$DIMFRAC
 70
     0
  9
$DIMLDRBLK
  1

  9
$DIMLUNIT
 70
     2
  9
$DIMLWD
 70
    -2
  9
$DIMLWE
 70
    -2
  9
$DIMTMOVE
 70
     0
  9
$DIMFXL
 40
1.0
  9
$DIMFXLON
 70
     0
  9
$DIMJOGANG
 40
0.7853981634
  9
$DIMTFILL
 70
     0
  9
$DIMTFILLCLR
 70
     0
  9
$DIMARCSYM
 70
     0
  9
$DIMLTYPE
  6

  9
$DIMLTEX1
  6

  9
$DIMLTEX2
  6

  9
$LUNITS
 70
     2
  9
$LUPREC
 70
     2
  9
$SKETCHINC
 40
1.0
  9
$FILLETRAD
 40
10.0
  9
$AUNITS
 70
     0
  9
$AUPREC
 70
     2
  9
$MENU
  1
.
  9
$ELEVATION
 40
0.0
  9
$PELEVATION
 40
0.0
  9
$THICKNESS
 40
0.0
  9
$LIMCHECK
 70
     0
  9
$CHAMFERA
 40
0.0
  9
$CHAMFERB
 40
0.0
  9
$CHAMFERC
 40
0.0
  9
$CHAMFERD
 40
0.0
  9
$SKPOLY
 70
     0
  9
$TDCREATE
 40
2460125.584152616
  9
$TDUCREATE
 40
2460125.500819283
  9
$TDUPDATE
 40
2460125.584153345
  9
$TDUUPDATE
 40
2460125.500820011
  9
$TDINDWG
 40
0.0000000116
  9
$TDUSRTIMER
 40
0.0000000116
  9
$USRTIMER
 70
     1
  9
$ANGBASE
 50
0.0
  9
$ANGDIR
 70
     0
  9
$PDMODE
 70
     0
  9
$PDSIZE
 40
-1.0
  9
$PLINEWID
 40
0.0
  9
$SPLFRAME
 70
     0
  9
$SPLINETYPE
 70
     6
  9
$SPLINESEGS
 70
     8
  9
$HANDSEED
  5
19A
  9
$SURFTAB1
 70
     6
  9
$SURFTAB2
 70
     6
  9
$SURFTYPE
 70
     6
  9
$SURFU
 70
     6
  9
$SURFV
 70
     6
  9
$UCSBASE
  2

  9
$UCSNAME
  2

  9
$UCSORG
 10
0.0
 20
0.0
 30
0.0
  9
$UCSXDIR
 10
1.0
 20
0.0
 30
0.0
  9
$UCSYDIR
 10
0.0
 20
1.0
 30
0.0
  9
$UCSORTHOREF
  2

  9
$UCSORTHOVIEW
 70
     0
  9
$UCSORGTOP
 10
0.0
 20
0.0
 30
0.0
  9
$UCSORGBOTTOM
 10
0.0
 20
0.0
 30
0.0
  9
$UCSORGLEFT
 10
0.0
 20
0.0
 30
0.0
  9
$UCSORGRIGHT
 10
0.0
 20
0.0
 30
0.0
  9
$UCSORGFRONT
 10
0.0
 20
0.0
 30
0.0
  9
$UCSORGBACK
 10
0.0
 20
0.0
 30
0.0
  9
$PUCSBASE
  2

  9
$PUCSNAME
  2

  9
$PUCSORG
 10
0.0
 20
0.0
 30
0.0
  9
$PUCSXDIR
 10
1.0
 20
0.0
 30
0.0
  9
$PUCSYDIR
 10
0.0
 20
1.0
 30
0.0
  9
$PUCSORTHOREF
  2

  9
$PUCSORTHOVIEW
 70
     0
  9
$PUCSORGTOP
 10
0.0
 20
0.0
 30
0.0
  9
$PUCSORGBOTTOM
 10
0.0
 20
0.0
 30
0.0
  9
$PUCSORGLEFT
 10
0.0
 20
0.0
 30
0.0
  9
$PUCSORGRIGHT
 10
0.0
 20
0.0
 30
0.0
  9
$PUCSORGFRONT
 10
0.0
 20
0.0
 30
0.0
  9
$PUCSORGBACK
 10
0.0
 20
0.0
 30
0.0
  9
$USERI1
 70
     0
  9
$USERI2
 70
     0
  9
$USERI3
 70
     0
  9
$USERI4
 70
     0
  9
$USERI5
 70
     0
  9
$USERR1
 40
0.0
  9
$USERR2
 40
0.0
  9
$USERR3
 40
0.0
  9
$USERR4
 40
0.0
  9
$USERR5
 40
0.0
  9
$WORLDVIEW
 70
     1
  9
$SHADEDGE
 70
     3
  9
$SHADEDIF
 70
    70
  9
$TILEMODE
 70
     1
  9
$MAXACTVP
 70
    64
  9
$PINSBASE
 10
0.0
 20
0.0
 30
0.0
  9
$PLIMCHECK
 70
     0
  9
$PEXTMIN
 10
1.0000000000E+20
 20
1.0000000000E+20
 30
1.0000000000E+20
  9
$PEXTMAX
 10
-1.0000000000E+20
 20
-1.0000000000E+20
 30
-1.0000000000E+20
  9
$PLIMMIN
 10
0.0
 20
0.0
  9
$PLIMMAX
 10
420.0
 20
297.0
  9
$UNITMODE
 70
     0
  9
$VISRETAIN
 70
     1
  9
$PLINEGEN
 70
     0
  9
$PSLTSCALE
 70
     1
  9
$TREEDEPTH
 70
  3020
  9
$CMLSTYLE
  2
Standard
  9
$CMLJUST
 70
     0
  9
$CMLSCALE
 40
20.0
  9
$PROXYGRAPHICS
 70
     1
  9
$MEASUREMENT
 70
     1
  9
$CELWEIGHT
370
    -1
  9
$ENDCAPS
280
     0
  9
$JOINSTYLE
280
     0
  9
$LWDISPLAY
290
     1
  9
$INSUNITS
 70
     4
  9
$HYPERLINKBASE
  1

  9
$STYLESHEET
  1

  9
$XEDIT
290
     1
  9
$CEPSNTYPE
380
     0
  9
$PSTYLEMODE
290
     1
  9
$FINGERPRINTGUID
  2
{20d23a3c-7567-47e6-89fd-015e17cd7823}
  9
$VERSIONGUID
  2
{FAEB1C32-E019-11D5-929B-00C0DF256EC4}
  9
$EXTNAMES
290
     1
  9
$PSVPSCALE
 40
0.0
  9
$OLESTARTUP
290
     0
  9
$SORTENTS
280
   127
  9
$INDEXCTL
280
     0
  9
$HIDETEXT
280
     1
  9
$XCLIPFRAME
290
     0
  9
$HALOGAP
280
     0
  9
$OBSCOLOR
 70
   257
  9
$OBSLTYPE
280
     0
  9
$INTERSECTIONDISPLAY
280
     0
  9
$INTERSECTIONCOLOR
 70
   257
  9
$DIMASSOC
280
     2
  9
$PROJECTNAME
  1

  9
$CAMERADISPLAY
290
     0
  9
$LENSLENGTH
 40
50.0
  9
$CAMERAHEIGHT
 40
0.0
  9
$STEPSPERSEC
 40
2.0
  9
$STEPSIZE
 40
6.0
  9
$3DDWFPREC
 40
2.0
  9
$PSOLWIDTH
 40
5.0
  9
$PSOLHEIGHT
 40
80.0
  9
$LOFTANG1
 40
1.5707963268
  9
$LOFTANG2
 40
1.5707963268
  9
$LOFTMAG1
 40
0.0
  9
$LOFTMAG2
 40
0.0
  9
$LOFTPARAM
 70
     7
  9
$LOFTNORMALS
280
     1
  9
$LATITUDE
 40
37.795
  9
$LONGITUDE
 40
-122.394
  9
$NORTHDIRECTION
 40
0.0
  9
$TIMEZONE
 70
 -8000
  9
$LIGHTGLYPHDISPLAY
280
     1
  9
$TILEMODELIGHTSYNCH
280
     1
  9
$CMATERIAL
347
44
  9
$SOLIDHIST
280
     0
  9
$SHOWHIST
280
     1
  9
$DWFFRAME
280
     2
  9
$DGNFRAME
280
     2
  9
$REALWORLDSCALE
290
     1
  9
$INTERFERECOLOR
 62
   256
  9
$CSHADOW
280
     0
  9
$SHADOWPLANELOCATION
 40
0.0
  0
ENDSEC
  0
SECTION
  2
CLASSES
  0
CLASS
  1
ACDBDICTIONARYWDFLT
  2
AcDbDictionaryWithDefault
  3
ObjectDBX Classes
 90
        0
 91
        3
280
     0
281
     0
  0
CLASS
  1
VISUALSTYLE
  2
AcDbVisualStyle
  3
ObjectDBX Classes
 90
     4095
 91
        3
280
     0
281
     0
  0
CLASS
  1
MATERIAL
  2
AcDbMaterial
  3
ObjectDBX Classes
 90
     1153
 91
        3
280
     0
281
     0
  0
CLASS
  1
SCALE
  2
AcDbScale
  3
ObjectDBX Classes
 90
     1153
 91
        3
280
     0
281
     0
  0
CLASS
  1
TABLESTYLE
  2
AcDbTableStyle
  3
ObjectDBX Classes
 90
     4095
 91
        3
280
     0
281
     0
  0
CLASS
  1
MLEADERSTYLE
  2
AcDbMLeaderStyle
  3
ACDB_MLEADERSTYLE_CLASS
 90
     4095
 91
        3
280
     0
281
     0
  0
CLASS
  1
SUN
  2
AcDbSun
  3
SCENEOE
 90
     1153
 91
        3
280
     0
281
     0
  0
CLASS
  1
DICTIONARYVAR
  2
AcDbDictionaryVar
  3
ObjectDBX Classes
 90
        0
 91
        3
280
     0
281
     0
  0
CLASS
  1
CELLSTYLEMAP
  2
AcDbCellStyleMap
  3
ObjectDBX Classes
 90
     1152
 91
        3
280
     0
281
     0
  0
ENDSEC
  0
SECTION
  2
TABLES
  0
TABLE
  2
VPORT
  5
8
330
0
100
AcDbSymbolTable
 70
     1
  0
VPORT
  5
29
330
8
100
AcDbSymbolTableRecord
100
AcDbViewportTableRecord
  2
*Active
 70
     0
 10
0.0
 20
0.0
 11
1.0
 21
1.0
 12
148.5
 22
105.0
 13
0.0
 23
0.0
 14
10.0
 24
10.0
 15
10.0
 25
10.0
 16
0.0
 26
0.0
 36
1.0
 17
0.0
 27
0.0
 37
0.0
 40
210.0
 41
1.4142857143
 42
50.0
 43
0.0
 44
0.0
 50
0.0
 51
0.0
 71
     0
 72
  2000
 73
     1
 74
     3
 75
     0
 76
     0
 77
     0
 78
     0
281
     0
 65
     1
110
0.0
120
0.0
130
0.0
111
1.0
121
0.0
131
0.0
112
0.0
122
1.0
132
0.0
 79
     0
146
0.0
348
2F
 60
     3
 61
     5
292
     1
282
     1
141
0.0
142
0.0
 63
   250
361
6D
  0
ENDTAB
  0
TABLE
  2
LTYPE
  5
5
330
0
100
AcDbSymbolTable
 70
     6
  0
LTYPE
  5
14
330
5
100
AcDbSymbolTableRecord
100
AcDbLinetypeTableRecord
  2
ByBlock
 70
     0
  3

 72
    65
 73
     0
 40
0.0
  0
LTYPE
  5
15
330
5
100
AcDbSymbolTableRecord
100
AcDbLinetypeTableRecord
  2
ByLayer
 70
     0
  3

 72
    65
 73
     0
 40
0.0
  0
LTYPE
  5
16
330
5
100
AcDbSymbolTableRecord
100
AcDbLinetypeTableRecord
  2
Continuous
 70
     0
  3
Solid line
 72
    65
 73
     0
 40
0.0
  0
LTYPE
  5
6E
330
5
100
AcDbSymbolTableRecord
100
AcDbLinetypeTableRecord
  2
HIDDEN
 70
     0
  3
Hidden __ __ __ __ __ __ __ __ __ __ __ __ __ __
 72
    65
 73
     2
 40
1.905
 49
1.27
 74
     0
 49
-0.635
 74
     0
  0
LTYPE
  5
6F
330
5
100
AcDbSymbolTableRecord
100
AcDbLinetypeTableRecord
  2
PHANTOM
 70
     0
  3
Phantom ______  __  __  ______  __  __  ______
 72
    65
 73
     6
 40
12.7
 49
6.35
 74
     0
 49
-1.27
 74
     0
 49
1.27
 74
     0
 49
-1.27
 74
     0
 49
1.27
 74
     0
 49
-1.27
 74
     0
  0
LTYPE
  5
70
330
5
100
AcDbSymbolTableRecord
100
AcDbLinetypeTableRecord
  2
CENTER
 70
     0
  3
Center ____ _ ____ _ ____ _ ____ _ ____ _ ____
 72
    65
 73
     4
 40
10.16
 49
6.35
 74
     0
 49
-1.27
 74
     0
 49
1.27
 74
     0
 49
-1.27
 74
     0
  0
LTYPE
  5
71
330
5
100
AcDbSymbolTableRecord
100
AcDbLinetypeTableRecord
  2
CENTERX2
 70
     0
  3
Center (2x) ________  __  ________  __  _____
 72
    65
 73
     4
 40
20.32
 49
12.7
 74
     0
 49
-2.54
 74
     0
 49
2.54
 74
     0
 49
-2.54
 74
     0
  0
LTYPE
  5
72
330
5
100
AcDbSymbolTableRecord
100
AcDbLinetypeTableRecord
  2
DOT2
 70
     0
  3
Dot (.5x) ........................................
 72
    65
 73
     2
 40
0.635
 49
0.0
 74
     0
 49
-0.635
 74
     0
  0
ENDTAB
  0
TABLE
  2
LAYER
  5
2
330
0
100
AcDbSymbolTable
 70
     8
  0
LAYER
  5
10
330
2
100
AcDbSymbolTableRecord
100
AcDbLayerTableRecord
  2
0
 70
     0
 62
     7
  6
Continuous
370
    -3
390
F
347
46
  0
LAYER
  5
73
330
2
100
AcDbSymbolTableRecord
100
AcDbLayerTableRecord
  2
SLD-0
 70
     0
 62
   179
  6
Continuous
370
    -3
390
F
347
46
  0
LAYER
  5
74
330
2
100
AcDbSymbolTableRecord
100
AcDbLayerTableRecord
  2
1
 70
     0
 62
     4
  6
Continuous
290
     0
370
    -3
390
F
347
46
  0
LAYER
  5
75
330
2
100
AcDbSymbolTableRecord
100
AcDbLayerTableRecord
  2
SK3
 70
     0
 62
     1
  6
HIDDEN
290
     0
370
    -3
390
F
347
46
  0
LAYER
  5
76
330
2
100
AcDbSymbolTableRecord
100
AcDbLayerTableRecord
  2
SK4
 70
     0
 62
     2
  6
CENTER
290
     0
370
    -3
390
F
347
46
  0
LAYER
  5
77
330
2
100
AcDbSymbolTableRecord
100
AcDbLayerTableRecord
  2
SK2
 70
     0
 62
     7
  6
Continuous
290
     0
370
    -3
390
F
347
46
  0
LAYER
  5
78
330
2
100
AcDbSymbolTableRecord
100
AcDbLayerTableRecord
  2
SK6
 70
     0
 62
     5
  6
Continuous
290
     0
370
    -3
390
F
347
46
  0
LAYER
  5
79
330
2
100
AcDbSymbolTableRecord
100
AcDbLayerTableRecord
  2
SK1
 70
     0
 62
     4
  6
Continuous
370
    -3
390
F
347
46
  0
ENDTAB
  0
TABLE
  2
STYLE
  5
3
330
0
100
AcDbSymbolTable
 70
     2
  0
STYLE
  5
11
330
3
100
AcDbSymbolTableRecord
100
AcDbTextStyleTableRecord
  2
Standard
 70
     0
 40
0.0
 41
1.0
 50
0.0
 71
     0
 42
3.5
  3
txt
  4

  0
STYLE
  5
13F
330
3
100
AcDbSymbolTableRecord
100
AcDbTextStyleTableRecord
  2
SLDTEXTSTYLE0
 70
     0
 40
0.0
 41
0.75
 50
0.0
 71
     0
 42
3.5
  3
TXT
  4

  0
ENDTAB
  0
TABLE
  2
VIEW
  5
6
330
0
100
AcDbSymbolTable
 70
     0
  0
ENDTAB
  0
TABLE
  2
UCS
  5
7
330
0
100
AcDbSymbolTable
 70
     0
  0
ENDTAB
  0
TABLE
  2
APPID
  5
9
330
0
100
AcDbSymbolTable
 70
     2
  0
APPID
  5
12
330
9
100
AcDbSymbolTableRecord
100
AcDbRegAppTableRecord
  2
ACAD
 70
     0
  0
APPID
  5
192
330
9
100
AcDbSymbolTableRecord
100
AcDbRegAppTableRecord
  2
ACAD_MLEADERVER
 70
     0
  0
ENDTAB
  0
TABLE
  2
DIMSTYLE
  5
A
330
0
100
AcDbSymbolTable
 70
     2
100
AcDbDimStyleTable
  0
DIMSTYLE
105
27
330
A
100
AcDbSymbolTableRecord
100
AcDbDimStyleTableRecord
  2
ISO-25
 70
     0
 41
2.5
 42
0.625
 43
3.75
 44
1.25
 73
     0
 74
     0
 77
     1
 78
     8
140
2.5
141
2.5
143
0.0393700787
147
0.625
171
     3
172
     1
178
     0
271
     2
272
     2
274
     3
278
    44
283
     0
284
     8
340
11
  0
DIMSTYLE
105
140
102
{ACAD_REACTORS
330
13E
330
14B
330
155
330
15F
330
16A
330
175
330
180
102
}
330
A
100
AcDbSymbolTableRecord
100
AcDbDimStyleTableRecord
  2
SLDDIMSTYLE0
 70
     0
 41
3.302
 44
0.0
 45
0.000000001
 73
     0
 74
     0
 77
     1
 78
    12
 79
     3
140
3.5
147
0.875
173
     1
178
     0
271
     2
272
     2
276
     2
284
    12
340
13F
  0
ENDTAB
  0
TABLE
  2
BLOCK_RECORD
  5
1
330
0
100
AcDbSymbolTable
 70
     8
  0
BLOCK_RECORD
  5
1F
330
1
100
AcDbSymbolTableRecord
100
AcDbBlockTableRecord
  2
*Model_Space
340
22
 70
     0
280
     1
281
     0
  0
BLOCK_RECORD
  5
1B
330
1
100
AcDbSymbolTableRecord
100
AcDbBlockTableRecord
  2
*Paper_Space
340
1E
 70
     0
280
     1
281
     0
  0
BLOCK_RECORD
  5
23
330
1
100
AcDbSymbolTableRecord
100
AcDbBlockTableRecord
  2
*Paper_Space0
340
26
 70
     0
280
     1
281
     0
  0
BLOCK_RECORD
  5
141
330
1
100
AcDbSymbolTableRecord
100
AcDbBlockTableRecord
  2
_D
340
0
 70
     0
280
     1
281
     0
  0
BLOCK_RECORD
  5
14C
330
1
100
AcDbSymbolTableRecord
100
AcDbBlockTableRecord
  2
_D_1
340
0
 70
     0
280
     1
281
     0
  0
BLOCK_RECORD
  5
156
330
1
100
AcDbSymbolTableRecord
100
AcDbBlockTableRecord
  2
_D_2
340
0
 70
     0
280
     1
281
     0
  0
BLOCK_RECORD
  5
160
330
1
100
AcDbSymbolTableRecord
100
AcDbBlockTableRecord
  2
_D_3
340
0
 70
     0
280
     1
281
     0
  0
BLOCK_RECORD
  5
16B
330
1
100
AcDbSymbolTableRecord
100
AcDbBlockTableRecord
  2
_D_4
340
0
 70
     0
280
     1
281
     0
  0
BLOCK_RECORD
  5
176
330
1
100
AcDbSymbolTableRecord
100
AcDbBlockTableRecord
  2
_D_5
340
0
 70
     0
280
     1
281
     0
  0
BLOCK_RECORD
  5
181
330
1
100
AcDbSymbolTableRecord
100
AcDbBlockTableRecord
  2
_D_6
340
0
 70
     0
280
     1
281
     0
  0
ENDTAB
  0
ENDSEC
  0
SECTION
  2
BLOCKS
  0
BLOCK
  5
20
330
1F
100
AcDbEntity
  8
0
100
AcDbBlockBegin
  2
*Model_Space
 70
     0
 10
0.0
 20
0.0
 30
0.0
  3
*Model_Space
  1

  0
ENDBLK
  5
21
330
1F
100
AcDbEntity
  8
0
100
AcDbBlockEnd
  0
BLOCK
  5
1C
330
1B
100
AcDbEntity
 67
     1
  8
0
100
AcDbBlockBegin
  2
*Paper_Space
 70
     0
 10
0.0
 20
0.0
 30
0.0
  3
*Paper_Space
  1

  0
ENDBLK
  5
1D
330
1B
100
AcDbEntity
 67
     1
  8
0
100
AcDbBlockEnd
  0
BLOCK
  5
24
330
23
100
AcDbEntity
  8
0
100
AcDbBlockBegin
  2
*Paper_Space0
 70
     0
 10
0.0
 20
0.0
 30
0.0
  3
*Paper_Space0
  1

  0
ENDBLK
  5
25
330
23
100
AcDbEntity
  8
0
100
AcDbBlockEnd
  0
BLOCK
  5
142
330
141
100
AcDbEntity
  8
0
100
AcDbBlockBegin
  2
_D
 70
     0
 10
0.0
 20
0.0
 30
0.0
  3
_D
  1

  0
SOLID
  5
144
330
141
100
AcDbEntity
  8
SK2
100
AcDbTrace
 10
-33.5142829606
 20
-31.47
 30
0.0
 11
-33.0062829606
 21
-28.168
 31
0.0
 12
-34.0222829606
 22
-28.168
 32
0.0
 13
-34.0222829606
 23
-28.168
 33
0.0
  0
SOLID
  5
145
330
141
100
AcDbEntity
  8
SK2
100
AcDbTrace
 10
-33.5142829606
 20
31.47
 30
0.0
 11
-34.0222829606
 21
28.168
 31
0.0
 12
-33.0062829606
 22
28.168
 32
0.0
 13
-33.0062829606
 23
28.168
 33
0.0
  0
LINE
  5
146
330
141
100
AcDbEntity
  8
SK2
100
AcDbLine
 10
-0.8
 20
-31.47
 30
0.0
 11
-34.5142829606
 21
-31.47
 31
0.0
  0
LINE
  5
147
330
141
100
AcDbEntity
  8
SK2
100
AcDbLine
 10
-0.8
 20
31.47
 30
0.0
 11
-34.5142829606
 21
31.47
 31
0.0
  0
LINE
  5
148
330
141
100
AcDbEntity
  8
SK2
100
AcDbLine
 10
-33.5142829606
 20
-31.47
 30
0.0
 11
-33.5142829606
 21
31.47
 31
0.0
  0
MTEXT
  5
149
330
141
100
AcDbEntity
  8
SK2
100
AcDbMText
 10
-38.0260200498
 20
-5.6136521083
 30
0.0
 40
3.5
 41
0.0
 46
0.0
 71
     1
 72
     1
  1
%%c
  7
SLDTEXTSTYLE0
 11
9.494107596574928E-16
 21
1.0
 31
0.0
 73
     1
 44
1.0
  0
MTEXT
  5
14A
330
141
100
AcDbEntity
  8
SK2
100
AcDbMText
 10
-38.0794922264
 20
-0.3352147099
 30
0.0
 40
3.5
 41
0.0
 46
0.0
 71
     1
 72
     1
  1
63
  7
SLDTEXTSTYLE0
 11
9.494107596574928E-16
 21
1.0
 31
0.0
 73
     1
 44
1.0
  0
ENDBLK
  5
143
330
141
100
AcDbEntity
  8
0
100
AcDbBlockEnd
  0
BLOCK
  5
14D
330
14C
100
AcDbEntity
  8
0
100
AcDbBlockBegin
  2
_D_1
 70
     0
 10
0.0
 20
0.0
 30
0.0
  3
_D_1
  1

  0
SOLID
  5
14F
330
14C
100
AcDbEntity
  8
SK2
100
AcDbTrace
 10
-24.9
 20
-49.4764520566
 30
0.0
 11
-21.598
 21
-49.9844520566
 31
0.0
 12
-21.598
 22
-48.9684520566
 32
0.0
 13
-21.598
 23
-48.9684520566
 33
0.0
  0
SOLID
  5
150
330
14C
100
AcDbEntity
  8
SK2
100
AcDbTrace
 10
120.0
 20
-49.4764520566
 30
0.0
 11
116.698
 21
-48.9684520566
 31
0.0
 12
116.698
 22
-49.9844520566
 32
0.0
 13
116.698
 23
-49.9844520566
 33
0.0
  0
LINE
  5
151
330
14C
100
AcDbEntity
  8
SK2
100
AcDbLine
 10
-24.9
 20
-18.056377311
 30
0.0
 11
-24.9
 21
-50.4764520566
 31
0.0
  0
LINE
  5
152
330
14C
100
AcDbEntity
  8
SK2
100
AcDbLine
 10
120.0
 20
-24.0
 30
0.0
 11
120.0
 21
-50.4764520566
 31
0.0
  0
LINE
  5
153
330
14C
100
AcDbEntity
  8
SK2
100
AcDbLine
 10
-24.9
 20
-49.4764520566
 30
0.0
 11
120.0
 21
-49.4764520566
 31
0.0
  0
MTEXT
  5
154
330
14C
100
AcDbEntity
  8
SK2
100
AcDbMText
 10
42.717268157
 20
-44.964715142
 30
0.0
 40
3.5
 41
0.0
 46
0.0
 71
     1
 72
     1
  1
144,9
  7
SLDTEXTSTYLE0
 73
     1
 44
1.0
  0
ENDBLK
  5
14E
330
14C
100
AcDbEntity
  8
0
100
AcDbBlockEnd
  0
BLOCK
  5
157
330
156
100
AcDbEntity
  8
0
100
AcDbBlockBegin
  2
_D_2
 70
     0
 10
0.0
 20
0.0
 30
0.0
  3
_D_2
  1

  0
SOLID
  5
159
330
156
100
AcDbEntity
  8
SK2
100
AcDbTrace
 10
0.0
 20
44.7101502445
 30
0.0
 11
3.302
 21
44.2021502445
 31
0.0
 12
3.302
 22
45.2181502445
 32
0.0
 13
3.302
 23
45.2181502445
 33
0.0
  0
SOLID
  5
15A
330
156
100
AcDbEntity
  8
SK2
100
AcDbTrace
 10
120.0
 20
44.7101502445
 30
0.0
 11
116.698
 21
45.2181502445
 31
0.0
 12
116.698
 22
44.2021502445
 32
0.0
 13
116.698
 23
44.2021502445
 33
0.0
  0
LINE
  5
15B
330
156
100
AcDbEntity
  8
SK2
100
AcDbLine
 10
0.0
 20
32.27
 30
0.0
 11
0.0
 21
45.7101502445
 31
0.0
  0
LINE
  5
15C
330
156
100
AcDbEntity
  8
SK2
100
AcDbLine
 10
120.0
 20
24.0
 30
0.0
 11
120.0
 21
45.7101502445
 31
0.0
  0
LINE
  5
15D
330
156
100
AcDbEntity
  8
SK2
100
AcDbLine
 10
0.0
 20
44.7101502445
 30
0.0
 11
120.0
 21
44.7101502445
 31
0.0
  0
MTEXT
  5
15E
330
156
100
AcDbEntity
  8
SK2
100
AcDbMText
 10
54.8290430873
 20
49.2218871591
 30
0.0
 40
3.5
 41
0.0
 46
0.0
 71
     1
 72
     1
  1
120
  7
SLDTEXTSTYLE0
 73
     1
 44
1.0
  0
ENDBLK
  5
158
330
156
100
AcDbEntity
  8
0
100
AcDbBlockEnd
  0
BLOCK
  5
161
330
160
100
AcDbEntity
  8
0
100
AcDbBlockBegin
  2
_D_3
 70
     0
 10
0.0
 20
0.0
 30
0.0
  3
_D_3
  1

  0
SOLID
  5
163
330
160
100
AcDbEntity
  8
SK2
100
AcDbTrace
 10
153.3966112074
 20
25.0
 30
0.0
 11
152.8886112074
 21
21.698
 31
0.0
 12
153.9046112074
 22
21.698
 32
0.0
 13
153.9046112074
 23
21.698
 33
0.0
  0
SOLID
  5
164
330
160
100
AcDbEntity
  8
SK2
100
AcDbTrace
 10
153.3966112074
 20
-25.0
 30
0.0
 11
153.9046112074
 21
-21.698
 31
0.0
 12
152.8886112074
 22
-21.698
 32
0.0
 13
152.8886112074
 23
-21.698
 33
0.0
  0
LINE
  5
165
330
160
100
AcDbEntity
  8
SK2
100
AcDbLine
 10
109.6574363608
 20
25.0
 30
0.0
 11
154.3966112074
 21
25.0
 31
0.0
  0
LINE
  5
166
330
160
100
AcDbEntity
  8
SK2
100
AcDbLine
 10
109.6574363608
 20
-25.0
 30
0.0
 11
154.3966112074
 21
-25.0
 31
0.0
  0
LINE
  5
167
330
160
100
AcDbEntity
  8
SK2
100
AcDbLine
 10
153.3966112074
 20
25.0
 30
0.0
 11
153.3966112074
 21
-25.0
 31
0.0
  0
MTEXT
  5
168
330
160
100
AcDbEntity
  8
SK2
100
AcDbMText
 10
148.8848741182
 20
-5.6136521083
 30
0.0
 40
3.5
 41
0.0
 46
0.0
 71
     1
 72
     1
  1
%%c
  7
SLDTEXTSTYLE0
 11
-7.044195017643634E-15
 21
1.0
 31
0.0
 73
     1
 44
1.0
  0
MTEXT
  5
169
330
160
100
AcDbEntity
  8
SK2
100
AcDbMText
 10
148.8314019415
 20
-0.3352147099
 30
0.0
 40
3.5
 41
0.0
 46
0.0
 71
     1
 72
     1
  1
50
  7
SLDTEXTSTYLE0
 11
-7.044195017643634E-15
 21
1.0
 31
0.0
 73
     1
 44
1.0
  0
ENDBLK
  5
162
330
160
100
AcDbEntity
  8
0
100
AcDbBlockEnd
  0
BLOCK
  5
16C
330
16B
100
AcDbEntity
  8
0
100
AcDbBlockBegin
  2
_D_4
 70
     0
 10
0.0
 20
0.0
 30
0.0
  3
_D_4
  1

  0
SOLID
  5
16E
330
16B
100
AcDbEntity
  8
SK2
100
AcDbTrace
 10
141.757814386
 20
23.0
 30
0.0
 11
141.249814386
 21
19.698
 31
0.0
 12
142.265814386
 22
19.698
 32
0.0
 13
142.265814386
 23
19.698
 33
0.0
  0
SOLID
  5
16F
330
16B
100
AcDbEntity
  8
SK2
100
AcDbTrace
 10
141.757814386
 20
-23.0
 30
0.0
 11
142.265814386
 21
-19.698
 31
0.0
 12
141.249814386
 22
-19.698
 32
0.0
 13
141.249814386
 23
-19.698
 33
0.0
  0
LINE
  5
170
330
16B
100
AcDbEntity
  8
SK2
100
AcDbLine
 10
121.0
 20
23.0
 30
0.0
 11
142.757814386
 21
23.0
 31
0.0
  0
LINE
  5
171
330
16B
100
AcDbEntity
  8
SK2
100
AcDbLine
 10
121.0
 20
-23.0
 30
0.0
 11
142.757814386
 21
-23.0
 31
0.0
  0
LINE
  5
172
330
16B
100
AcDbEntity
  8
SK2
100
AcDbLine
 10
141.757814386
 20
23.0
 30
0.0
 11
141.757814386
 21
-23.0
 31
0.0
  0
MTEXT
  5
173
330
16B
100
AcDbEntity
  8
SK2
100
AcDbMText
 10
137.2460772968
 20
-5.6136521083
 30
0.0
 40
3.5
 41
0.0
 46
0.0
 71
     1
 72
     1
  1
%%c
  7
SLDTEXTSTYLE0
 11
-7.044195017643634E-15
 21
1.0
 31
0.0
 73
     1
 44
1.0
  0
MTEXT
  5
174
330
16B
100
AcDbEntity
  8
SK2
100
AcDbMText
 10
137.1926051201
 20
-0.3352147099
 30
0.0
 40
3.5
 41
0.0
 46
0.0
 71
     1
 72
     1
  1
46
  7
SLDTEXTSTYLE0
 11
-7.044195017643634E-15
 21
1.0
 31
0.0
 73
     1
 44
1.0
  0
ENDBLK
  5
16D
330
16B
100
AcDbEntity
  8
0
100
AcDbBlockEnd
  0
BLOCK
  5
177
330
176
100
AcDbEntity
  8
0
100
AcDbBlockBegin
  2
_D_5
 70
     0
 10
0.0
 20
0.0
 30
0.0
  3
_D_5
  1

  0
SOLID
  5
179
330
176
100
AcDbEntity
  8
SK2
100
AcDbTrace
 10
130.9724005477
 20
-12.5
 30
0.0
 11
131.4804005477
 21
-9.198
 31
0.0
 12
130.4644005477
 22
-9.198
 32
0.0
 13
130.4644005477
 23
-9.198
 33
0.0
  0
SOLID
  5
17A
330
176
100
AcDbEntity
  8
SK2
100
AcDbTrace
 10
130.9724005477
 20
12.5
 30
0.0
 11
130.4644005477
 21
9.198
 31
0.0
 12
131.4804005477
 22
9.198
 32
0.0
 13
131.4804005477
 23
9.198
 33
0.0
  0
LINE
  5
17B
330
176
100
AcDbEntity
  8
SK2
100
AcDbLine
 10
120.0
 20
-12.5
 30
0.0
 11
131.9724005477
 21
-12.5
 31
0.0
  0
LINE
  5
17C
330
176
100
AcDbEntity
  8
SK2
100
AcDbLine
 10
120.0
 20
12.5
 30
0.0
 11
131.9724005477
 21
12.5
 31
0.0
  0
LINE
  5
17D
330
176
100
AcDbEntity
  8
SK2
100
AcDbLine
 10
130.9724005477
 20
-12.5
 30
0.0
 11
130.9724005477
 21
12.5
 31
0.0
  0
MTEXT
  5
17E
330
176
100
AcDbEntity
  8
SK2
100
AcDbMText
 10
126.4606634585
 20
-5.6136521083
 30
0.0
 40
3.5
 41
0.0
 46
0.0
 71
     1
 72
     1
  1
%%c
  7
SLDTEXTSTYLE0
 11
2.832769448823990E-16
 21
1.0
 31
0.0
 73
     1
 44
1.0
  0
MTEXT
  5
17F
330
176
100
AcDbEntity
  8
SK2
100
AcDbMText
 10
126.4071912818
 20
-0.3352147099
 30
0.0
 40
3.5
 41
0.0
 46
0.0
 71
     1
 72
     1
  1
25
  7
SLDTEXTSTYLE0
 11
2.832769448823990E-16
 21
1.0
 31
0.0
 73
     1
 44
1.0
  0
ENDBLK
  5
178
330
176
100
AcDbEntity
  8
0
100
AcDbBlockEnd
  0
BLOCK
  5
182
330
181
100
AcDbEntity
  8
0
100
AcDbBlockBegin
  2
_D_6
 70
     0
 10
0.0
 20
0.0
 30
0.0
  3
_D_6
  1

  0
SOLID
  5
184
330
181
100
AcDbEntity
  8
SK2
100
AcDbTrace
 10
120.0
 20
-39.1357395594
 30
0.0
 11
116.698
 21
-38.6277395594
 31
0.0
 12
116.698
 22
-39.6437395594
 32
0.0
 13
116.698
 23
-39.6437395594
 33
0.0
  0
SOLID
  5
185
330
181
100
AcDbEntity
  8
SK2
100
AcDbTrace
 10
62.0
 20
-39.1357395594
 30
0.0
 11
65.302
 21
-39.6437395594
 31
0.0
 12
65.302
 22
-38.6277395594
 32
0.0
 13
65.302
 23
-38.6277395594
 33
0.0
  0
LINE
  5
186
330
181
100
AcDbEntity
  8
SK2
100
AcDbLine
 10
120.0
 20
-24.0
 30
0.0
 11
120.0
 21
-40.1357395594
 31
0.0
  0
LINE
  5
187
330
181
100
AcDbEntity
  8
SK2
100
AcDbLine
 10
62.0
 20
-13.7
 30
0.0
 11
62.0
 21
-40.1357395594
 31
0.0
  0
LINE
  5
188
330
181
100
AcDbEntity
  8
SK2
100
AcDbLine
 10
120.0
 20
-39.1357395594
 30
0.0
 11
62.0
 21
-39.1357395594
 31
0.0
  0
MTEXT
  5
189
330
181
100
AcDbEntity
  8
SK2
100
AcDbMText
 10
81.3428805154
 20
-29.0677526537
 30
0.0
 40
3.5
 41
0.0
 46
0.0
 71
     1
 72
     1
  1
58
  7
SLDTEXTSTYLE0
 73
     1
 44
1.0
  0
MTEXT
  5
18A
330
181
100
AcDbEntity
  8
SK2
100
AcDbMText
 10
87.8276029025
 20
-29.0677526537
 30
0.0
 40
3.5
 41
0.0
 46
0.0
 71
     1
 72
     1
  1
MAX
  7
SLDTEXTSTYLE0
 73
     1
 44
1.0
  0
MTEXT
  5
18B
330
181
100
AcDbEntity
  8
SK2
100
AcDbMText
 10
82.2373255101
 20
-34.6240026448
 30
0.0
 40
3.5
 41
0.0
 46
0.0
 71
     1
 72
     1
  1
48 MIN
  7
SLDTEXTSTYLE0
 73
     1
 44
1.0
  0
ENDBLK
  5
183
330
181
100
AcDbEntity
  8
0
100
AcDbBlockEnd
  0
ENDSEC
  0
SECTION
  2
ENTITIES
  0
LINE
  5
7A
330
1F
100
AcDbEntity
  8
1
  6
Continuous
370
    25
100
AcDbLine
 10
14.5387851362
 20
31.47
 30
0.0
 11
0.2
 21
31.47
 31
0.0
  0
LINE
  5
7B
330
1F
100
AcDbEntity
  8
1
  6
Continuous
370
    25
100
AcDbLine
 10
0.2
 20
-31.47
 30
0.0
 11
14.5387851362
 21
-31.47
 31
0.0
  0
LINE
  5
7C
330
1F
100
AcDbEntity
  8
1
  6
Continuous
370
    25
100
AcDbLine
 10
25.75
 20
31.47
 30
0.0
 11
21.4612148638
 21
31.47
 31
0.0
  0
LINE
  5
7D
330
1F
100
AcDbEntity
  8
1
  6
Continuous
370
    25
100
AcDbLine
 10
21.4612148638
 20
-31.47
 30
0.0
 11
25.75
 21
-31.47
 31
0.0
  0
LINE
  5
7E
330
1F
100
AcDbEntity
  8
1
  6
Continuous
370
    25
100
AcDbLine
 10
21.3313110532
 20
31.395
 30
0.0
 11
19.9125
 21
28.9375471695
 31
0.0
  0
LINE
  5
7F
330
1F
100
AcDbEntity
  8
1
  6
Continuous
370
    25
100
AcDbLine
 10
19.9125
 20
-28.9375471695
 30
0.0
 11
21.3313110532
 21
-31.395
 31
0.0
  0
LINE
  5
80
330
1F
100
AcDbEntity
  8
1
  6
Continuous
370
    25
100
AcDbLine
 10
14.6686889468
 20
-31.395
 30
0.0
 11
16.0875
 21
-28.9375471695
 31
0.0
  0
LINE
  5
81
330
1F
100
AcDbEntity
  8
1
  6
Continuous
370
    25
100
AcDbLine
 10
16.0875
 20
28.9375471695
 30
0.0
 11
14.6686889468
 21
31.395
 31
0.0
  0
LINE
  5
82
330
1F
100
AcDbEntity
  8
1
  6
Continuous
370
    25
100
AcDbLine
 10
19.1625
 20
27.475
 30
0.0
 11
16.8375
 21
27.475
 31
0.0
  0
LINE
  5
83
330
1F
100
AcDbEntity
  8
1
  6
Continuous
370
    25
100
AcDbLine
 10
16.8375
 20
-27.475
 30
0.0
 11
19.1625
 21
-27.475
 31
0.0
  0
LINE
  5
84
330
1F
100
AcDbEntity
  8
1
  6
Continuous
370
    25
100
AcDbLine
 10
94.2
 20
25.0
 30
0.0
 11
93.0
 21
25.0
 31
0.0
  0
LINE
  5
85
330
1F
100
AcDbEntity
  8
1
  6
Continuous
370
    25
100
AcDbLine
 10
93.0
 20
-25.0
 30
0.0
 11
94.2
 21
-25.0
 31
0.0
  0
LINE
  5
86
330
1F
100
AcDbEntity
  8
1
  6
Continuous
370
    25
100
AcDbLine
 10
108.6574363608
 20
-25.0
 30
0.0
 11
120.0
 21
-23.0
 31
0.0
  0
LINE
  5
87
330
1F
100
AcDbEntity
  8
1
  6
Continuous
370
    25
100
AcDbLine
 10
120.0
 20
23.0
 30
0.0
 11
108.6574363608
 21
25.0
 31
0.0
  0
LINE
  5
88
330
1F
100
AcDbEntity
  8
1
  6
Continuous
370
    25
100
AcDbLine
 10
91.2
 20
25.0
 30
0.0
 11
26.7
 21
25.0
 31
0.0
  0
LINE
  5
89
330
1F
100
AcDbEntity
  8
1
  6
Continuous
370
    25
100
AcDbLine
 10
26.7
 20
-25.0
 30
0.0
 11
91.2
 21
-25.0
 31
0.0
  0
LINE
  5
8A
330
1F
100
AcDbEntity
  8
1
  6
Continuous
370
    25
100
AcDbLine
 10
100.2
 20
25.0
 30
0.0
 11
99.0
 21
25.0
 31
0.0
  0
LINE
  5
8B
330
1F
100
AcDbEntity
  8
1
  6
Continuous
370
    25
100
AcDbLine
 10
99.0
 20
-25.0
 30
0.0
 11
100.2
 21
-25.0
 31
0.0
  0
LINE
  5
8C
330
1F
100
AcDbEntity
  8
1
  6
Continuous
370
    25
100
AcDbLine
 10
108.6574363608
 20
25.0
 30
0.0
 11
102.0
 21
25.0
 31
0.0
  0
LINE
  5
8D
330
1F
100
AcDbEntity
  8
1
  6
Continuous
370
    25
100
AcDbLine
 10
102.0
 20
-25.0
 30
0.0
 11
108.6574363608
 21
-25.0
 31
0.0
  0
LINE
  5
8E
330
1F
100
AcDbEntity
  8
1
  6
Continuous
370
    25
100
AcDbLine
 10
97.2
 20
25.0
 30
0.0
 11
96.0
 21
25.0
 31
0.0
  0
LINE
  5
8F
330
1F
100
AcDbEntity
  8
1
  6
Continuous
370
    25
100
AcDbLine
 10
96.0
 20
-25.0
 30
0.0
 11
97.2
 21
-25.0
 31
0.0
  0
LINE
  5
90
330
1F
100
AcDbEntity
  8
SK1
  6
Continuous
370
    25
100
AcDbLine
 10
-10.9956073344
 20
18.7041268843
 30
0.0
 11
-23.9500361105
 21
18.0551247203
 31
0.0
  0
LINE
  5
91
330
1F
100
AcDbEntity
  8
SK1
  6
Continuous
370
    25
100
AcDbLine
 10
-2.0386068945
 20
19.1528624301
 30
0.0
 11
-3.6413704951
 21
19.0725657946
 31
0.0
  0
LINE
  5
92
330
1F
100
AcDbEntity
  8
SK1
  6
Continuous
370
    25
100
AcDbLine
 10
-3.6407142317
 20
-19.0725986727
 30
0.0
 11
-2.0386068945
 21
-19.1528624301
 31
0.0
  0
LINE
  5
93
330
1F
100
AcDbEntity
  8
SK1
  6
Continuous
370
    25
100
AcDbLine
 10
-23.9500361105
 20
-18.0551247203
 30
0.0
 11
-10.9882971576
 21
-18.7044931158
 31
0.0
  0
LINE
  5
94
330
1F
100
AcDbEntity
  8
SK1
  6
Continuous
370
    25
100
AcDbLine
 10
-2.0
 20
-19.1487597322
 30
0.0
 11
-1.1585987036
 21
-18.9233069343
 31
0.0
  0
LINE
  5
95
330
1F
100
AcDbEntity
  8
SK1
  6
Continuous
370
    25
100
AcDbLine
 10
-1.1585987036
 20
18.9233069343
 30
0.0
 11
-2.0
 21
19.1487597322
 31
0.0
  0
LINE
  5
96
330
1F
100
AcDbEntity
  8
SK1
  6
Continuous
370
    25
100
AcDbLine
 10
-0.475
 20
18.9028624301
 30
0.0
 11
-1.0033072765
 21
18.9028624301
 31
0.0
  0
LINE
  5
97
330
1F
100
AcDbEntity
  8
SK1
  6
Continuous
370
    25
100
AcDbLine
 10
-1.0033072765
 20
-18.9028624301
 30
0.0
 11
-0.475
 21
-18.9028624301
 31
0.0
  0
LINE
  5
98
330
1F
100
AcDbEntity
  8
1
  6
Continuous
370
    25
100
AcDbLine
 10
0.0
 20
-31.27
 30
0.0
 11
0.0
 21
31.27
 31
0.0
  0
LINE
  5
99
330
1F
100
AcDbEntity
  8
1
  6
Continuous
370
    25
100
AcDbLine
 10
25.95
 20
31.27
 30
0.0
 11
25.95
 21
-31.27
 31
0.0
  0
LINE
  5
9A
330
1F
100
AcDbEntity
  8
1
  6
Continuous
370
    25
100
AcDbLine
 10
19.9125
 20
28.9375471695
 30
0.0
 11
19.9125
 21
-28.9375471695
 31
0.0
  0
LINE
  5
9B
330
1F
100
AcDbEntity
  8
1
  6
Continuous
370
    25
100
AcDbLine
 10
16.0875
 20
28.9375471695
 30
0.0
 11
16.0875
 21
-28.9375471695
 31
0.0
  0
LINE
  5
9C
330
1F
100
AcDbEntity
  8
1
  6
Continuous
370
    25
100
AcDbLine
 10
93.0
 20
0.0
 30
0.0
 11
93.0
 21
-25.0
 31
0.0
  0
LINE
  5
9D
330
1F
100
AcDbEntity
  8
1
  6
Continuous
370
    25
100
AcDbLine
 10
93.0
 20
25.0
 30
0.0
 11
93.0
 21
0.0
 31
0.0
  0
LINE
  5
9E
330
1F
100
AcDbEntity
  8
1
  6
Continuous
370
    25
100
AcDbLine
 10
94.2
 20
-25.0
 30
0.0
 11
94.2
 21
25.0
 31
0.0
  0
LINE
  5
9F
330
1F
100
AcDbEntity
  8
1
  6
Continuous
370
    25
100
AcDbLine
 10
120.0
 20
23.0
 30
0.0
 11
120.0
 21
-23.0
 31
0.0
  0
LINE
  5
A0
330
1F
100
AcDbEntity
  8
1
  6
Continuous
370
    25
100
AcDbLine
 10
108.6574363608
 20
25.0
 30
0.0
 11
108.6574363608
 21
-25.0
 31
0.0
  0
LINE
  5
A1
330
1F
100
AcDbEntity
  8
1
  6
Continuous
370
    25
100
AcDbLine
 10
91.2
 20
-25.0
 30
0.0
 11
91.2
 21
25.0
 31
0.0
  0
LINE
  5
A2
330
1F
100
AcDbEntity
  8
1
  6
Continuous
370
    25
100
AcDbLine
 10
57.5871539784
 20
17.3538639911
 30
0.0
 11
56.8284907287
 21
17.8850857175
 31
0.0
  0
LINE
  5
A3
330
1F
100
AcDbEntity
  8
1
  6
Continuous
370
    25
100
AcDbLine
 10
52.1116938459
 20
21.187822451
 30
0.0
 11
51.4590503984
 21
21.6448083127
 31
0.0
  0
LINE
  5
A4
330
1F
100
AcDbEntity
  8
1
  6
Continuous
370
    25
100
AcDbLine
 10
96.0
 20
0.0
 30
0.0
 11
96.0
 21
-25.0
 31
0.0
  0
LINE
  5
A5
330
1F
100
AcDbEntity
  8
1
  6
Continuous
370
    25
100
AcDbLine
 10
96.0
 20
25.0
 30
0.0
 11
96.0
 21
0.0
 31
0.0
  0
LINE
  5
A6
330
1F
100
AcDbEntity
  8
1
  6
Continuous
370
    25
100
AcDbLine
 10
100.2
 20
-25.0
 30
0.0
 11
100.2
 21
25.0
 31
0.0
  0
LINE
  5
A7
330
1F
100
AcDbEntity
  8
1
  6
Continuous
370
    25
100
AcDbLine
 10
99.0
 20
0.0
 30
0.0
 11
99.0
 21
-25.0
 31
0.0
  0
LINE
  5
A8
330
1F
100
AcDbEntity
  8
1
  6
Continuous
370
    25
100
AcDbLine
 10
99.0
 20
25.0
 30
0.0
 11
99.0
 21
0.0
 31
0.0
  0
LINE
  5
A9
330
1F
100
AcDbEntity
  8
1
  6
Continuous
370
    25
100
AcDbLine
 10
102.0
 20
0.0
 30
0.0
 11
102.0
 21
-25.0
 31
0.0
  0
LINE
  5
AA
330
1F
100
AcDbEntity
  8
1
  6
Continuous
370
    25
100
AcDbLine
 10
102.0
 20
25.0
 30
0.0
 11
102.0
 21
0.0
 31
0.0
  0
LINE
  5
AB
330
1F
100
AcDbEntity
  8
1
  6
Continuous
370
    25
100
AcDbLine
 10
97.2
 20
-25.0
 30
0.0
 11
97.2
 21
25.0
 31
0.0
  0
LINE
  5
AC
330
1F
100
AcDbEntity
  8
SK1
  6
Continuous
370
    25
100
AcDbLine
 10
-24.9
 20
-17.056377311
 30
0.0
 11
-24.9
 21
17.056377311
 31
0.0
  0
LINE
  5
AD
330
1F
100
AcDbEntity
  8
1
  6
Continuous
370
    25
100
AcDbLine
 10
56.8282472061
 20
17.8852562338
 30
0.0
 11
52.0940647614
 21
21.2001664689
 31
0.0
  0
LINE
  5
AE
330
1F
100
AcDbEntity
  8
1
  6
Continuous
370
    25
100
AcDbLine
 10
0.2
 20
31.47
 30
0.0
 11
0.2
 21
-31.47
 31
0.0
  0
LINE
  5
AF
330
1F
100
AcDbEntity
  8
1
  6
Continuous
370
    25
100
AcDbLine
 10
21.4612148638
 20
31.47
 30
0.0
 11
21.4612148638
 21
-31.47
 31
0.0
  0
LINE
  5
B0
330
1F
100
AcDbEntity
  8
1
  6
Continuous
370
    25
100
AcDbLine
 10
21.3313110532
 20
-31.395
 30
0.0
 11
21.3313110532
 21
31.395
 31
0.0
  0
LINE
  5
B1
330
1F
100
AcDbEntity
  8
1
  6
Continuous
370
    25
100
AcDbLine
 10
14.6686889468
 20
31.395
 30
0.0
 11
14.6686889468
 21
-31.395
 31
0.0
  0
LINE
  5
B2
330
1F
100
AcDbEntity
  8
1
  6
Continuous
370
    25
100
AcDbLine
 10
14.5387851362
 20
-31.47
 30
0.0
 11
14.5387851362
 21
31.47
 31
0.0
  0
LINE
  5
B3
330
1F
100
AcDbEntity
  8
1
  6
Continuous
370
    25
100
AcDbLine
 10
25.75
 20
-31.47
 30
0.0
 11
25.75
 21
31.47
 31
0.0
  0
LINE
  5
B4
330
1F
100
AcDbEntity
  8
1
  6
Continuous
370
    25
100
AcDbLine
 10
16.8375
 20
27.475
 30
0.0
 11
16.8375
 21
-27.475
 31
0.0
  0
LINE
  5
B5
330
1F
100
AcDbEntity
  8
1
  6
Continuous
370
    25
100
AcDbLine
 10
19.1625
 20
27.475
 30
0.0
 11
19.1625
 21
-27.475
 31
0.0
  0
LINE
  5
B6
330
1F
100
AcDbEntity
  8
1
  6
Continuous
370
    25
100
AcDbLine
 10
26.7
 20
25.0
 30
0.0
 11
26.7
 21
-25.0
 31
0.0
  0
LINE
  5
B7
330
1F
100
AcDbEntity
  8
SK1
  6
Continuous
370
    25
100
AcDbLine
 10
-0.475
 20
18.9028624301
 30
0.0
 11
-0.475
 21
-18.9028624301
 31
0.0
  0
LINE
  5
B8
330
1F
100
AcDbEntity
  8
SK1
  6
Continuous
370
    25
100
AcDbLine
 10
-2.0
 20
19.1487597322
 30
0.0
 11
-2.0
 21
-19.1487597322
 31
0.0
  0
LINE
  5
B9
330
1F
100
AcDbEntity
  8
SK1
  6
Continuous
370
    25
100
AcDbLine
 10
-2.0386068945
 20
19.1528624301
 30
0.0
 11
-2.0386068945
 21
-19.1528624301
 31
0.0
  0
LINE
  5
BA
330
1F
100
AcDbEntity
  8
SK1
  6
Continuous
370
    25
100
AcDbLine
 10
-23.9500361105
 20
18.0551247203
 30
0.0
 11
-23.9500361105
 21
-18.0551247203
 31
0.0
  0
LINE
  5
BB
330
1F
100
AcDbEntity
  8
SK1
  6
Continuous
370
    25
100
AcDbLine
 10
-1.1585987036
 20
18.9233069343
 30
0.0
 11
-1.1585987036
 21
-18.9233069343
 31
0.0
  0
LINE
  5
BC
330
1F
100
AcDbEntity
  8
SK1
  6
Continuous
370
    25
100
AcDbLine
 10
-1.0033072765
 20
18.9028624301
 30
0.0
 11
-1.0033072765
 21
-18.9028624301
 31
0.0
  0
LINE
  5
BD
330
1F
100
AcDbEntity
  8
SK3
  6
HIDDEN
370
    18
100
AcDbLine
 10
0.1191608412
 20
19.5863662907
 30
0.0
 11
0.1191608412
 21
-19.571636413
 31
0.0
  0
LINE
  5
BE
330
1F
100
AcDbEntity
  8
SK1
  6
HIDDEN
370
    18
100
AcDbLine
 10
-5.8860931055
 20
-18.7040025393
 30
0.0
 11
-5.8207771747
 21
-18.7123567928
 31
0.0
  0
LINE
  5
BF
330
1F
100
AcDbEntity
  8
SK1
  6
HIDDEN
370
    18
100
AcDbLine
 10
-5.9899898361
 20
-18.6940935377
 30
0.0
 11
-5.8860931055
 21
-18.7040025393
 31
0.0
  0
LINE
  5
C0
330
1F
100
AcDbEntity
  8
SK3
  6
HIDDEN
370
    18
100
AcDbLine
 10
-5.2070758589
 20
-15.9229112011
 30
0.0
 11
-5.2070758589
 21
15.9229112011
 31
0.0
  0
LINE
  5
C1
330
1F
100
AcDbEntity
  8
SK3
  6
HIDDEN
370
    18
100
AcDbLine
 10
-5.2070758589
 20
15.9229112011
 30
0.0
 11
-5.2070758589
 21
-15.9229112011
 31
0.0
  0
LINE
  5
C2
330
1F
100
AcDbEntity
  8
SK3
  6
HIDDEN
370
    18
100
AcDbLine
 10
-12.9596860732
 20
-16.0362867718
 30
0.0
 11
-12.9596860732
 21
16.0362867718
 31
0.0
  0
LINE
  5
C3
330
1F
100
AcDbEntity
  8
SK3
  6
HIDDEN
370
    18
100
AcDbLine
 10
-13.3937854805
 20
-15.784453336
 30
0.0
 11
-13.3937854805
 21
15.784453336
 31
0.0
  0
LINE
  5
C4
330
1F
100
AcDbEntity
  8
SK3
  6
HIDDEN
370
    18
100
AcDbLine
 10
-14.9753181422
 20
13.021
 30
0.0
 11
-14.9753181422
 21
-13.021
 31
0.0
  0
LINE
  5
C5
330
1F
100
AcDbEntity
  8
SK3
  6
HIDDEN
370
    18
100
AcDbLine
 10
-23.75
 20
13.021
 30
0.0
 11
-23.75
 21
-13.021
 31
0.0
  0
LINE
  5
C6
330
1F
100
AcDbEntity
  8
SK3
  6
HIDDEN
370
    18
100
AcDbLine
 10
9.95
 20
11.775
 30
0.0
 11
9.95
 21
-11.775
 31
0.0
  0
LINE
  5
C7
330
1F
100
AcDbEntity
  8
SK3
  6
HIDDEN
370
    18
100
AcDbLine
 10
7.6368594454
 20
-13.0207122937
 30
0.0
 11
7.6368594454
 21
13.0207122937
 31
0.0
  0
LINE
  5
C8
330
1F
100
AcDbEntity
  8
SK3
  6
HIDDEN
370
    18
100
AcDbLine
 10
119.0
 20
0.0
 30
0.0
 11
119.0
 21
12.5
 31
0.0
  0
LINE
  5
C9
330
1F
100
AcDbEntity
  8
SK3
  6
HIDDEN
370
    18
100
AcDbLine
 10
119.0
 20
-12.5
 30
0.0
 11
119.0
 21
0.0
 31
0.0
  0
LINE
  5
CA
330
1F
100
AcDbEntity
  8
SK3
  6
HIDDEN
370
    18
100
AcDbLine
 10
7.6057136977
 20
13.021
 30
0.0
 11
7.6057136977
 21
-13.021
 31
0.0
  0
LINE
  5
CB
330
1F
100
AcDbEntity
  8
SK3
  6
HIDDEN
370
    18
100
AcDbLine
 10
66.0
 20
0.0
 30
0.0
 11
66.0
 21
12.7
 31
0.0
  0
LINE
  5
CC
330
1F
100
AcDbEntity
  8
SK3
  6
HIDDEN
370
    18
100
AcDbLine
 10
66.0
 20
-12.7
 30
0.0
 11
66.0
 21
0.0
 31
0.0
  0
LINE
  5
CD
330
1F
100
AcDbEntity
  8
SK3
  6
HIDDEN
370
    18
100
AcDbLine
 10
62.0
 20
0.0
 30
0.0
 11
62.0
 21
12.7
 31
0.0
  0
LINE
  5
CE
330
1F
100
AcDbEntity
  8
SK3
  6
HIDDEN
370
    18
100
AcDbLine
 10
62.0
 20
-12.7
 30
0.0
 11
62.0
 21
0.0
 31
0.0
  0
LINE
  5
CF
330
1F
100
AcDbEntity
  8
SK3
  6
HIDDEN
370
    18
100
AcDbLine
 10
66.3464101615
 20
-12.496350176
 30
0.0
 11
66.3464101615
 21
12.496350176
 31
0.0
  0
LINE
  5
D0
330
1F
100
AcDbEntity
  8
SK3
  6
HIDDEN
370
    18
100
AcDbLine
 10
17.05
 20
0.0
 30
0.0
 11
17.05
 21
6.0
 31
0.0
  0
LINE
  5
D1
330
1F
100
AcDbEntity
  8
SK3
  6
HIDDEN
370
    18
100
AcDbLine
 10
17.05
 20
-6.0
 30
0.0
 11
17.05
 21
0.0
 31
0.0
  0
LINE
  5
D2
330
1F
100
AcDbEntity
  8
SK3
  6
HIDDEN
370
    18
100
AcDbLine
 10
19.1530121666
 20
0.0
 30
0.0
 11
19.1530121666
 21
-2.5
 31
0.0
  0
LINE
  5
D3
330
1F
100
AcDbEntity
  8
SK3
  6
HIDDEN
370
    18
100
AcDbLine
 10
19.1530121666
 20
2.5
 30
0.0
 11
19.1530121666
 21
0.0
 31
0.0
  0
LINE
  5
D4
330
1F
100
AcDbEntity
  8
SK3
  6
HIDDEN
370
    18
100
AcDbLine
 10
-10.5
 20
-18.2039068167
 30
0.0
 11
-4.5
 21
-18.2039068167
 31
0.0
  0
LINE
  5
D5
330
1F
100
AcDbEntity
  8
SK3
  6
HIDDEN
370
    18
100
AcDbLine
 10
-10.5
 20
18.2039068167
 30
0.0
 11
-4.5
 21
18.2039068167
 31
0.0
  0
LINE
  5
D6
330
1F
100
AcDbEntity
  8
SK3
  6
HIDDEN
370
    18
100
AcDbLine
 10
0.0
 20
-20.4342397326
 30
0.0
 11
0.1191608412
 21
-19.5863662907
 31
0.0
  0
LINE
  5
D7
330
1F
100
AcDbEntity
  8
SK3
  6
HIDDEN
370
    18
100
AcDbLine
 10
0.1191608412
 20
19.5863662907
 30
0.0
 11
0.0
 21
20.4342397326
 31
0.0
  0
LINE
  5
D8
330
1F
100
AcDbEntity
  8
SK3
  6
HIDDEN
370
    18
100
AcDbLine
 10
0.125
 20
-19.5028624301
 30
0.0
 11
0.125
 21
19.5028624301
 31
0.0
  0
LINE
  5
D9
330
1F
100
AcDbEntity
  8
SK3
  6
HIDDEN
370
    18
100
AcDbLine
 10
-10.4899022934
 20
16.04
 30
0.0
 11
-12.9596860732
 21
16.04
 31
0.0
  0
LINE
  5
DA
330
1F
100
AcDbEntity
  8
SK3
  6
HIDDEN
370
    18
100
AcDbLine
 10
-12.9596860732
 20
-16.04
 30
0.0
 11
-10.4899022934
 21
-16.04
 31
0.0
  0
LINE
  5
DB
330
1F
100
AcDbEntity
  8
SK3
  6
HIDDEN
370
    18
100
AcDbLine
 10
-13.3937854805
 20
15.7881082518
 30
0.0
 11
-14.9753181422
 21
13.021
 31
0.0
  0
LINE
  5
DC
330
1F
100
AcDbEntity
  8
SK3
  6
HIDDEN
370
    18
100
AcDbLine
 10
-14.9753181422
 20
-13.021
 30
0.0
 11
-13.3937854805
 21
-15.7881082518
 31
0.0
  0
LINE
  5
DD
330
1F
100
AcDbEntity
  8
SK3
  6
HIDDEN
370
    18
100
AcDbLine
 10
-24.9
 20
-13.6849528096
 30
0.0
 11
-23.75
 21
-13.021
 31
0.0
  0
LINE
  5
DE
330
1F
100
AcDbEntity
  8
SK3
  6
HIDDEN
370
    18
100
AcDbLine
 10
-23.75
 20
13.021
 30
0.0
 11
-24.9
 21
13.6849528096
 31
0.0
  0
LINE
  5
DF
330
1F
100
AcDbEntity
  8
SK3
  6
HIDDEN
370
    18
100
AcDbLine
 10
120.0
 20
13.0773502692
 30
0.0
 11
119.0
 21
12.5
 31
0.0
  0
LINE
  5
E0
330
1F
100
AcDbEntity
  8
SK3
  6
HIDDEN
370
    18
100
AcDbLine
 10
119.0
 20
-12.5
 30
0.0
 11
120.0
 21
-13.0773502692
 31
0.0
  0
LINE
  5
E1
330
1F
100
AcDbEntity
  8
SK3
  6
HIDDEN
370
    18
100
AcDbLine
 10
7.6057136977
 20
13.021
 30
0.0
 11
0.0
 21
13.021
 31
0.0
  0
LINE
  5
E2
330
1F
100
AcDbEntity
  8
SK3
  6
HIDDEN
370
    18
100
AcDbLine
 10
0.0
 20
-13.021
 30
0.0
 11
7.6057136977
 21
-13.021
 31
0.0
  0
LINE
  5
E3
330
1F
100
AcDbEntity
  8
SK3
  6
HIDDEN
370
    18
100
AcDbLine
 10
-14.9753181422
 20
13.021
 30
0.0
 11
-23.75
 21
13.021
 31
0.0
  0
LINE
  5
E4
330
1F
100
AcDbEntity
  8
SK3
  6
HIDDEN
370
    18
100
AcDbLine
 10
-23.75
 20
-13.021
 30
0.0
 11
-14.9753181422
 21
-13.021
 31
0.0
  0
LINE
  5
E5
330
1F
100
AcDbEntity
  8
SK3
  6
HIDDEN
370
    18
100
AcDbLine
 10
62.0
 20
-12.7
 30
0.0
 11
66.0
 21
-12.7
 31
0.0
  0
LINE
  5
E6
330
1F
100
AcDbEntity
  8
SK3
  6
HIDDEN
370
    18
100
AcDbLine
 10
66.0
 20
12.7
 30
0.0
 11
62.0
 21
12.7
 31
0.0
  0
LINE
  5
E7
330
1F
100
AcDbEntity
  8
SK3
  6
HIDDEN
370
    18
100
AcDbLine
 10
66.3464101615
 20
-12.5
 30
0.0
 11
119.0
 21
-12.5
 31
0.0
  0
LINE
  5
E8
330
1F
100
AcDbEntity
  8
SK3
  6
HIDDEN
370
    18
100
AcDbLine
 10
119.0
 20
12.5
 30
0.0
 11
66.3464101615
 21
12.5
 31
0.0
  0
LINE
  5
E9
330
1F
100
AcDbEntity
  8
SK3
  6
HIDDEN
370
    18
100
AcDbLine
 10
9.95
 20
-6.0
 30
0.0
 11
17.05
 21
-6.0
 31
0.0
  0
LINE
  5
EA
330
1F
100
AcDbEntity
  8
SK3
  6
HIDDEN
370
    18
100
AcDbLine
 10
17.05
 20
6.0
 30
0.0
 11
9.95
 21
6.0
 31
0.0
  0
LINE
  5
EB
330
1F
100
AcDbEntity
  8
SK3
  6
HIDDEN
370
    18
100
AcDbLine
 10
17.05
 20
-6.0
 30
0.0
 11
19.1530121666
 21
-2.5
 31
0.0
  0
LINE
  5
EC
330
1F
100
AcDbEntity
  8
SK3
  6
HIDDEN
370
    18
100
AcDbLine
 10
19.1530121666
 20
2.5
 30
0.0
 11
17.05
 21
6.0
 31
0.0
  0
LINE
  5
ED
330
1F
100
AcDbEntity
  8
SK3
  6
HIDDEN
370
    18
100
AcDbLine
 10
-3.6367542476
 20
-19.0671525691
 30
0.0
 11
-4.5
 21
-18.2039068167
 31
0.0
  0
LINE
  5
EE
330
1F
100
AcDbEntity
  8
SK3
  6
HIDDEN
370
    18
100
AcDbLine
 10
-10.5
 20
-18.2039068167
 30
0.0
 11
-10.9934217176
 21
-18.6973285343
 31
0.0
  0
LINE
  5
EF
330
1F
100
AcDbEntity
  8
SK3
  6
HIDDEN
370
    18
100
AcDbLine
 10
-10.9975360533
 20
18.70144287
 30
0.0
 11
-10.5
 21
18.2039068167
 31
0.0
  0
LINE
  5
F0
330
1F
100
AcDbEntity
  8
SK3
  6
HIDDEN
370
    18
100
AcDbLine
 10
-4.5
 20
18.2039068167
 30
0.0
 11
-3.6371457637
 21
19.066761053
 31
0.0
  0
LINE
  5
F1
330
1F
100
AcDbEntity
  8
SK3
  6
HIDDEN
370
    18
100
AcDbLine
 10
-10.5
 20
18.2039068167
 30
0.0
 11
-10.5
 21
16.0381145922
 31
0.0
  0
LINE
  5
F2
330
1F
100
AcDbEntity
  8
SK3
  6
HIDDEN
370
    18
100
AcDbLine
 10
-4.5
 20
15.9977324368
 30
0.0
 11
-4.5
 21
18.2039068167
 31
0.0
  0
LINE
  5
F3
330
1F
100
AcDbEntity
  8
SK3
  6
HIDDEN
370
    18
100
AcDbLine
 10
-4.5
 20
-18.2039068167
 30
0.0
 11
-4.5
 21
-15.9977324368
 31
0.0
  0
LINE
  5
F4
330
1F
100
AcDbEntity
  8
SK3
  6
HIDDEN
370
    18
100
AcDbLine
 10
-10.5
 20
-16.0381145922
 30
0.0
 11
-10.5
 21
-18.2039068167
 31
0.0
  0
LINE
  5
F5
330
1F
100
AcDbEntity
  8
SK3
  6
HIDDEN
370
    18
100
AcDbLine
 10
62.0
 20
2.5
 30
0.0
 11
19.1530121666
 21
2.5
 31
0.0
  0
LINE
  5
F6
330
1F
100
AcDbEntity
  8
SK3
  6
HIDDEN
370
    18
100
AcDbLine
 10
19.1530121666
 20
-2.5
 30
0.0
 11
62.0
 21
-2.5
 31
0.0
  0
LINE
  5
F7
330
1F
100
AcDbEntity
  8
1
  6
HIDDEN
370
    18
100
AcDbLine
 10
0.2
 20
-31.47
 30
0.0
 11
0.2
 21
31.47
 31
0.0
  0
LINE
  5
F8
330
1F
100
AcDbEntity
  8
1
  6
HIDDEN
370
    18
100
AcDbLine
 10
21.4612148638
 20
-31.47
 30
0.0
 11
21.4612148638
 21
31.47
 31
0.0
  0
LINE
  5
F9
330
1F
100
AcDbEntity
  8
1
  6
HIDDEN
370
    18
100
AcDbLine
 10
21.3313110532
 20
31.395
 30
0.0
 11
21.3313110532
 21
-31.395
 31
0.0
  0
LINE
  5
FA
330
1F
100
AcDbEntity
  8
1
  6
HIDDEN
370
    18
100
AcDbLine
 10
14.6686889468
 20
-31.395
 30
0.0
 11
14.6686889468
 21
31.395
 31
0.0
  0
LINE
  5
FB
330
1F
100
AcDbEntity
  8
1
  6
HIDDEN
370
    18
100
AcDbLine
 10
14.5387851362
 20
31.47
 30
0.0
 11
14.5387851362
 21
-31.47
 31
0.0
  0
LINE
  5
FC
330
1F
100
AcDbEntity
  8
1
  6
HIDDEN
370
    18
100
AcDbLine
 10
25.75
 20
31.47
 30
0.0
 11
25.75
 21
-31.47
 31
0.0
  0
LINE
  5
FD
330
1F
100
AcDbEntity
  8
1
  6
HIDDEN
370
    18
100
AcDbLine
 10
16.8375
 20
-27.475
 30
0.0
 11
16.8375
 21
27.475
 31
0.0
  0
LINE
  5
FE
330
1F
100
AcDbEntity
  8
1
  6
HIDDEN
370
    18
100
AcDbLine
 10
19.1625
 20
-27.475
 30
0.0
 11
19.1625
 21
27.475
 31
0.0
  0
LINE
  5
FF
330
1F
100
AcDbEntity
  8
1
  6
HIDDEN
370
    18
100
AcDbLine
 10
26.7
 20
-25.0
 30
0.0
 11
26.7
 21
25.0
 31
0.0
  0
LINE
  5
100
330
1F
100
AcDbEntity
  8
SK1
  6
HIDDEN
370
    18
100
AcDbLine
 10
-0.475
 20
-18.9028624301
 30
0.0
 11
-0.475
 21
18.9028624301
 31
0.0
  0
LINE
  5
101
330
1F
100
AcDbEntity
  8
SK1
  6
HIDDEN
370
    18
100
AcDbLine
 10
-2.0
 20
-19.1487597322
 30
0.0
 11
-2.0
 21
19.1487597322
 31
0.0
  0
LINE
  5
102
330
1F
100
AcDbEntity
  8
SK1
  6
HIDDEN
370
    18
100
AcDbLine
 10
-2.0386068945
 20
-19.1528624301
 30
0.0
 11
-2.0386068945
 21
19.1528624301
 31
0.0
  0
LINE
  5
103
330
1F
100
AcDbEntity
  8
SK1
  6
HIDDEN
370
    18
100
AcDbLine
 10
-23.9500361105
 20
-18.0551247203
 30
0.0
 11
-23.9500361105
 21
18.0551247203
 31
0.0
  0
LINE
  5
104
330
1F
100
AcDbEntity
  8
SK1
  6
HIDDEN
370
    18
100
AcDbLine
 10
-1.1585987036
 20
-18.9233069343
 30
0.0
 11
-1.1585987036
 21
18.9233069343
 31
0.0
  0
LINE
  5
105
330
1F
100
AcDbEntity
  8
SK1
  6
HIDDEN
370
    18
100
AcDbLine
 10
-1.0033072765
 20
-18.9028624301
 30
0.0
 11
-1.0033072765
 21
18.9028624301
 31
0.0
  0
LINE
  5
106
330
1F
100
AcDbEntity
  8
SK3
  6
Continuous
370
    18
100
AcDbLine
 10
62.0
 20
-3.0
 30
0.0
 11
47.0
 21
-3.0
 31
0.0
  0
LINE
  5
107
330
1F
100
AcDbEntity
  8
SK3
  6
Continuous
370
    18
100
AcDbLine
 10
62.0
 20
3.0
 30
0.0
 11
47.0
 21
3.0
 31
0.0
  0
LINE
  5
108
330
1F
100
AcDbEntity
  8
SK3
  6
HIDDEN
370
    18
100
AcDbLine
 10
47.0
 20
3.0
 30
0.0
 11
47.0
 21
-3.0
 31
0.0
  0
LINE
  5
109
330
1F
100
AcDbEntity
  8
SK4
  6
CENTERX2
370
    18
100
AcDbLine
 10
121.0
 20
0.0
 30
0.0
 11
-27.2860778402
 21
0.0
 31
0.0
  0
ARC
  5
10A
330
1F
100
AcDbEntity
  8
1
  6
Continuous
370
    25
100
AcDbCircle
 10
0.2
 20
-31.27
 30
0.0
 40
0.1999999999999919
100
AcDbArc
 50
180.0
 51
270.0
  0
ARC
  5
10B
330
1F
100
AcDbEntity
  8
1
  6
Continuous
370
    25
100
AcDbCircle
 10
0.2
 20
31.27
 30
0.0
 40
0.2000000000000196
100
AcDbArc
 50
90.0
 51
180.0
  0
ARC
  5
10C
330
1F
100
AcDbEntity
  8
1
  6
Continuous
370
    25
100
AcDbCircle
 10
21.4612148638
 20
-31.32
 30
0.0
 40
0.1500000000000057
100
AcDbArc
 50
210.0
 51
270.0
  0
ARC
  5
10D
330
1F
100
AcDbEntity
  8
1
  6
Continuous
370
    25
100
AcDbCircle
 10
21.4612148638
 20
31.32
 30
0.0
 40
0.1499999999999863
100
AcDbArc
 50
90.0
 51
150.0
  0
ARC
  5
10E
330
1F
100
AcDbEntity
  8
1
  6
Continuous
370
    25
100
AcDbCircle
 10
14.5387851362
 20
-31.32
 30
0.0
 40
0.1500000000000057
100
AcDbArc
 50
270.0
 51
330.0
  0
ARC
  5
10F
330
1F
100
AcDbEntity
  8
1
  6
Continuous
370
    25
100
AcDbCircle
 10
14.5387851362
 20
31.32
 30
0.0
 40
0.1499999999999986
100
AcDbArc
 50
30.0
 51
90.0
  0
ARC
  5
110
330
1F
100
AcDbEntity
  8
1
  6
Continuous
370
    25
100
AcDbCircle
 10
25.75
 20
31.27
 30
0.0
 40
0.2000000000000064
100
AcDbArc
 50
359.9999999998
 51
90.0
  0
ARC
  5
111
330
1F
100
AcDbEntity
  8
1
  6
Continuous
370
    25
100
AcDbCircle
 10
25.75
 20
-31.27
 30
0.0
 40
0.1999999999999922
100
AcDbArc
 50
270.0
 51
359.9999999998
  0
ARC
  5
112
330
1F
100
AcDbEntity
  8
1
  6
Continuous
370
    25
100
AcDbCircle
 10
16.8375
 20
28.225
 30
0.0
 40
0.7500000000000036
100
AcDbArc
 50
180.0
 51
270.0
  0
ARC
  5
113
330
1F
100
AcDbEntity
  8
1
  6
Continuous
370
    25
100
AcDbCircle
 10
16.8375
 20
-28.225
 30
0.0
 40
0.7500000000000036
100
AcDbArc
 50
90.0
 51
180.0
  0
ARC
  5
114
330
1F
100
AcDbEntity
  8
1
  6
Continuous
370
    25
100
AcDbCircle
 10
19.1625
 20
28.225
 30
0.0
 40
0.7500000000000036
100
AcDbArc
 50
270.0
 51
0.0
  0
ARC
  5
115
330
1F
100
AcDbEntity
  8
1
  6
Continuous
370
    25
100
AcDbCircle
 10
19.1625
 20
-28.225
 30
0.0
 40
0.75
100
AcDbArc
 50
0.0
 51
90.0
  0
ARC
  5
116
330
1F
100
AcDbEntity
  8
1
  6
Continuous
370
    25
100
AcDbCircle
 10
26.7
 20
25.75
 30
0.0
 40
0.75
100
AcDbArc
 50
180.0
 51
270.0
  0
ARC
  5
117
330
1F
100
AcDbEntity
  8
1
  6
Continuous
370
    25
100
AcDbCircle
 10
26.7
 20
-25.75
 30
0.0
 40
0.7500000000000036
100
AcDbArc
 50
90.0
 51
180.0
  0
ARC
  5
118
330
1F
100
AcDbEntity
  8
1
  6
Continuous
370
    25
100
AcDbCircle
 10
95.1
 20
-26.2
 30
0.0
 40
1.499999999999997
100
AcDbArc
 50
53.1301023542
 51
126.8698976458
  0
ARC
  5
119
330
1F
100
AcDbEntity
  8
1
  6
Continuous
370
    25
100
AcDbCircle
 10
95.1
 20
26.2
 30
0.0
 40
1.49999999999998
100
AcDbArc
 50
233.1301023542
 51
306.8698976458
  0
ARC
  5
11A
330
1F
100
AcDbEntity
  8
1
  6
Continuous
370
    25
100
AcDbCircle
 10
92.1
 20
-26.2
 30
0.0
 40
1.499999999999997
100
AcDbArc
 50
53.1301023542
 51
126.8698976458
  0
ARC
  5
11B
330
1F
100
AcDbEntity
  8
1
  6
Continuous
370
    25
100
AcDbCircle
 10
92.1
 20
26.2
 30
0.0
 40
1.499999999999986
100
AcDbArc
 50
233.1301023542
 51
306.8698976458
  0
ARC
  5
11C
330
1F
100
AcDbEntity
  8
1
  6
Continuous
370
    25
100
AcDbCircle
 10
101.1
 20
-26.2
 30
0.0
 40
1.500000000000006
100
AcDbArc
 50
53.1301023542
 51
126.8698976458
  0
ARC
  5
11D
330
1F
100
AcDbEntity
  8
1
  6
Continuous
370
    25
100
AcDbCircle
 10
101.1
 20
26.2
 30
0.0
 40
1.499999999999972
100
AcDbArc
 50
233.1301023542
 51
306.8698976458
  0
ARC
  5
11E
330
1F
100
AcDbEntity
  8
1
  6
Continuous
370
    25
100
AcDbCircle
 10
98.1
 20
-26.2
 30
0.0
 40
1.499999999999997
100
AcDbArc
 50
53.1301023542
 51
126.8698976458
  0
ARC
  5
11F
330
1F
100
AcDbEntity
  8
1
  6
Continuous
370
    25
100
AcDbCircle
 10
98.1
 20
26.2
 30
0.0
 40
1.499999999999986
100
AcDbArc
 50
233.1301023542
 51
306.8698976458
  0
ARC
  5
120
330
1F
100
AcDbEntity
  8
SK1
  6
Continuous
370
    25
100
AcDbCircle
 10
-0.475
 20
19.5028624301
 30
0.0
 40
0.5999999999999954
100
AcDbArc
 50
270.0
 51
322.3415379938
  0
ARC
  5
121
330
1F
100
AcDbEntity
  8
SK1
  6
Continuous
370
    25
100
AcDbCircle
 10
-0.475
 20
-19.5028624301
 30
0.0
 40
0.5999999999999954
100
AcDbArc
 50
37.6584620062
 51
90.0
  0
ARC
  5
122
330
1F
100
AcDbEntity
  8
SK1
  6
Continuous
370
    25
100
AcDbCircle
 10
-2.0323523806
 20
19.0280190039
 30
0.0
 40
0.1250000000000026
100
AcDbArc
 50
75.0
 51
92.8680555556
  0
ARC
  5
123
330
1F
100
AcDbEntity
  8
SK1
  6
Continuous
370
    25
100
AcDbCircle
 10
-2.0323523806
 20
-19.0280190039
 30
0.0
 40
0.1250000000000029
100
AcDbArc
 50
267.1319444444
 51
285.0
  0
ARC
  5
124
330
1F
100
AcDbEntity
  8
SK1
  6
Continuous
370
    25
100
AcDbCircle
 10
-1.0033072765
 20
19.5028624301
 30
0.0
 40
0.5999999999999933
100
AcDbArc
 50
255.0
 51
270.0
  0
ARC
  5
125
330
1F
100
AcDbEntity
  8
SK1
  6
Continuous
370
    25
100
AcDbCircle
 10
-1.0033072765
 20
-19.5028624301
 30
0.0
 40
0.5999999999999933
100
AcDbArc
 50
90.0
 51
105.0
  0
ARC
  5
126
330
1F
100
AcDbEntity
  8
SK1
  6
Continuous
370
    25
100
AcDbCircle
 10
-23.9
 20
-17.056377311
 30
0.0
 40
1.000000000000005
100
AcDbArc
 50
180.0
 51
267.1319444444
  0
ARC
  5
127
330
1F
100
AcDbEntity
  8
SK1
  6
Continuous
370
    25
100
AcDbCircle
 10
-23.9
 20
17.056377311
 30
0.0
 40
1.000000000000009
100
AcDbArc
 50
92.8680555556
 51
180.0
  0
ARC
  5
128
330
1F
100
AcDbEntity
  8
SK3
  6
HIDDEN
370
    18
100
AcDbCircle
 10
-0.475
 20
19.5028624301
 30
0.0
 40
0.6000000000000065
100
AcDbArc
 50
348.75
 51
8.0
  0
ARC
  5
129
330
1F
100
AcDbEntity
  8
SK3
  6
HIDDEN
370
    18
100
AcDbCircle
 10
-0.475
 20
19.5028624301
 30
0.0
 40
0.6000000000000028
100
AcDbArc
 50
322.3415379938
 51
348.75
  0
ARC
  5
12A
330
1F
100
AcDbEntity
  8
SK3
  6
HIDDEN
370
    18
100
AcDbCircle
 10
-0.475
 20
-19.5028624301
 30
0.0
 40
0.5999999999999909
100
AcDbArc
 50
352.0
 51
0.0
  0
ARC
  5
12B
330
1F
100
AcDbEntity
  8
SK3
  6
HIDDEN
370
    18
100
AcDbCircle
 10
-0.475
 20
-19.5028624301
 30
0.0
 40
0.5999999999999954
100
AcDbArc
 50
0.0
 51
37.6584620062
  0
ARC
  5
12C
330
1F
100
AcDbEntity
  8
SK3
  6
HIDDEN
370
    18
100
AcDbCircle
 10
-5.2070758589
 20
10.04
 30
0.0
 40
6.000000000000002
100
AcDbArc
 50
29.7907152336
 51
83.2851124712
  0
ARC
  5
12D
330
1F
100
AcDbEntity
  8
SK3
  6
HIDDEN
370
    18
100
AcDbCircle
 10
-5.2070758589
 20
-10.04
 30
0.0
 40
6.00000000000006
100
AcDbArc
 50
276.7020132112
 51
330.2092847664
  0
ARC
  5
12E
330
1F
100
AcDbEntity
  8
SK3
  6
HIDDEN
370
    18
100
AcDbCircle
 10
-12.9596860732
 20
15.54
 30
0.0
 40
0.5000000000000067
100
AcDbArc
 50
90.0
 51
150.25
  0
ARC
  5
12F
330
1F
100
AcDbEntity
  8
SK3
  6
HIDDEN
370
    18
100
AcDbCircle
 10
-12.9596860732
 20
-15.54
 30
0.0
 40
0.5000000000000067
100
AcDbArc
 50
209.75
 51
270.0
  0
ARC
  5
130
330
1F
100
AcDbEntity
  8
SK3
  6
HIDDEN
370
    18
100
AcDbCircle
 10
8.45
 20
11.775
 30
0.0
 40
1.500000000000007
100
AcDbArc
 50
0.0
 51
122.8262803377
  0
ARC
  5
131
330
1F
100
AcDbEntity
  8
SK3
  6
HIDDEN
370
    18
100
AcDbCircle
 10
8.45
 20
-11.775
 30
0.0
 40
1.500000000000011
100
AcDbArc
 50
237.1737196623
 51
0.0
  0
ARC
  5
132
330
1F
100
AcDbEntity
  8
SK3
  6
HIDDEN
370
    18
100
AcDbCircle
 10
7.5690977325
 20
13.1405168235
 30
0.0
 40
0.1250000000000005
100
AcDbArc
 50
287.0333159959
 51
302.8262803377
  0
ARC
  5
133
330
1F
100
AcDbEntity
  8
SK3
  6
HIDDEN
370
    18
100
AcDbCircle
 10
7.5690977325
 20
-13.1405168235
 30
0.0
 40
0.1250000000000005
100
AcDbArc
 50
57.1737196623
 51
72.9666840041
  0
ARC
  5
134
330
1F
100
AcDbEntity
  8
SK3
  6
HIDDEN
370
    18
100
AcDbCircle
 10
66.3464101615
 20
-12.9
 30
0.0
 40
0.4000000000000262
100
AcDbArc
 50
90.0
 51
150.0
  0
ARC
  5
135
330
1F
100
AcDbEntity
  8
SK3
  6
HIDDEN
370
    18
100
AcDbCircle
 10
66.3464101615
 20
12.9
 30
0.0
 40
0.4000000000000191
100
AcDbArc
 50
210.0
 51
270.0
  0
ARC
  5
136
330
1F
100
AcDbEntity
  8
SK1
370
    25
100
AcDbCircle
 10
-8.4436844518
 20
41.3478484087
 30
0.0
 40
22.7870672723287
100
AcDbArc
 50
263.5699588809
 51
282.1661522302
  0
ARC
  5
137
330
1F
100
AcDbEntity
  8
SK1
370
    25
100
AcDbCircle
 10
-8.4602511197
 20
-41.7582346717
 30
0.0
 40
23.19193861013884
100
AcDbArc
 50
78.0059057256
 51
96.2579831632
  0
SPLINE
  5
138
330
1F
100
AcDbEntity
  8
1
  6
Continuous
370
    25
100
AcDbSpline
210
0.0
220
0.0
230
1.0
 70
     8
 71
     3
 72
    18
 73
    14
 74
     0
 42
0.000000001
 43
0.00000001
 40
0.0
 40
0.0
 40
0.0
 40
0.0
 40
0.2499999999999988
 40
0.2499999999999988
 40
0.3749999999999993
 40
0.3749999999999993
 40
0.4999999999999998
 40
0.4999999999999998
 40
0.7499999999999994
 40
0.7499999999999994
 40
0.8749999999999997
 40
0.8749999999999997
 40
1.0
 40
1.0
 40
1.0
 40
1.0
 10
56.8284907286713
 20
17.88508571749993
 30
0.0
 10
56.28542067524867
 20
18.08365273931971
 30
0.0
 10
55.77276057890768
 20
18.3071962949443
 30
0.0
 10
55.05409166312711
 20
18.67870558706057
 30
0.0
 10
54.82291705367132
 20
18.80854740812422
 30
0.0
 10
54.37812200874331
 20
19.07973450712037
 30
0.0
 10
54.16332366665902
 20
19.22195608698028
 30
0.0
 10
53.55627832825793
 20
19.65770821568781
 30
0.0
 10
53.20220837380465
 20
19.95879786843162
 30
0.0
 10
52.74086121209439
 20
20.41721425434827
 30
0.0
 10
52.59874608217285
 20
20.57116488457127
 30
0.0
 10
52.3374083654953
 20
20.88000867680966
 30
0.0
 10
52.21812734324238
 20
21.03510935925014
 30
0.0
 10
52.1116938459229
 20
21.18782245100441
 30
0.0
  0
SPLINE
  5
139
330
1F
100
AcDbEntity
  8
1
  6
Continuous
370
    25
100
AcDbSpline
210
0.0
220
0.0
230
1.0
 70
     8
 71
     3
 72
    75
 73
    71
 74
     0
 42
0.000000001
 43
0.00000001
 40
0.0
 40
0.0
 40
0.0
 40
0.0
 40
0.0625000000000008
 40
0.0625000000000008
 40
0.0781250000000011
 40
0.0781250000000011
 40
0.0937500000000013
 40
0.0937500000000013
 40
0.1250000000000018
 40
0.1250000000000018
 40
0.1562500000000022
 40
0.1562500000000022
 40
0.1875000000000027
 40
0.1875000000000027
 40
0.2187500000000031
 40
0.2187500000000031
 40
0.2500000000000036
 40
0.2500000000000036
 40
0.281250000000004
 40
0.281250000000004
 40
0.3125000000000044
 40
0.3125000000000044
 40
0.3750000000000049
 40
0.3750000000000049
 40
0.4062500000000051
 40
0.4062500000000051
 40
0.4375000000000053
 40
0.4375000000000053
 40
0.4531250000000054
 40
0.4531250000000054
 40
0.4687500000000056
 40
0.4687500000000056
 40
0.500000000000005
 40
0.500000000000005
 40
0.5156250000000051
 40
0.5156250000000051
 40
0.5312500000000051
 40
0.5468750000000052
 40
0.5468750000000052
 40
0.5625000000000053
 40
0.5625000000000053
 40
0.5781250000000054
 40
0.5781250000000054
 40
0.5937500000000054
 40
0.5937500000000054
 40
0.6250000000000058
 40
0.6250000000000058
 40
0.6406250000000058
 40
0.6406250000000058
 40
0.6562500000000057
 40
0.6562500000000057
 40
0.6718750000000057
 40
0.6718750000000057
 40
0.6875000000000057
 40
0.6875000000000057
 40
0.7500000000000047
 40
0.7500000000000047
 40
0.7812500000000044
 40
0.7812500000000044
 40
0.8125000000000043
 40
0.8125000000000043
 40
0.8750000000000033
 40
0.8750000000000033
 40
0.9062500000000024
 40
0.9062500000000024
 40
0.9375000000000017
 40
0.9375000000000017
 40
0.9687500000000008
 40
0.9687500000000008
 40
1.0
 40
1.0
 40
1.0
 40
1.0
 10
51.45905039838677
 20
21.64480831273248
 30
0.0
 10
51.51322538551731
 20
22.12582849837795
 30
0.0
 10
51.70643726572041
 20
22.54196999655088
 30
0.0
 10
52.10357296467405
 20
22.99395773435987
 30
0.0
 10
52.19137743125568
 20
23.08114824130118
 30
0.0
 10
52.38057850631225
 20
23.246484686844
 30
0.0
 10
52.48214855312494
 20
23.32490609658299
 30
0.0
 10
52.80731075967304
 20
23.54841954361599
 30
0.0
 10
53.05125615798889
 20
23.68179072207353
 30
0.0
 10
53.59377299895357
 20
23.92153632164122
 30
0.0
 10
53.89444640782745
 20
24.02829476834577
 30
0.0
 10
54.53533696174201
 20
24.21371958470299
 30
0.0
 10
54.87675300240969
 20
24.29317609270711
 30
0.0
 10
55.6010035769999
 20
24.4309906224953
 30
0.0
 10
55.9849640631323
 20
24.48947111576698
 30
0.0
 10
56.79092915889136
 20
24.58896549554597
 30
0.0
 10
57.20668122332442
 20
24.62930840423484
 30
0.0
 10
58.06267147731084
 20
24.69621470265677
 30
0.0
 10
58.50291013378136
 20
24.72276411875342
 30
0.0
 10
59.40801627366648
 20
24.76545122879455
 30
0.0
 10
59.87505854306418
 20
24.78158824671615
 30
0.0
 10
61.27658376755446
 20
24.81671222540287
 30
0.0
 10
62.22188712280568
 20
24.823970936092
 30
0.0
 10
63.65732955868156
 20
24.81329052545859
 30
0.0
 10
64.13203901607534
 20
24.80592612783085
 30
0.0
 10
65.0601301049297
 20
24.78224564952393
 30
0.0
 10
65.51566253489122
 20
24.76594581997667
 30
0.0
 10
66.18479549899165
 20
24.73188765099164
 30
0.0
 10
66.40546440476436
 20
24.7189126530999
 30
0.0
 10
66.8415779595915
 20
24.68887672963903
 30
0.0
 10
67.05803301294502
 20
24.6717104785724
 30
0.0
 10
67.68667100194747
 20
24.61345951295856
 30
0.0
 10
68.08084095160028
 20
24.56573808221262
 30
0.0
 10
68.62778721393842
 20
24.47355856934931
 30
0.0
 10
68.80368843962906
 20
24.43909767669313
 30
0.0
 10
69.13245348195824
 20
24.3627160952012
 30
0.0
 10
69.43803327949566
 20
24.27907971777153
 30
0.0
 10
69.69445419515397
 20
24.17824538082715
 30
0.0
 10
69.92398672948293
 20
24.0670654929719
 30
0.0
 10
70.02451934539744
 20
24.00643242263918
 30
0.0
 10
70.19108718339673
 20
23.87762399513559
 30
0.0
 10
70.25809585998181
 20
23.80901596338665
 30
0.0
 10
70.35974032211249
 20
23.66267989053379
 30
0.0
 10
70.39446250886985
 20
23.58445441975783
 30
0.0
 10
70.44857735002738
 20
23.33832331656414
 30
0.0
 10
70.41863563561368
 20
23.16256945981766
 30
0.0
 10
70.29102468938261
 20
22.88191033104349
 30
0.0
 10
70.23478886558604
 20
22.78620286026663
 30
0.0
 10
70.10022194285018
 20
22.59364089994433
 30
0.0
 10
70.02168011125099
 20
22.4963314032232
 30
0.0
 10
69.84487465365757
 20
22.29978490074315
 30
0.0
 10
69.74660083316034
 20
22.20054805619694
 30
0.0
 10
69.53231819939424
 20
22.00029378698291
 30
0.0
 10
69.41581487552892
 20
21.89890080251945
 30
0.0
 10
68.80145466775006
 20
21.39492091352195
 30
0.0
 10
68.20904738445039
 20
20.99740953117972
 30
0.0
 10
67.2185569909844
 20
20.41197356955106
 30
0.0
 10
66.86966113072737
 20
20.21825269473472
 30
0.0
 10
66.15275167885379
 20
19.84270417348037
 30
0.0
 10
65.78331894441553
 20
19.65998490656747
 30
0.0
 10
64.64466499046834
 20
19.12855800739825
 30
0.0
 10
63.84582129495084
 20
18.79592888994545
 30
0.0
 10
62.58427528633245
 20
18.34554111018712
 30
0.0
 10
62.15085620083166
 20
18.20305668873877
 30
0.0
 10
61.27407240800611
 20
17.94406582508533
 30
0.0
 10
60.83016691082865
 20
17.82719935752401
 30
0.0
 10
59.92958088382547
 20
17.62512500729109
 30
0.0
 10
59.4729297603003
 20
17.53984091702236
 30
0.0
 10
58.54357515315473
 20
17.41117104076943
 30
0.0
 10
58.07095177572605
 20
17.36758934561126
 30
0.0
 10
57.58715397841801
 20
17.35386399106476
 30
0.0
  0
SPLINE
  5
13A
330
1F
100
AcDbEntity
  8
SK3
  6
HIDDEN
370
    18
100
AcDbSpline
210
0.0
220
0.0
230
1.0
 70
     8
 71
     3
 72
    25
 73
    21
 74
     0
 42
0.000000001
 43
0.00000001
 40
0.0
 40
0.0
 40
0.0
 40
0.0
 40
0.0523221787616143
 40
0.1074192981597909
 40
0.1641624018002718
 40
0.218433674324579
 40
0.2742987625372234
 40
0.3282773064269219
 40
0.3837854201290393
 40
0.4384290157889681
 40
0.4946195952702899
 40
0.5498925929353171
 40
0.6067885349119054
 40
0.6616626717704798
 40
0.7181777880000371
 40
0.7722252119726998
 40
0.8278408037851833
 40
0.8819315175461836
 40
0.9375445318779961
 40
1.0
 40
1.0
 40
1.0
 40
1.0
 10
-9.998403851807113
 20
15.95393669490124
 30
0.0
 10
-10.08081596980823
 20
15.96719911259857
 30
0.0
 10
-10.25001098586202
 20
15.99442732890498
 30
0.0
 10
-10.41320587462243
 20
16.02392454271738
 30
0.0
 10
-10.50211376432175
 20
16.0403624041124
 30
0.0
 10
-10.50472208292878
 20
16.04088785046435
 30
0.0
 10
-10.42467620113296
 20
16.02594139936976
 30
0.0
 10
-10.26305764871704
 20
15.99699017148827
 30
0.0
 10
-10.02733462485039
 20
15.9575986249121
 30
0.0
 10
-9.718563350553627
 20
15.91119000074988
 30
0.0
 10
-9.348313699342595
 20
15.86332751138335
 30
0.0
 10
-8.920300815825454
 20
15.81872135115904
 30
0.0
 10
-8.454339907936316
 20
15.78336233885251
 30
0.0
 10
-7.957094710669896
 20
15.76091047768181
 30
0.0
 10
-7.454654166759611
 20
15.7543186778152
 30
0.0
 10
-6.951727670240923
 20
15.7639263671452
 30
0.0
 10
-6.471124863186267
 20
15.78818476083953
 30
0.0
 10
-6.016554499503973
 20
15.82469499322779
 30
0.0
 10
-5.581177030762108
 20
15.87130150046016
 30
0.0
 10
-5.336502806046167
 20
15.9050559081763
 30
0.0
 10
-5.207075858867441
 20
15.92291120106461
 30
0.0
  0
SPLINE
  5
13B
330
1F
100
AcDbEntity
  8
SK3
  6
HIDDEN
370
    18
100
AcDbSpline
210
0.0
220
0.0
230
1.0
 70
     8
 71
     3
 72
    26
 73
    22
 74
     0
 42
0.000000001
 43
0.00000001
 40
0.0
 40
0.0
 40
0.0
 40
0.0
 40
0.0537789467663187
 40
0.1091061181265705
 40
0.1628882722795387
 40
0.2182598519453032
 40
0.2714907267855318
 40
0.3263025279983244
 40
0.3789379914756653
 40
0.4330779443651777
 40
0.4861458388258204
 40
0.5407074567256489
 40
0.5945611309201599
 40
0.6499775145738206
 40
0.7037571834235455
 40
0.759143478689495
 40
0.8121170478395915
 40
0.8666463222763258
 40
0.9193341623501284
 40
0.9735149980449895
 40
1.0
 40
1.0
 40
1.0
 40
1.0
 10
-5.207075858867441
 20
-15.92291120106458
 30
0.0
 10
-5.320449015253553
 20
-15.90719895515515
 30
0.0
 10
-5.550459190923091
 20
-15.87532212860293
 30
0.0
 10
-5.966395238261035
 20
-15.82944706438295
 30
0.0
 10
-6.425950686911527
 20
-15.79113174268386
 30
0.0
 10
-6.912283452116946
 20
-15.76528433388415
 30
0.0
 10
-7.418342701752845
 20
-15.75446052860026
 30
0.0
 10
-7.918630943728064
 20
-15.7598948311979
 30
0.0
 10
-8.409331733546562
 20
-15.78078567886185
 30
0.0
 10
-8.869423257031828
 20
-15.81427800194914
 30
0.0
 10
-9.296363684546643
 20
-15.85733577634614
 30
0.0
 10
-9.672701504041509
 20
-15.90479241493743
 30
0.0
 10
-9.993123281772446
 20
-15.95213750647916
 30
0.0
 10
-10.24174424536994
 20
-15.99327053035007
 30
0.0
 10
-10.4142471014244
 20
-16.02402161394222
 30
0.0
 10
-10.50188451992461
 20
-16.04033976282382
 30
0.0
 10
-10.50464430138712
 20
-16.04088546678874
 30
0.0
 10
-10.42523357677687
 20
-16.02597475305141
 30
0.0
 10
-10.26096870211019
 20
-15.99686303169737
 30
0.0
 10
-10.07316704535648
 20
-15.96458635729561
 30
0.0
 10
-9.91563352386922
 20
-15.94155442333617
 30
0.0
 10
-9.86391056721092
 20
-15.93399235203416
 30
0.0
  0
SPLINE
  5
13C
330
1F
100
AcDbEntity
  8
SK3
  6
HIDDEN
370
    18
100
AcDbSpline
210
0.0
220
0.0
230
1.0
 70
     8
 71
     3
 72
    12
 73
     8
 74
     0
 42
0.000000001
 43
0.00000001
 40
0.0
 40
0.0
 40
0.0
 40
0.0
 40
0.2347565559365703
 40
0.4763777502535528
 40
0.7111852713134426
 40
0.952728318880565
 40
1.0
 40
1.0
 40
1.0
 40
1.0
 10
-5.207075858867441
 20
15.92291120106461
 30
0.0
 10
-5.107265318226862
 20
15.93626034929226
 30
0.0
 10
-4.904725625087078
 20
15.96334899512415
 30
0.0
 10
-4.688195410934792
 20
15.98370886819124
 30
0.0
 10
-4.550897809751403
 20
15.99478152244023
 30
0.0
 10
-4.492000551838182
 20
15.99874987371068
 30
0.0
 10
-4.504531774056048
 20
15.99787391703632
 30
0.0
 10
-4.506582818832788
 20
15.99773054503874
 30
0.0
  0
SPLINE
  5
13D
330
1F
100
AcDbEntity
  8
SK3
  6
HIDDEN
370
    18
100
AcDbSpline
210
0.0
220
0.0
230
1.0
 70
     8
 71
     3
 72
    12
 73
     8
 74
     0
 42
0.000000001
 43
0.00000001
 40
0.0
 40
0.0
 40
0.0
 40
0.0
 40
0.1888787516941736
 40
0.4318678668328877
 40
0.6681870992787352
 40
0.9114437816988633
 40
1.0
 40
1.0
 40
1.0
 40
1.0
 10
-4.506581628415566
 20
-15.99773062877979
 30
0.0
 10
-4.509055454323577
 20
-15.99756780390214
 30
0.0
 10
-4.514711812745209
 20
-15.99719550774951
 30
0.0
 10
-4.623270388541989
 20
-15.98932670528143
 30
0.0
 10
-4.813068835893025
 20
-15.97221235614937
 30
0.0
 10
-5.022190381701375
 20
-15.94879488502435
 30
0.0
 10
-5.168127330215502
 20
-15.9283639354912
 30
0.0
 10
-5.207075858867441
 20
-15.92291120106458
 30
0.0
  0
DIMENSION
  5
13E
330
1F
100
AcDbEntity
  8
SK2
100
AcDbDimension
  2
_D
 10
-33.5142829606
 20
31.47
 30
0.0
 11
-33.5142829606
 21
-0.3883219827
 31
0.0
 70
   160
  1
%%c<>
 71
     2
 42
-1.0
 73
     0
 74
     0
 75
     0
  3
SLDDIMSTYLE0
100
AcDbAlignedDimension
 13
0.2
 23
-31.47
 33
0.0
 14
0.2
 24
31.47
 34
0.0
 50
90.0
100
AcDbRotatedDimension
  0
DIMENSION
  5
14B
330
1F
100
AcDbEntity
  8
SK2
100
AcDbDimension
  2
_D_1
 10
120.0
 20
-49.4764520566
 30
0.0
 11
48.5360184006
 21
-49.4764520566
 31
0.0
 70
   160
  1
<>
 71
     2
 42
-1.0
 73
     0
 74
     0
 75
     0
  3
SLDDIMSTYLE0
100
AcDbAlignedDimension
 13
-24.9
 23
-17.056377311
 33
0.0
 14
120.0
 24
-23.0
 34
0.0
 50
0.0
100
AcDbRotatedDimension
  0
DIMENSION
  5
155
330
1F
100
AcDbEntity
  8
SK2
100
AcDbDimension
  2
_D_2
 10
120.0
 20
44.7101502445
 30
0.0
 11
58.7082097612
 21
44.7101502445
 31
0.0
 70
   160
  1
<>
 71
     2
 42
-1.0
 73
     0
 74
     0
 75
     0
  3
SLDDIMSTYLE0
100
AcDbAlignedDimension
 13
0.0
 23
31.27
 33
0.0
 14
120.0
 24
23.0
 34
0.0
 50
0.0
100
AcDbRotatedDimension
  0
DIMENSION
  5
15F
330
1F
100
AcDbEntity
  8
SK2
100
AcDbDimension
  2
_D_3
 10
153.3966112074
 20
-25.0
 30
0.0
 11
153.3966112074
 21
-0.3883219827
 31
0.0
 70
   160
  1
%%c<>
 71
     2
 42
-1.0
 73
     0
 74
     0
 75
     0
  3
SLDDIMSTYLE0
100
AcDbAlignedDimension
 13
108.6574363608
 23
25.0
 33
0.0
 14
108.6574363608
 24
-25.0
 34
0.0
 50
90.0
100
AcDbRotatedDimension
  0
DIMENSION
  5
16A
330
1F
100
AcDbEntity
  8
SK2
100
AcDbDimension
  2
_D_4
 10
141.757814386
 20
-23.0
 30
0.0
 11
141.757814386
 21
-0.3883219827
 31
0.0
 70
   160
  1
%%c<>
 71
     2
 42
-1.0
 73
     0
 74
     0
 75
     0
  3
SLDDIMSTYLE0
100
AcDbAlignedDimension
 13
120.0
 23
23.0
 33
0.0
 14
120.0
 24
-23.0
 34
0.0
 50
90.0
100
AcDbRotatedDimension
  0
DIMENSION
  5
175
330
1F
100
AcDbEntity
  8
SK2
100
AcDbDimension
  2
_D_5
 10
130.9724005477
 20
12.5
 30
0.0
 11
130.9724005477
 21
-0.3883219827
 31
0.0
 70
   160
  1
%%c<>
 71
     2
 42
-1.0
 73
     0
 74
     0
 75
     0
  3
SLDDIMSTYLE0
100
AcDbAlignedDimension
 13
119.0
 23
-12.5
 33
0.0
 14
119.0
 24
12.5
 34
0.0
 50
90.0
100
AcDbRotatedDimension
  0
DIMENSION
  5
180
330
1F
100
AcDbEntity
  8
SK2
100
AcDbDimension
  2
_D_6
 10
62.0
 20
-39.1357395594
 30
0.0
 11
89.8668392506
 21
-39.1357395594
 31
0.0
 70
   160
  1
<> MAX\P48 MIN
 71
     2
 42
-1.0
 73
     0
 74
     0
 75
     0
  3
SLDDIMSTYLE0
100
AcDbAlignedDimension
 13
120.0
 23
-23.0
 33
0.0
 14
62.0
 24
-12.7
 34
0.0
100
AcDbRotatedDimension
  0
MTEXT
  5
18C
330
1F
100
AcDbEntity
  8
SK6
 62
     5
420
      255
100
AcDbMText
 10
-21.495057898
 20
-35.6496968926
 30
0.0
 40
3.5
 41
0.0
 46
0.0
 71
     1
 72
     1
  1
F63.H25
  7
SLDTEXTSTYLE0
 73
     1
 44
1.0
  0
MTEXT
  5
18D
330
1F
100
AcDbEntity
  8
SK6
 62
     5
420
      255
100
AcDbMText
 10
-22.9701921977
 20
39.5073911136
 30
0.0
 40
3.5
 41
0.0
 46
0.0
 71
     1
 72
     1
  1
DIN 69893 (HSK-F)
  7
SLDTEXTSTYLE0
 73
     1
 44
1.0
  0
ENDSEC
  0
SECTION
  2
OBJECTS
  0
DICTIONARY
  5
C
330
0
100
AcDbDictionary
281
     1
  3
ACAD_DETAILVIEWSTYLE
350
196
  3
ACAD_GROUP
350
D
  3
ACAD_LAYOUT
350
1A
  3
ACAD_MATERIAL
350
43
  3
ACAD_MLEADERSTYLE
350
6B
  3
ACAD_MLINESTYLE
350
17
  3
ACAD_PLOTSETTINGS
350
19
  3
ACAD_PLOTSTYLENAME
350
E
  3
ACAD_SCALELIST
350
47
  3
ACAD_SECTIONVIEWSTYLE
350
197
  3
ACAD_TABLESTYLE
350
69
  3
ACAD_VISUALSTYLE
350
2A
  3
ACDB_RECOMPOSE_DATA
350
193
  3
AcDbVariableDictionary
350
18E
  0
SUN
  5
6D
330
29
100
AcDbSun
 90
        1
290
     0
 63
     7
421
 16777215
 40
1.0
291
     1
 91
  2455826
 92
 54000000
292
     0
 70
     2
 71
   256
280
     1
  0
DICTIONARY
  5
196
102
{ACAD_REACTORS
330
C
102
}
330
C
100
AcDbDictionary
281
     1
  0
DICTIONARY
  5
D
102
{ACAD_REACTORS
330
C
102
}
330
C
100
AcDbDictionary
281
     1
  0
DICTIONARY
  5
1A
102
{ACAD_REACTORS
330
C
102
}
330
C
100
AcDbDictionary
281
     1
  3
Layout1
350
1E
  3
Layout2
350
26
  3
Model
350
22
  0
DICTIONARY
  5
43
102
{ACAD_REACTORS
330
C
102
}
330
C
100
AcDbDictionary
281
     1
  3
ByBlock
350
45
  3
ByLayer
350
44
  3
Global
350
46
  0
DICTIONARY
  5
6B
102
{ACAD_REACTORS
330
C
102
}
330
C
100
AcDbDictionary
281
     1
  3
Standard
350
6C
  0
DICTIONARY
  5
17
102
{ACAD_REACTORS
330
C
102
}
330
C
100
AcDbDictionary
281
     1
  3
Standard
350
18
  0
DICTIONARY
  5
19
102
{ACAD_REACTORS
330
C
102
}
330
C
100
AcDbDictionary
281
     1
  0
ACDBDICTIONARYWDFLT
  5
E
102
{ACAD_REACTORS
330
C
102
}
330
C
100
AcDbDictionary
281
     1
  3
Normal
350
F
100
AcDbDictionaryWithDefault
340
F
  0
DICTIONARY
  5
47
102
{ACAD_REACTORS
330
C
102
}
330
C
100
AcDbDictionary
281
     1
  3
A0
350
48
  3
A1
350
49
  3
A2
350
4A
  3
A3
350
4B
  3
A4
350
4C
  3
A5
350
4D
  3
A6
350
4E
  3
A7
350
4F
  3
A8
350
50
  3
A9
350
51
  3
B0
350
52
  3
B1
350
53
  3
B2
350
54
  3
B3
350
55
  3
B4
350
56
  3
B5
350
57
  3
B6
350
58
  3
B7
350
59
  3
B8
350
5A
  3
B9
350
5B
  3
C0
350
5C
  3
C1
350
5D
  3
C2
350
5E
  3
C3
350
5F
  3
C4
350
60
  3
C5
350
61
  3
C6
350
62
  3
C7
350
63
  3
C8
350
64
  3
C9
350
65
  3
D0
350
66
  3
D1
350
67
  3
D2
350
68
  0
DICTIONARY
  5
197
102
{ACAD_REACTORS
330
C
102
}
330
C
100
AcDbDictionary
281
     1
  0
DICTIONARY
  5
69
102
{ACAD_REACTORS
330
C
102
}
330
C
100
AcDbDictionary
281
     1
  3
Standard
350
6A
  0
DICTIONARY
  5
2A
102
{ACAD_REACTORS
330
C
102
}
330
C
100
AcDbDictionary
281
     1
  3
2dWireframe
350
2F
  3
Basic
350
32
  3
Brighten
350
36
  3
ColorChange
350
3A
  3
Conceptual
350
34
  3
Dim
350
35
  3
EdgeColorOff
350
3D
  3
Facepattern
350
39
  3
Flat
350
2B
  3
FlatWithEdges
350
2C
  3
Gouraud
350
2D
  3
GouraudWithEdges
350
2E
  3
Hidden
350
31
  3
JitterOff
350
3B
  3
Linepattern
350
38
  3
OverhangOff
350
3C
  3
Realistic
350
33
  3
Shaded
350
42
  3
Shaded with edges
350
41
  3
Shades of Gray
350
3E
  3
Sketchy
350
3F
  3
Thicken
350
37
  3
Wireframe
350
30
  3
X-Ray
350
40
  0
XRECORD
  5
193
102
{ACAD_REACTORS
330
C
102
}
330
C
100
AcDbXrecord
280
     1
 90
        1
330
6A
  0
DICTIONARY
  5
18E
102
{ACAD_REACTORS
330
C
102
}
330
C
100
AcDbDictionary
281
     1
  3
CANNOSCALE
350
18F
  3
CENTEREXE
350
198
  3
CENTERLTYPEFILE
350
199
  3
CMLEADERSTYLE
350
195
  3
CTABLESTYLE
350
194
  0
LAYOUT
  5
1E
102
{ACAD_REACTORS
330
1A
102
}
330
1A
100
AcDbPlotSettings
  1

  2
none_device
  4

  6

 40
0.0
 41
0.0
 42
0.0
 43
0.0
 44
0.0
 45
0.0
 46
0.0
 47
0.0
 48
0.0
 49
0.0
140
0.0
141
0.0
142
1.0
143
1.0
 70
   688
 72
     1
 73
     0
 74
     5
  7

 75
    16
 76
     0
 77
     2
 78
   300
147
1.0
148
0.0
149
0.0
100
AcDbLayout
  1
Layout1
 70
     1
 71
     1
 10
0.0
 20
0.0
 11
420.0
 21
297.0
 12
0.0
 22
0.0
 32
0.0
 14
1.0000000000E+20
 24
1.0000000000E+20
 34
1.0000000000E+20
 15
-1.0000000000E+20
 25
-1.0000000000E+20
 35
-1.0000000000E+20
146
0.0
 13
0.0
 23
0.0
 33
0.0
 16
1.0
 26
0.0
 36
0.0
 17
0.0
 27
1.0
 37
0.0
 76
     0
330
1B
  0
LAYOUT
  5
26
102
{ACAD_REACTORS
330
1A
102
}
330
1A
100
AcDbPlotSettings
  1

  2
none_device
  4

  6

 40
0.0
 41
0.0
 42
0.0
 43
0.0
 44
0.0
 45
0.0
 46
0.0
 47
0.0
 48
0.0
 49
0.0
140
0.0
141
0.0
142
1.0
143
1.0
 70
   688
 72
     1
 73
     0
 74
     5
  7

 75
    16
 76
     0
 77
     2
 78
   300
147
1.0
148
0.0
149
0.0
100
AcDbLayout
  1
Layout2
 70
     1
 71
     2
 10
0.0
 20
0.0
 11
0.0
 21
0.0
 12
0.0
 22
0.0
 32
0.0
 14
0.0
 24
0.0
 34
0.0
 15
0.0
 25
0.0
 35
0.0
146
0.0
 13
0.0
 23
0.0
 33
0.0
 16
1.0
 26
0.0
 36
0.0
 17
0.0
 27
1.0
 37
0.0
 76
     0
330
23
  0
LAYOUT
  5
22
102
{ACAD_REACTORS
330
1A
102
}
330
1A
100
AcDbPlotSettings
  1

  2
none_device
  4
Letter_(8.50_x_11.00_Inches)
  6

 40
6.35
 41
6.35
 42
6.35000508
 43
6.35000508
 44
215.9
 45
279.4
 46
0.0
 47
0.0
 48
0.0
 49
0.0
140
0.0
141
0.0
142
1.0
143
1.0
 70
  1712
 72
     1
 73
     0
 74
     0
  7

 75
     0
 76
     0
 77
     2
 78
   300
147
1.0
148
0.0
149
0.0
100
AcDbLayout
  1
Model
 70
     1
 71
     0
 10
0.0
 20
0.0
 11
297.0
 21
210.0
 12
0.0
 22
0.0
 32
0.0
 14
0.0
 24
0.0
 34
0.0
 15
297.0
 25
210.0
 35
0.0
146
0.0
 13
0.0
 23
0.0
 33
0.0
 16
1.0
 26
0.0
 36
0.0
 17
0.0
 27
1.0
 37
0.0
 76
     0
330
1F
331
29
  0
MATERIAL
  5
45
102
{ACAD_REACTORS
330
43
102
}
330
43
100
AcDbMaterial
  1
ByBlock
 72
     1
 94
      127
  0
MATERIAL
  5
44
102
{ACAD_REACTORS
330
43
102
}
330
43
100
AcDbMaterial
  1
ByLayer
 72
     1
 94
      127
  0
MATERIAL
  5
46
102
{ACAD_REACTORS
330
43
102
}
330
43
100
AcDbMaterial
  1
Global
 72
     1
 94
      127
  0
MLEADERSTYLE
  5
6C
102
{ACAD_REACTORS
330
6B
102
}
330
6B
100
AcDbMLeaderStyle
170
     2
171
     1
172
     0
 90
        2
 40
0.0
 41
0.0
173
     1
 91
-1056964608
340
14
 92
       -2
290
     1
 42
2.0
291
     1
 43
8.0
  3
Standard
341
0
 44
4.0
300

342
11
174
     1
178
     6
175
     1
176
     0
 93
-1056964608
 45
4.0
292
     0
297
     0
 46
4.0
343
0
 94
-1056964608
 47
1.0
 49
1.0
140
1.0
293
     1
141
0.0
294
     1
177
     0
142
1.0
295
     0
296
     0
143
3.75
1001
ACAD_MLEADERVER
1070
     2
  0
MLINESTYLE
  5
18
102
{ACAD_REACTORS
330
17
102
}
330
17
100
AcDbMlineStyle
  2
Standard
 70
     0
  3

 62
   256
 51
90.0
 52
90.0
 71
     2
 49
0.5
 62
   256
  6
BYLAYER
 49
-0.5
 62
   256
  6
BYLAYER
  0
ACDBPLACEHOLDER
  5
F
102
{ACAD_REACTORS
330
E
102
}
330
E
  0
SCALE
  5
48
102
{ACAD_REACTORS
330
47
102
}
330
47
100
AcDbScale
 70
     0
300
1:1
140
1.0
141
1.0
290
     1
  0
SCALE
  5
49
102
{ACAD_REACTORS
330
47
102
}
330
47
100
AcDbScale
 70
     0
300
1:2
140
1.0
141
2.0
290
     0
  0
SCALE
  5
4A
102
{ACAD_REACTORS
330
47
102
}
330
47
100
AcDbScale
 70
     0
300
1:4
140
1.0
141
4.0
290
     0
  0
SCALE
  5
4B
102
{ACAD_REACTORS
330
47
102
}
330
47
100
AcDbScale
 70
     0
300
1:5
140
1.0
141
5.0
290
     0
  0
SCALE
  5
4C
102
{ACAD_REACTORS
330
47
102
}
330
47
100
AcDbScale
 70
     0
300
1:8
140
1.0
141
8.0
290
     0
  0
SCALE
  5
4D
102
{ACAD_REACTORS
330
47
102
}
330
47
100
AcDbScale
 70
     0
300
1:10
140
1.0
141
10.0
290
     0
  0
SCALE
  5
4E
102
{ACAD_REACTORS
330
47
102
}
330
47
100
AcDbScale
 70
     0
300
1:16
140
1.0
141
16.0
290
     0
  0
SCALE
  5
4F
102
{ACAD_REACTORS
330
47
102
}
330
47
100
AcDbScale
 70
     0
300
1:20
140
1.0
141
20.0
290
     0
  0
SCALE
  5
50
102
{ACAD_REACTORS
330
47
102
}
330
47
100
AcDbScale
 70
     0
300
1:30
140
1.0
141
30.0
290
     0
  0
SCALE
  5
51
102
{ACAD_REACTORS
330
47
102
}
330
47
100
AcDbScale
 70
     0
300
1:40
140
1.0
141
40.0
290
     0
  0
SCALE
  5
52
102
{ACAD_REACTORS
330
47
102
}
330
47
100
AcDbScale
 70
     0
300
1:50
140
1.0
141
50.0
290
     0
  0
SCALE
  5
53
102
{ACAD_REACTORS
330
47
102
}
330
47
100
AcDbScale
 70
     0
300
1:100
140
1.0
141
100.0
290
     0
  0
SCALE
  5
54
102
{ACAD_REACTORS
330
47
102
}
330
47
100
AcDbScale
 70
     0
300
2:1
140
2.0
141
1.0
290
     0
  0
SCALE
  5
55
102
{ACAD_REACTORS
330
47
102
}
330
47
100
AcDbScale
 70
     0
300
4:1
140
4.0
141
1.0
290
     0
  0
SCALE
  5
56
102
{ACAD_REACTORS
330
47
102
}
330
47
100
AcDbScale
 70
     0
300
8:1
140
8.0
141
1.0
290
     0
  0
SCALE
  5
57
102
{ACAD_REACTORS
330
47
102
}
330
47
100
AcDbScale
 70
     0
300
10:1
140
10.0
141
1.0
290
     0
  0
SCALE
  5
58
102
{ACAD_REACTORS
330
47
102
}
330
47
100
AcDbScale
 70
     0
300
100:1
140
100.0
141
1.0
290
     0
  0
SCALE
  5
59
102
{ACAD_REACTORS
330
47
102
}
330
47
100
AcDbScale
 70
     0
300
1/128" = 1'-0"
140
0.0078125
141
12.0
290
     0
  0
SCALE
  5
5A
102
{ACAD_REACTORS
330
47
102
}
330
47
100
AcDbScale
 70
     0
300
1/64" = 1'-0"
140
0.015625
141
12.0
290
     0
  0
SCALE
  5
5B
102
{ACAD_REACTORS
330
47
102
}
330
47
100
AcDbScale
 70
     0
300
1/32" = 1'-0"
140
0.03125
141
12.0
290
     0
  0
SCALE
  5
5C
102
{ACAD_REACTORS
330
47
102
}
330
47
100
AcDbScale
 70
     0
300
1/16" = 1'-0"
140
0.0625
141
12.0
290
     0
  0
SCALE
  5
5D
102
{ACAD_REACTORS
330
47
102
}
330
47
100
AcDbScale
 70
     0
300
3/32" = 1'-0"
140
0.09375
141
12.0
290
     0
  0
SCALE
  5
5E
102
{ACAD_REACTORS
330
47
102
}
330
47
100
AcDbScale
 70
     0
300
1/8" = 1'-0"
140
0.125
141
12.0
290
     0
  0
SCALE
  5
5F
102
{ACAD_REACTORS
330
47
102
}
330
47
100
AcDbScale
 70
     0
300
3/16" = 1'-0"
140
0.1875
141
12.0
290
     0
  0
SCALE
  5
60
102
{ACAD_REACTORS
330
47
102
}
330
47
100
AcDbScale
 70
     0
300
1/4" = 1'-0"
140
0.25
141
12.0
290
     0
  0
SCALE
  5
61
102
{ACAD_REACTORS
330
47
102
}
330
47
100
AcDbScale
 70
     0
300
3/8" = 1'-0"
140
0.375
141
12.0
290
     0
  0
SCALE
  5
62
102
{ACAD_REACTORS
330
47
102
}
330
47
100
AcDbScale
 70
     0
300
1/2" = 1'-0"
140
0.5
141
12.0
290
     0
  0
SCALE
  5
63
102
{ACAD_REACTORS
330
47
102
}
330
47
100
AcDbScale
 70
     0
300
3/4" = 1'-0"
140
0.75
141
12.0
290
     0
  0
SCALE
  5
64
102
{ACAD_REACTORS
330
47
102
}
330
47
100
AcDbScale
 70
     0
300
1" = 1'-0"
140
1.0
141
12.0
290
     0
  0
SCALE
  5
65
102
{ACAD_REACTORS
330
47
102
}
330
47
100
AcDbScale
 70
     0
300
1-1/2" = 1'-0"
140
1.5
141
12.0
290
     0
  0
SCALE
  5
66
102
{ACAD_REACTORS
330
47
102
}
330
47
100
AcDbScale
 70
     0
300
3" = 1'-0"
140
3.0
141
12.0
290
     0
  0
SCALE
  5
67
102
{ACAD_REACTORS
330
47
102
}
330
47
100
AcDbScale
 70
     0
300
6" = 1'-0"
140
6.0
141
12.0
290
     0
  0
SCALE
  5
68
102
{ACAD_REACTORS
330
47
102
}
330
47
100
AcDbScale
 70
     0
300
1'-0" = 1'-0"
140
12.0
141
12.0
290
     0
  0
TABLESTYLE
  5
6A
102
{ACAD_REACTORS
330
69
102
}
102
{ACAD_XDICTIONARY
360
190
102
}
330
69
100
AcDbTableStyle
  3
Standard
 70
     0
 71
     0
 40
0.06
 41
0.06
280
     0
281
     0
  7
Standard
140
4.5
170
     2
 62
     0
 63
   257
283
     0
 90
        4
 91
        0
  1

274
    -2
284
     1
 64
     0
275
    -2
285
     1
 65
     0
276
    -2
286
     1
 66
     0
277
    -2
287
     1
 67
     0
278
    -2
288
     1
 68
     0
279
    -2
289
     1
 69
     0
  7
Standard
140
6.0
170
     5
 62
     0
 63
   257
283
     0
 90
        4
 91
        0
  1

274
    -2
284
     1
 64
     0
275
    -2
285
     1
 65
     0
276
    -2
286
     1
 66
     0
277
    -2
287
     1
 67
     0
278
    -2
288
     1
 68
     0
279
    -2
289
     1
 69
     0
  7
Standard
140
4.5
170
     5
 62
     0
 63
   257
283
     0
 90
        4
 91
        0
  1

274
    -2
284
     1
 64
     0
275
    -2
285
     1
 65
     0
276
    -2
286
     1
 66
     0
277
    -2
287
     1
 67
     0
278
    -2
288
     1
 68
     0
279
    -2
289
     1
 69
     0
  0
VISUALSTYLE
  5
2F
102
{ACAD_REACTORS
330
2A
102
}
330
2A
100
AcDbVisualStyle
  2
2dWireframe
 70
     4
 71
     0
 72
     2
 73
     0
 90
        0
 40
0.6
 41
30.0
 62
     5
 63
     7
421
 16777215
 74
     1
 91
        4
 64
     7
 65
   257
 75
     1
175
     1
 42
1.0
 92
        0
 66
   257
 43
1.0
 76
     1
 77
     6
 78
     2
 67
     7
 79
     5
170
     0
171
     0
290
     0
174
     0
 93
        1
 44
0.0
173
     0
291
     0
 45
0.0
  0
VISUALSTYLE
  5
32
102
{ACAD_REACTORS
330
2A
102
}
330
2A
100
AcDbVisualStyle
  2
Basic
 70
     7
 71
     1
 72
     0
 73
     1
 90
        0
 40
0.6
 41
30.0
 62
     5
 63
     7
421
 16777215
 74
     0
 91
        4
 64
     7
 65
   257
 75
     1
175
     1
 42
1.0
 92
        8
 66
     7
 43
1.0
 76
     1
 77
     6
 78
     2
 67
     7
 79
     5
170
     0
171
     0
290
     0
174
     0
 93
        1
 44
0.0
173
     0
291
     1
 45
0.0
  0
VISUALSTYLE
  5
36
102
{ACAD_REACTORS
330
2A
102
}
330
2A
100
AcDbVisualStyle
  2
Brighten
 70
    12
 71
     2
 72
     2
 73
     0
 90
        0
 40
0.6
 41
30.0
 62
     5
 63
     7
421
 16777215
 74
     1
 91
        4
 64
     7
 65
   257
 75
     1
175
     1
 42
1.0
 92
        8
 66
     7
 43
1.0
 76
     1
 77
     6
 78
     2
 67
     7
 79
     5
170
     0
171
     0
290
     0
174
     0
 93
        1
 44
50.0
173
     0
291
     1
 45
0.0
  0
VISUALSTYLE
  5
3A
102
{ACAD_REACTORS
330
2A
102
}
330
2A
100
AcDbVisualStyle
  2
ColorChange
 70
    16
 71
     2
 72
     2
 73
     3
 90
        0
 40
0.6
 41
30.0
 62
     5
 63
     8
421
  8421504
 74
     1
 91
        4
 64
     7
 65
   257
 75
     1
175
     1
 42
1.0
 92
        8
 66
     8
424
  8421504
 43
1.0
 76
     1
 77
     6
 78
     2
 67
     7
 79
     5
170
     0
171
     0
290
     0
174
     0
 93
        1
 44
0.0
173
     0
291
     1
 45
0.0
  0
VISUALSTYLE
  5
34
102
{ACAD_REACTORS
330
2A
102
}
330
2A
100
AcDbVisualStyle
  2
Conceptual
 70
     9
 71
     3
 72
     2
 73
     0
 90
        0
 40
0.6
 41
30.0
 62
     5
 63
     7
421
 16777215
 74
     2
 91
        2
 64
     7
 65
   257
 75
     1
175
     1
 42
179.0
 92
        8
 66
     7
 43
1.0
 76
     1
 77
     6
 78
     2
 67
     7
 79
     3
170
     0
171
     0
290
     0
174
     0
 93
        1
 44
0.0
173
     0
291
     0
 45
0.0
  0
VISUALSTYLE
  5
35
102
{ACAD_REACTORS
330
2A
102
}
330
2A
100
AcDbVisualStyle
  2
Dim
 70
    11
 71
     2
 72
     2
 73
     0
 90
        0
 40
0.6
 41
30.0
 62
     5
 63
     7
421
 16777215
 74
     1
 91
        4
 64
     7
 65
   257
 75
     1
175
     1
 42
1.0
 92
        8
 66
     7
 43
1.0
 76
     1
 77
     6
 78
     2
 67
     7
 79
     5
170
     0
171
     0
290
     0
174
     0
 93
        1
 44
-50.0
173
     0
291
     1
 45
0.0
  0
VISUALSTYLE
  5
3D
102
{ACAD_REACTORS
330
2A
102
}
330
2A
100
AcDbVisualStyle
  2
EdgeColorOff
 70
    22
 71
     2
 72
     2
 73
     0
 90
        0
 40
0.6
 41
30.0
 62
     5
 63
     7
421
 16777215
 74
     1
 91
        4
 64
     7
 65
   257
 75
     1
175
     1
 42
1.0
 92
        8
 66
     7
 43
1.0
 76
     1
 77
     6
 78
     2
 67
     7
 79
     5
170
     0
171
     0
290
     0
174
     0
 93
        1
 44
0.0
173
     0
291
     1
 45
0.0
  0
VISUALSTYLE
  5
39
102
{ACAD_REACTORS
330
2A
102
}
330
2A
100
AcDbVisualStyle
  2
Facepattern
 70
    15
 71
     2
 72
     2
 73
     0
 90
        0
 40
0.6
 41
30.0
 62
     5
 63
     7
421
 16777215
 74
     1
 91
        4
 64
     7
 65
   257
 75
     1
175
     1
 42
1.0
 92
        8
 66
     7
 43
1.0
 76
     1
 77
     6
 78
     2
 67
     7
 79
     5
170
     0
171
     0
290
     0
174
     0
 93
        1
 44
0.0
173
     0
291
     1
 45
0.0
  0
VISUALSTYLE
  5
2B
102
{ACAD_REACTORS
330
2A
102
}
330
2A
100
AcDbVisualStyle
  2
Flat
 70
     0
 71
     2
 72
     1
 73
     1
 90
        2
 40
0.6
 41
30.0
 62
     5
 63
     7
421
 16777215
 74
     0
 91
        0
 64
     7
 65
   257
 75
     1
175
     1
 42
1.0
 92
        8
 66
     7
 43
1.0
 76
     1
 77
     6
 78
     2
 67
     7
 79
     5
170
     0
171
     0
290
     0
174
     0
 93
       13
 44
0.0
173
     0
291
     1
 45
0.0
  0
VISUALSTYLE
  5
2C
102
{ACAD_REACTORS
330
2A
102
}
330
2A
100
AcDbVisualStyle
  2
FlatWithEdges
 70
     1
 71
     2
 72
     1
 73
     1
 90
        2
 40
0.6
 41
30.0
 62
     5
 63
     7
421
 16777215
 74
     1
 91
        0
 64
     7
 65
   257
 75
     1
175
     1
 42
1.0
 92
        0
 66
   257
 43
1.0
 76
     1
 77
     6
 78
     2
 67
     7
 79
     5
170
     0
171
     0
290
     0
174
     0
 93
       13
 44
0.0
173
     0
291
     1
 45
0.0
  0
VISUALSTYLE
  5
2D
102
{ACAD_REACTORS
330
2A
102
}
330
2A
100
AcDbVisualStyle
  2
Gouraud
 70
     2
 71
     2
 72
     2
 73
     1
 90
        2
 40
0.6
 41
30.0
 62
     5
 63
     7
421
 16777215
 74
     0
 91
        0
 64
     7
 65
   257
 75
     1
175
     1
 42
1.0
 92
        0
 66
     7
 43
1.0
 76
     1
 77
     6
 78
     2
 67
     7
 79
     5
170
     0
171
     0
290
     0
174
     0
 93
       13
 44
0.0
173
     0
291
     1
 45
0.0
  0
VISUALSTYLE
  5
2E
102
{ACAD_REACTORS
330
2A
102
}
330
2A
100
AcDbVisualStyle
  2
GouraudWithEdges
 70
     3
 71
     2
 72
     2
 73
     1
 90
        2
 40
0.6
 41
30.0
 62
     5
 63
     7
421
 16777215
 74
     1
 91
        0
 64
     7
 65
   257
 75
     1
175
     1
 42
1.0
 92
        0
 66
   257
 43
1.0
 76
     1
 77
     6
 78
     2
 67
     7
 79
     5
170
     0
171
     0
290
     0
174
     0
 93
       13
 44
0.0
173
     0
291
     1
 45
0.0
  0
VISUALSTYLE
  5
31
102
{ACAD_REACTORS
330
2A
102
}
330
2A
100
AcDbVisualStyle
  2
Hidden
 70
     6
 71
     1
 72
     2
 73
     2
 90
        0
 40
0.6
 41
30.0
 62
     5
 63
     7
421
 16777215
 74
     2
 91
        2
 64
     7
 65
   257
 75
     2
175
     1
 42
40.0
 92
        0
 66
   257
 43
1.0
 76
     1
 77
     6
 78
     2
 67
     7
 79
     3
170
     0
171
     0
290
     0
174
     0
 93
        1
 44
0.0
173
     0
291
     0
 45
0.0
  0
VISUALSTYLE
  5
3B
102
{ACAD_REACTORS
330
2A
102
}
330
2A
100
AcDbVisualStyle
  2
JitterOff
 70
    20
 71
     2
 72
     2
 73
     0
 90
        0
 40
0.6
 41
30.0
 62
     5
 63
     7
421
 16777215
 74
     1
 91
        4
 64
     7
 65
   257
 75
     1
175
     1
 42
1.0
 92
       10
 66
     7
 43
1.0
 76
     1
 77
     6
 78
     2
 67
     7
 79
     5
170
     0
171
     0
290
     0
174
     0
 93
        1
 44
0.0
173
     0
291
     1
 45
0.0
  0
VISUALSTYLE
  5
38
102
{ACAD_REACTORS
330
2A
102
}
330
2A
100
AcDbVisualStyle
  2
Linepattern
 70
    14
 71
     2
 72
     2
 73
     0
 90
        0
 40
0.6
 41
30.0
 62
     5
 63
     7
421
 16777215
 74
     1
 91
        4
 64
     7
 65
   257
 75
     7
175
     7
 42
1.0
 92
        8
 66
     7
 43
1.0
 76
     1
 77
     6
 78
     2
 67
     7
 79
     5
170
     0
171
     0
290
     0
174
     0
 93
        1
 44
0.0
173
     0
291
     1
 45
0.0
  0
VISUALSTYLE
  5
3C
102
{ACAD_REACTORS
330
2A
102
}
330
2A
100
AcDbVisualStyle
  2
OverhangOff
 70
    21
 71
     2
 72
     2
 73
     0
 90
        0
 40
0.6
 41
30.0
 62
     5
 63
     7
421
 16777215
 74
     1
 91
        4
 64
     7
 65
   257
 75
     1
175
     1
 42
1.0
 92
        9
 66
     7
 43
1.0
 76
     1
 77
     6
 78
     2
 67
     7
 79
     5
170
     0
171
     0
290
     0
174
     0
 93
        1
 44
0.0
173
     0
291
     1
 45
0.0
  0
VISUALSTYLE
  5
33
102
{ACAD_REACTORS
330
2A
102
}
330
2A
100
AcDbVisualStyle
  2
Realistic
 70
     8
 71
     2
 72
     3
 73
     0
 90
        2
 40
0.6
 41
30.0
 62
     5
 63
     7
421
 16777215
 74
     0
 91
        0
 64
     7
 65
   257
 75
     1
175
     1
 42
1.0
 92
        8
 66
   257
 43
1.0
 76
     1
 77
     6
 78
     2
 67
     7
 79
     3
170
     0
171
     0
290
     0
174
     0
 93
       13
 44
0.0
173
     0
291
     0
 45
0.0
  0
VISUALSTYLE
  5
42
102
{ACAD_REACTORS
330
2A
102
}
330
2A
100
AcDbVisualStyle
  2
Shaded
 70
    27
 71
     2
 72
     2
 73
     1
 90
        2
 40
0.6
 41
30.0
 62
     5
 63
     7
421
 16777215
 74
     0
 91
        4
 64
     7
 65
   257
 75
     1
175
     1
 42
1.0
 92
        8
 66
   257
 43
1.0
 76
     1
 77
     6
 78
     2
 67
     8
425
  7895160
 79
     3
170
     0
171
     0
290
     0
174
     0
 93
        5
 44
0.0
173
     0
291
     0
 45
0.0
  0
VISUALSTYLE
  5
41
102
{ACAD_REACTORS
330
2A
102
}
330
2A
100
AcDbVisualStyle
  2
Shaded with edges
 70
    26
 71
     2
 72
     2
 73
     1
 90
        2
 40
0.6
 41
30.0
 62
     5
 63
     7
421
 16777215
 74
     1
 91
       10
 64
     7
 65
   257
 75
     2
175
     1
 42
1.0
 92
        8
 66
   257
 43
1.0
 76
     1
 77
     6
 78
     2
 67
     7
 79
     3
170
     0
171
     0
290
     0
174
     0
 93
        5
 44
0.0
173
     0
291
     0
 45
0.0
  0
VISUALSTYLE
  5
3E
102
{ACAD_REACTORS
330
2A
102
}
330
2A
100
AcDbVisualStyle
  2
Shades of Gray
 70
    23
 71
     2
 72
     2
 73
     3
 90
        0
 40
0.6
 41
30.0
 62
     5
 63
     7
421
 16777215
 74
     2
 91
        2
 64
     7
 65
     7
 75
     1
175
     1
 42
40.0
 92
        8
 66
     7
 43
1.0
 76
     1
 77
     6
 78
     2
 67
     7
 79
     3
170
     0
171
     0
290
     0
174
     0
 93
        1
 44
0.0
173
     0
291
     0
 45
0.0
  0
VISUALSTYLE
  5
3F
102
{ACAD_REACTORS
330
2A
102
}
330
2A
100
AcDbVisualStyle
  2
Sketchy
 70
    24
 71
     1
 72
     2
 73
     2
 90
        0
 40
0.6
 41
30.0
 62
     5
 63
     7
421
 16777215
 74
     2
 91
        2
 64
     7
 65
     7
 75
     1
175
     1
 42
40.0
 92
       11
 66
     7
 43
1.0
 76
     1
 77
     6
 78
     2
 67
     7
 79
     6
170
     0
171
     0
290
     0
174
     0
 93
        1
 44
0.0
173
     0
291
     0
 45
0.0
  0
VISUALSTYLE
  5
37
102
{ACAD_REACTORS
330
2A
102
}
330
2A
100
AcDbVisualStyle
  2
Thicken
 70
    13
 71
     2
 72
     2
 73
     0
 90
        0
 40
0.6
 41
30.0
 62
     5
 63
     7
421
 16777215
 74
     1
 91
        4
 64
     7
 65
   257
 75
     1
175
     1
 42
1.0
 92
       12
 66
     7
 43
1.0
 76
     1
 77
     6
 78
     2
 67
     7
 79
     5
170
     0
171
     0
290
     0
174
     0
 93
        1
 44
0.0
173
     0
291
     1
 45
0.0
  0
VISUALSTYLE
  5
30
102
{ACAD_REACTORS
330
2A
102
}
330
2A
100
AcDbVisualStyle
  2
Wireframe
 70
     5
 71
     0
 72
     2
 73
     0
 90
        0
 40
0.6
 41
30.0
 62
     5
 63
     7
421
 16777215
 74
     1
 91
        4
 64
     7
 65
   257
 75
     1
175
     1
 42
1.0
 92
        0
 66
   257
 43
1.0
 76
     1
 77
     6
 78
     2
 67
     7
 79
     3
170
     0
171
     0
290
     0
174
     0
 93
        1
 44
0.0
173
     0
291
     0
 45
0.0
  0
VISUALSTYLE
  5
40
102
{ACAD_REACTORS
330
2A
102
}
330
2A
100
AcDbVisualStyle
  2
X-Ray
 70
    25
 71
     2
 72
     2
 73
     1
 90
        1
 40
0.5
 41
30.0
 62
     5
 63
     7
421
 16777215
 74
     1
 91
        0
 64
     7
 65
   257
 75
     1
175
     1
 42
1.0
 92
        8
 66
     7
 43
1.0
 76
     1
 77
     6
 78
     2
 67
     7
 79
     3
170
     0
171
     0
290
     0
174
     0
 93
       13
 44
0.0
173
     0
291
     0
 45
0.0
  0
DICTIONARYVAR
  5
18F
102
{ACAD_REACTORS
330
18E
102
}
330
18E
100
DictionaryVariables
280
     0
  1
1:1
  0
DICTIONARYVAR
  5
198
102
{ACAD_REACTORS
330
18E
102
}
330
18E
100
DictionaryVariables
280
     0
  1
3.500000
  0
DICTIONARYVAR
  5
199
102
{ACAD_REACTORS
330
18E
102
}
330
18E
100
DictionaryVariables
280
     0
  1
acadiso.lin
  0
DICTIONARYVAR
  5
195
102
{ACAD_REACTORS
330
18E
102
}
330
18E
100
DictionaryVariables
280
     0
  1
Standard
  0
DICTIONARYVAR
  5
194
102
{ACAD_REACTORS
330
18E
102
}
330
18E
100
DictionaryVariables
280
     0
  1
Standard
  0
DICTIONARY
  5
190
330
6A
100
AcDbDictionary
280
     1
281
     1
  3
ACAD_ROUNDTRIP_2008_TABLESTYLE_CELLSTYLEMAP
360
191
  0
CELLSTYLEMAP
  5
191
102
{ACAD_REACTORS
330
190
102
}
330
190
100
AcDbCellStyleMap
 90
        3
300
CELLSTYLE
  1
TABLEFORMAT_BEGIN
 90
        5
170
     1
 91
        0
 92
    32768
 62
   257
 93
        1
300
CONTENTFORMAT
  1
CONTENTFORMAT_BEGIN
 90
        0
 91
        0
 92
        4
 93
        0
300

 40
0.0
140
1.0
 94
        5
 62
     0
340
11
144
6.0
309
CONTENTFORMAT_END
171
     1
301
MARGIN
  1
CELLMARGIN_BEGIN
 40
1.5
 40
1.5
 40
1.5
 40
1.5
 40
1.5
 40
1.5
309
CELLMARGIN_END
 94
        6
 95
        1
302
GRIDFORMAT
  1
GRIDFORMAT_BEGIN
 90
        0
 91
        1
 62
     0
 92
       -2
340
14
 93
        0
 40
0.045
309
GRIDFORMAT_END
 95
        2
302
GRIDFORMAT
  1
GRIDFORMAT_BEGIN
 90
        0
 91
        1
 62
     0
 92
       -2
340
14
 93
        0
 40
0.045
309
GRIDFORMAT_END
 95
        4
302
GRIDFORMAT
  1
GRIDFORMAT_BEGIN
 90
        0
 91
        1
 62
     0
 92
       -2
340
14
 93
        0
 40
0.045
309
GRIDFORMAT_END
 95
        8
302
GRIDFORMAT
  1
GRIDFORMAT_BEGIN
 90
        0
 91
        1
 62
     0
 92
       -2
340
14
 93
        0
 40
0.045
309
GRIDFORMAT_END
 95
       16
302
GRIDFORMAT
  1
GRIDFORMAT_BEGIN
 90
        0
 91
        1
 62
     0
 92
       -2
340
14
 93
        0
 40
0.045
309
GRIDFORMAT_END
 95
       32
302
GRIDFORMAT
  1
GRIDFORMAT_BEGIN
 90
        0
 91
        1
 62
     0
 92
       -2
340
14
 93
        0
 40
0.045
309
GRIDFORMAT_END
309
TABLEFORMAT_END
  1
CELLSTYLE_BEGIN
 90
        1
 91
        1
300
_TITLE
309
CELLSTYLE_END
300
CELLSTYLE
  1
TABLEFORMAT_BEGIN
 90
        5
170
     1
 91
        0
 92
        0
 62
   257
 93
        1
300
CONTENTFORMAT
  1
CONTENTFORMAT_BEGIN
 90
        0
 91
        0
 92
        4
 93
        0
300

 40
0.0
140
1.0
 94
        5
 62
     0
340
11
144
4.5
309
CONTENTFORMAT_END
171
     1
301
MARGIN
  1
CELLMARGIN_BEGIN
 40
1.5
 40
1.5
 40
1.5
 40
1.5
 40
1.5
 40
1.5
309
CELLMARGIN_END
 94
        6
 95
        1
302
GRIDFORMAT
  1
GRIDFORMAT_BEGIN
 90
        0
 91
        1
 62
     0
 92
       -2
340
14
 93
        0
 40
0.045
309
GRIDFORMAT_END
 95
        2
302
GRIDFORMAT
  1
GRIDFORMAT_BEGIN
 90
        0
 91
        1
 62
     0
 92
       -2
340
14
 93
        0
 40
0.045
309
GRIDFORMAT_END
 95
        4
302
GRIDFORMAT
  1
GRIDFORMAT_BEGIN
 90
        0
 91
        1
 62
     0
 92
       -2
340
14
 93
        0
 40
0.045
309
GRIDFORMAT_END
 95
        8
302
GRIDFORMAT
  1
GRIDFORMAT_BEGIN
 90
        0
 91
        1
 62
     0
 92
       -2
340
14
 93
        0
 40
0.045
309
GRIDFORMAT_END
 95
       16
302
GRIDFORMAT
  1
GRIDFORMAT_BEGIN
 90
        0
 91
        1
 62
     0
 92
       -2
340
14
 93
        0
 40
0.045
309
GRIDFORMAT_END
 95
       32
302
GRIDFORMAT
  1
GRIDFORMAT_BEGIN
 90
        0
 91
        1
 62
     0
 92
       -2
340
14
 93
        0
 40
0.045
309
GRIDFORMAT_END
309
TABLEFORMAT_END
  1
CELLSTYLE_BEGIN
 90
        2
 91
        1
300
_HEADER
309
CELLSTYLE_END
300
CELLSTYLE
  1
TABLEFORMAT_BEGIN
 90
        5
170
     1
 91
        0
 92
        0
 62
   257
 93
        1
300
CONTENTFORMAT
  1
CONTENTFORMAT_BEGIN
 90
        0
 91
        0
 92
        4
 93
        0
300

 40
0.0
140
1.0
 94
        2
 62
     0
340
11
144
4.5
309
CONTENTFORMAT_END
171
     1
301
MARGIN
  1
CELLMARGIN_BEGIN
 40
1.5
 40
1.5
 40
1.5
 40
1.5
 40
1.5
 40
1.5
309
CELLMARGIN_END
 94
        6
 95
        1
302
GRIDFORMAT
  1
GRIDFORMAT_BEGIN
 90
        0
 91
        1
 62
     0
 92
       -2
340
14
 93
        0
 40
0.045
309
GRIDFORMAT_END
 95
        2
302
GRIDFORMAT
  1
GRIDFORMAT_BEGIN
 90
        0
 91
        1
 62
     0
 92
       -2
340
14
 93
        0
 40
0.045
309
GRIDFORMAT_END
 95
        4
302
GRIDFORMAT
  1
GRIDFORMAT_BEGIN
 90
        0
 91
        1
 62
     0
 92
       -2
340
14
 93
        0
 40
0.045
309
GRIDFORMAT_END
 95
        8
302
GRIDFORMAT
  1
GRIDFORMAT_BEGIN
 90
        0
 91
        1
 62
     0
 92
       -2
340
14
 93
        0
 40
0.045
309
GRIDFORMAT_END
 95
       16
302
GRIDFORMAT
  1
GRIDFORMAT_BEGIN
 90
        0
 91
        1
 62
     0
 92
       -2
340
14
 93
        0
 40
0.045
309
GRIDFORMAT_END
 95
       32
302
GRIDFORMAT
  1
GRIDFORMAT_BEGIN
 90
        0
 91
        1
 62
     0
 92
       -2
340
14
 93
        0
 40
0.045
309
GRIDFORMAT_END
309
TABLEFORMAT_END
  1
CELLSTYLE_BEGIN
 90
        3
 91
        2
300
_DATA
309
CELLSTYLE_END
  0
ENDSEC
  0
EOF
