  0
SECTION
  2
HEADER
  9
$ACADVER
  1
AC1021
  9
$ACADMAINTVER
 70
    25
  9
$DWGCODEPAGE
  3
ANSI_1250
  9
$INSBASE
 10
0.0
 20
0.0
 30
0.0
  9
$EXTMIN
 10
0.0
 20
0.0
 30
0.0
  9
$EXTMAX
 10
297.0
 20
210.0
 30
0.0
  9
$LIMMIN
 10
0.0
 20
0.0
  9
$LIMMAX
 10
297.0
 20
210.0
  9
$ORTHOMODE
 70
     0
  9
$REGENMODE
 70
     1
  9
$FILLMODE
 70
     1
  9
$QTEXTMODE
 70
     0
  9
$MIRRTEXT
 70
     1
  9
$LTSCALE
 40
1.0
  9
$ATTMODE
 70
     1
  9
$TEXTSIZE
 40
3.5
  9
$TRACEWID
 40
1.0
  9
$TEXTSTYLE
  7
Standard
  9
$CLAYER
  8
0
  9
$CELTYPE
  6
ByLayer
  9
$CECOLOR
 62
   256
  9
$CELTSCALE
 40
1.0
  9
$DISPSILH
 70
     0
  9
$DIMSCALE
 40
1.0
  9
$DIMASZ
 40
3.302
  9
$DIMEXO
 40
1.0
  9
$DIMDLI
 40
3.75
  9
$DIMRND
 40
0.0
  9
$DIMDLE
 40
0.0
  9
$DIMEXE
 40
1.0
  9
$DIMTP
 40
0.0
  9
$DIMTM
 40
0.0
  9
$DIMTXT
 40
3.5
  9
$DIMCEN
 40
2.5
  9
$DIMTSZ
 40
0.0
  9
$DIMTOL
 70
     0
  9
$DIMLIM
 70
     0
  9
$DIMTIH
 70
     1
  9
$DIMTOH
 70
     1
  9
$DIMSE1
 70
     0
  9
$DIMSE2
 70
     0
  9
$DIMTAD
 70
     1
  9
$DIMZIN
 70
     0
  9
$DIMBLK
  1

  9
$DIMASO
 70
     1
  9
$DIMSHO
 70
     1
  9
$DIMPOST
  1

  9
$DIMAPOST
  1

  9
$DIMALT
 70
     0
  9
$DIMALTD
 70
     3
  9
$DIMALTF
 40
0.0393700787
  9
$DIMLFAC
 40
1.0
  9
$DIMTOFL
 70
     1
  9
$DIMTVP
 40
0.0
  9
$DIMTIX
 70
     0
  9
$DIMSOXD
 70
     0
  9
$DIMSAH
 70
     0
  9
$DIMBLK1
  1

  9
$DIMBLK2
  1

  9
$DIMSTYLE
  2
ISO-25
  9
$DIMCLRD
 70
     0
  9
$DIMCLRE
 70
     0
  9
$DIMCLRT
 70
     0
  9
$DIMTFAC
 40
1.0
  9
$DIMGAP
 40
1.524
  9
$DIMJUST
 70
     0
  9
$DIMSD1
 70
     0
  9
$DIMSD2
 70
     0
  9
$DIMTOLJ
 70
     0
  9
$DIMTZIN
 70
     0
  9
$DIMALTZ
 70
     0
  9
$DIMALTTZ
 70
     0
  9
$DIMUPT
 70
     0
  9
$DIMDEC
 70
     2
  9
$DIMTDEC
 70
     2
  9
$DIMALTU
 70
     2
  9
$DIMALTTD
 70
     3
  9
$DIMTXSTY
  7
Standard
  9
$DIMAUNIT
 70
     0
  9
$DIMADEC
 70
     2
  9
$DIMALTRND
 40
0.0
  9
$DIMAZIN
 70
     0
  9
$DIMDSEP
 70
    44
  9
$DIMATFIT
 70
     3
  9
$DIMFRAC
 70
     0
  9
$DIMLDRBLK
  1

  9
$DIMLUNIT
 70
     2
  9
$DIMLWD
 70
    -2
  9
$DIMLWE
 70
    -2
  9
$DIMTMOVE
 70
     0
  9
$DIMFXL
 40
1.0
  9
$DIMFXLON
 70
     0
  9
$DIMJOGANG
 40
0.7853981634
  9
$DIMTFILL
 70
     0
  9
$DIMTFILLCLR
 70
     0
  9
$DIMARCSYM
 70
     0
  9
$DIMLTYPE
  6

  9
$DIMLTEX1
  6

  9
$DIMLTEX2
  6

  9
$LUNITS
 70
     2
  9
$LUPREC
 70
     2
  9
$SKETCHINC
 40
1.0
  9
$FILLETRAD
 40
10.0
  9
$AUNITS
 70
     0
  9
$AUPREC
 70
     2
  9
$MENU
  1
.
  9
$ELEVATION
 40
0.0
  9
$PELEVATION
 40
0.0
  9
$THICKNESS
 40
0.0
  9
$LIMCHECK
 70
     0
  9
$CHAMFERA
 40
0.0
  9
$CHAMFERB
 40
0.0
  9
$CHAMFERC
 40
0.0
  9
$CHAMFERD
 40
0.0
  9
$SKPOLY
 70
     0
  9
$TDCREATE
 40
2460343.360748357
  9
$TDUCREATE
 40
2460343.31908169
  9
$TDUPDATE
 40
2460343.360748923
  9
$TDUUPDATE
 40
2460343.319082257
  9
$TDINDWG
 40
0.0000000116
  9
$TDUSRTIMER
 40
0.0000000116
  9
$USRTIMER
 70
     1
  9
$ANGBASE
 50
0.0
  9
$ANGDIR
 70
     0
  9
$PDMODE
 70
     0
  9
$PDSIZE
 40
-1.0
  9
$PLINEWID
 40
0.0
  9
$SPLFRAME
 70
     0
  9
$SPLINETYPE
 70
     6
  9
$SPLINESEGS
 70
     8
  9
$HANDSEED
  5
1BA
  9
$SURFTAB1
 70
     6
  9
$SURFTAB2
 70
     6
  9
$SURFTYPE
 70
     6
  9
$SURFU
 70
     6
  9
$SURFV
 70
     6
  9
$UCSBASE
  2

  9
$UCSNAME
  2

  9
$UCSORG
 10
0.0
 20
0.0
 30
0.0
  9
$UCSXDIR
 10
1.0
 20
0.0
 30
0.0
  9
$UCSYDIR
 10
0.0
 20
1.0
 30
0.0
  9
$UCSORTHOREF
  2

  9
$UCSORTHOVIEW
 70
     0
  9
$UCSORGTOP
 10
0.0
 20
0.0
 30
0.0
  9
$UCSORGBOTTOM
 10
0.0
 20
0.0
 30
0.0
  9
$UCSORGLEFT
 10
0.0
 20
0.0
 30
0.0
  9
$UCSORGRIGHT
 10
0.0
 20
0.0
 30
0.0
  9
$UCSORGFRONT
 10
0.0
 20
0.0
 30
0.0
  9
$UCSORGBACK
 10
0.0
 20
0.0
 30
0.0
  9
$PUCSBASE
  2

  9
$PUCSNAME
  2

  9
$PUCSORG
 10
0.0
 20
0.0
 30
0.0
  9
$PUCSXDIR
 10
1.0
 20
0.0
 30
0.0
  9
$PUCSYDIR
 10
0.0
 20
1.0
 30
0.0
  9
$PUCSORTHOREF
  2

  9
$PUCSORTHOVIEW
 70
     0
  9
$PUCSORGTOP
 10
0.0
 20
0.0
 30
0.0
  9
$PUCSORGBOTTOM
 10
0.0
 20
0.0
 30
0.0
  9
$PUCSORGLEFT
 10
0.0
 20
0.0
 30
0.0
  9
$PUCSORGRIGHT
 10
0.0
 20
0.0
 30
0.0
  9
$PUCSORGFRONT
 10
0.0
 20
0.0
 30
0.0
  9
$PUCSORGBACK
 10
0.0
 20
0.0
 30
0.0
  9
$USERI1
 70
     0
  9
$USERI2
 70
     0
  9
$USERI3
 70
     0
  9
$USERI4
 70
     0
  9
$USERI5
 70
     0
  9
$USERR1
 40
0.0
  9
$USERR2
 40
0.0
  9
$USERR3
 40
0.0
  9
$USERR4
 40
0.0
  9
$USERR5
 40
0.0
  9
$WORLDVIEW
 70
     1
  9
$SHADEDGE
 70
     3
  9
$SHADEDIF
 70
    70
  9
$TILEMODE
 70
     1
  9
$MAXACTVP
 70
    64
  9
$PINSBASE
 10
0.0
 20
0.0
 30
0.0
  9
$PLIMCHECK
 70
     0
  9
$PEXTMIN
 10
1.0000000000E+20
 20
1.0000000000E+20
 30
1.0000000000E+20
  9
$PEXTMAX
 10
-1.0000000000E+20
 20
-1.0000000000E+20
 30
-1.0000000000E+20
  9
$PLIMMIN
 10
0.0
 20
0.0
  9
$PLIMMAX
 10
420.0
 20
297.0
  9
$UNITMODE
 70
     0
  9
$VISRETAIN
 70
     1
  9
$PLINEGEN
 70
     0
  9
$PSLTSCALE
 70
     1
  9
$TREEDEPTH
 70
  3020
  9
$CMLSTYLE
  2
Standard
  9
$CMLJUST
 70
     0
  9
$CMLSCALE
 40
20.0
  9
$PROXYGRAPHICS
 70
     1
  9
$MEASUREMENT
 70
     1
  9
$CELWEIGHT
370
    -1
  9
$ENDCAPS
280
     0
  9
$JOINSTYLE
280
     0
  9
$LWDISPLAY
290
     1
  9
$INSUNITS
 70
     4
  9
$HYPERLINKBASE
  1

  9
$STYLESHEET
  1

  9
$XEDIT
290
     1
  9
$CEPSNTYPE
380
     0
  9
$PSTYLEMODE
290
     1
  9
$FINGERPRINTGUID
  2
{b4a9e0b3-e3a7-4e90-ab13-6cd7e8431bdb}
  9
$VERSIONGUID
  2
{FAEB1C32-E019-11D5-929B-00C0DF256EC4}
  9
$EXTNAMES
290
     1
  9
$PSVPSCALE
 40
0.0
  9
$OLESTARTUP
290
     0
  9
$SORTENTS
280
   127
  9
$INDEXCTL
280
     0
  9
$HIDETEXT
280
     1
  9
$XCLIPFRAME
290
     0
  9
$HALOGAP
280
     0
  9
$OBSCOLOR
 70
   257
  9
$OBSLTYPE
280
     0
  9
$INTERSECTIONDISPLAY
280
     0
  9
$INTERSECTIONCOLOR
 70
   257
  9
$DIMASSOC
280
     2
  9
$PROJECTNAME
  1

  9
$CAMERADISPLAY
290
     0
  9
$LENSLENGTH
 40
50.0
  9
$CAMERAHEIGHT
 40
0.0
  9
$STEPSPERSEC
 40
2.0
  9
$STEPSIZE
 40
6.0
  9
$3DDWFPREC
 40
2.0
  9
$PSOLWIDTH
 40
5.0
  9
$PSOLHEIGHT
 40
80.0
  9
$LOFTANG1
 40
1.5707963268
  9
$LOFTANG2
 40
1.5707963268
  9
$LOFTMAG1
 40
0.0
  9
$LOFTMAG2
 40
0.0
  9
$LOFTPARAM
 70
     7
  9
$LOFTNORMALS
280
     1
  9
$LATITUDE
 40
37.795
  9
$LONGITUDE
 40
-122.394
  9
$NORTHDIRECTION
 40
0.0
  9
$TIMEZONE
 70
 -8000
  9
$LIGHTGLYPHDISPLAY
280
     1
  9
$TILEMODELIGHTSYNCH
280
     1
  9
$CMATERIAL
347
44
  9
$SOLIDHIST
280
     0
  9
$SHOWHIST
280
     1
  9
$DWFFRAME
280
     2
  9
$DGNFRAME
280
     2
  9
$REALWORLDSCALE
290
     1
  9
$INTERFERECOLOR
 62
   256
  9
$CSHADOW
280
     0
  9
$SHADOWPLANELOCATION
 40
0.0
  0
ENDSEC
  0
SECTION
  2
CLASSES
  0
CLASS
  1
ACDBDICTIONARYWDFLT
  2
AcDbDictionaryWithDefault
  3
ObjectDBX Classes
 90
        0
 91
        3
280
     0
281
     0
  0
CLASS
  1
VISUALSTYLE
  2
AcDbVisualStyle
  3
ObjectDBX Classes
 90
     4095
 91
        3
280
     0
281
     0
  0
CLASS
  1
MATERIAL
  2
AcDbMaterial
  3
ObjectDBX Classes
 90
     1153
 91
        3
280
     0
281
     0
  0
CLASS
  1
SCALE
  2
AcDbScale
  3
ObjectDBX Classes
 90
     1153
 91
        3
280
     0
281
     0
  0
CLASS
  1
TABLESTYLE
  2
AcDbTableStyle
  3
ObjectDBX Classes
 90
     4095
 91
        3
280
     0
281
     0
  0
CLASS
  1
MLEADERSTYLE
  2
AcDbMLeaderStyle
  3
ACDB_MLEADERSTYLE_CLASS
 90
     4095
 91
        3
280
     0
281
     0
  0
CLASS
  1
SUN
  2
AcDbSun
  3
SCENEOE
 90
     1153
 91
        3
280
     0
281
     0
  0
CLASS
  1
DICTIONARYVAR
  2
AcDbDictionaryVar
  3
ObjectDBX Classes
 90
        0
 91
        3
280
     0
281
     0
  0
CLASS
  1
CELLSTYLEMAP
  2
AcDbCellStyleMap
  3
ObjectDBX Classes
 90
     1152
 91
        3
280
     0
281
     0
  0
ENDSEC
  0
SECTION
  2
TABLES
  0
TABLE
  2
VPORT
  5
8
330
0
100
AcDbSymbolTable
 70
     1
  0
VPORT
  5
29
330
8
100
AcDbSymbolTableRecord
100
AcDbViewportTableRecord
  2
*Active
 70
     0
 10
0.0
 20
0.0
 11
1.0
 21
1.0
 12
148.5
 22
105.0
 13
0.0
 23
0.0
 14
10.0
 24
10.0
 15
10.0
 25
10.0
 16
0.0
 26
0.0
 36
1.0
 17
0.0
 27
0.0
 37
0.0
 40
210.0
 41
1.4142857143
 42
50.0
 43
0.0
 44
0.0
 50
0.0
 51
0.0
 71
     0
 72
  2000
 73
     1
 74
     3
 75
     0
 76
     0
 77
     0
 78
     0
281
     0
 65
     1
110
0.0
120
0.0
130
0.0
111
1.0
121
0.0
131
0.0
112
0.0
122
1.0
132
0.0
 79
     0
146
0.0
348
2F
 60
     3
 61
     5
292
     1
282
     1
141
0.0
142
0.0
 63
   250
361
6D
  0
ENDTAB
  0
TABLE
  2
LTYPE
  5
5
330
0
100
AcDbSymbolTable
 70
     6
  0
LTYPE
  5
14
330
5
100
AcDbSymbolTableRecord
100
AcDbLinetypeTableRecord
  2
ByBlock
 70
     0
  3

 72
    65
 73
     0
 40
0.0
  0
LTYPE
  5
15
330
5
100
AcDbSymbolTableRecord
100
AcDbLinetypeTableRecord
  2
ByLayer
 70
     0
  3

 72
    65
 73
     0
 40
0.0
  0
LTYPE
  5
16
330
5
100
AcDbSymbolTableRecord
100
AcDbLinetypeTableRecord
  2
Continuous
 70
     0
  3
Solid line
 72
    65
 73
     0
 40
0.0
  0
LTYPE
  5
6E
330
5
100
AcDbSymbolTableRecord
100
AcDbLinetypeTableRecord
  2
HIDDEN
 70
     0
  3
Hidden __ __ __ __ __ __ __ __ __ __ __ __ __ __
 72
    65
 73
     2
 40
1.905
 49
1.27
 74
     0
 49
-0.635
 74
     0
  0
LTYPE
  5
6F
330
5
100
AcDbSymbolTableRecord
100
AcDbLinetypeTableRecord
  2
PHANTOM
 70
     0
  3
Phantom ______  __  __  ______  __  __  ______
 72
    65
 73
     6
 40
12.7
 49
6.35
 74
     0
 49
-1.27
 74
     0
 49
1.27
 74
     0
 49
-1.27
 74
     0
 49
1.27
 74
     0
 49
-1.27
 74
     0
  0
LTYPE
  5
70
330
5
100
AcDbSymbolTableRecord
100
AcDbLinetypeTableRecord
  2
CENTER
 70
     0
  3
Center ____ _ ____ _ ____ _ ____ _ ____ _ ____
 72
    65
 73
     4
 40
10.16
 49
6.35
 74
     0
 49
-1.27
 74
     0
 49
1.27
 74
     0
 49
-1.27
 74
     0
  0
LTYPE
  5
71
330
5
100
AcDbSymbolTableRecord
100
AcDbLinetypeTableRecord
  2
CENTERX2
 70
     0
  3
Center (2x) ________  __  ________  __  _____
 72
    65
 73
     4
 40
20.32
 49
12.7
 74
     0
 49
-2.54
 74
     0
 49
2.54
 74
     0
 49
-2.54
 74
     0
  0
LTYPE
  5
72
330
5
100
AcDbSymbolTableRecord
100
AcDbLinetypeTableRecord
  2
DOT2
 70
     0
  3
Dot (.5x) ........................................
 72
    65
 73
     2
 40
0.635
 49
0.0
 74
     0
 49
-0.635
 74
     0
  0
ENDTAB
  0
TABLE
  2
LAYER
  5
2
330
0
100
AcDbSymbolTable
 70
     8
  0
LAYER
  5
10
330
2
100
AcDbSymbolTableRecord
100
AcDbLayerTableRecord
  2
0
 70
     0
 62
     7
  6
Continuous
370
    -3
390
F
347
46
  0
LAYER
  5
73
330
2
100
AcDbSymbolTableRecord
100
AcDbLayerTableRecord
  2
SLD-0
 70
     0
 62
   179
  6
Continuous
370
    -3
390
F
347
46
  0
LAYER
  5
74
330
2
100
AcDbSymbolTableRecord
100
AcDbLayerTableRecord
  2
1
 70
     0
 62
     4
  6
Continuous
290
     0
370
    -3
390
F
347
46
  0
LAYER
  5
75
330
2
100
AcDbSymbolTableRecord
100
AcDbLayerTableRecord
  2
SK3
 70
     0
 62
     1
  6
HIDDEN
290
     0
370
    -3
390
F
347
46
  0
LAYER
  5
76
330
2
100
AcDbSymbolTableRecord
100
AcDbLayerTableRecord
  2
SK4
 70
     0
 62
     2
  6
CENTER
290
     0
370
    -3
390
F
347
46
  0
LAYER
  5
77
330
2
100
AcDbSymbolTableRecord
100
AcDbLayerTableRecord
  2
SK2
 70
     0
 62
     7
  6
Continuous
290
     0
370
    -3
390
F
347
46
  0
LAYER
  5
78
330
2
100
AcDbSymbolTableRecord
100
AcDbLayerTableRecord
  2
SK6
 70
     0
 62
     5
  6
Continuous
290
     0
370
    -3
390
F
347
46
  0
LAYER
  5
79
330
2
100
AcDbSymbolTableRecord
100
AcDbLayerTableRecord
  2
SK1
 70
     0
 62
     4
  6
Continuous
370
    -3
390
F
347
46
  0
ENDTAB
  0
TABLE
  2
STYLE
  5
3
330
0
100
AcDbSymbolTable
 70
     2
  0
STYLE
  5
11
330
3
100
AcDbSymbolTableRecord
100
AcDbTextStyleTableRecord
  2
Standard
 70
     0
 40
0.0
 41
1.0
 50
0.0
 71
     0
 42
3.5
  3
txt
  4

  0
STYLE
  5
153
330
3
100
AcDbSymbolTableRecord
100
AcDbTextStyleTableRecord
  2
SLDTEXTSTYLE0
 70
     0
 40
0.0
 41
0.75
 50
0.0
 71
     0
 42
3.5
  3
TXT
  4

  0
ENDTAB
  0
TABLE
  2
VIEW
  5
6
330
0
100
AcDbSymbolTable
 70
     0
  0
ENDTAB
  0
TABLE
  2
UCS
  5
7
330
0
100
AcDbSymbolTable
 70
     0
  0
ENDTAB
  0
TABLE
  2
APPID
  5
9
330
0
100
AcDbSymbolTable
 70
     2
  0
APPID
  5
12
330
9
100
AcDbSymbolTableRecord
100
AcDbRegAppTableRecord
  2
ACAD
 70
     0
  0
APPID
  5
1B2
330
9
100
AcDbSymbolTableRecord
100
AcDbRegAppTableRecord
  2
ACAD_MLEADERVER
 70
     0
  0
ENDTAB
  0
TABLE
  2
DIMSTYLE
  5
A
330
0
100
AcDbSymbolTable
 70
     3
100
AcDbDimStyleTable
  0
DIMSTYLE
105
27
330
A
100
AcDbSymbolTableRecord
100
AcDbDimStyleTableRecord
  2
ISO-25
 70
     0
 41
2.5
 42
0.625
 43
3.75
 44
1.25
 73
     0
 74
     0
 77
     1
 78
     8
140
2.5
141
2.5
143
0.0393700787
147
0.625
171
     3
172
     1
178
     0
271
     2
272
     2
274
     3
278
    44
283
     0
284
     8
340
11
  0
DIMSTYLE
105
154
102
{ACAD_REACTORS
330
152
102
}
330
A
100
AcDbSymbolTableRecord
100
AcDbDimStyleTableRecord
  2
SLDDIMSTYLE0
 70
     0
 41
3.302
 44
0.0
 45
0.000000001
 73
     0
 74
     0
 77
     1
 78
    12
 79
     3
140
3.5
147
0.875
173
     1
178
     0
271
     0
272
     2
276
     2
284
    12
340
153
  0
DIMSTYLE
105
160
102
{ACAD_REACTORS
330
15F
330
16A
330
174
330
17F
330
18A
330
195
330
1A0
102
}
330
A
100
AcDbSymbolTableRecord
100
AcDbDimStyleTableRecord
  2
SLDDIMSTYLE1
 70
     0
 41
3.302
 44
0.0
 45
0.000000001
 73
     0
 74
     0
 77
     1
 78
    12
 79
     3
140
3.5
147
0.875
173
     1
178
     0
271
     2
272
     2
276
     2
284
    12
340
153
  0
ENDTAB
  0
TABLE
  2
BLOCK_RECORD
  5
1
330
0
100
AcDbSymbolTable
 70
     9
  0
BLOCK_RECORD
  5
1F
330
1
100
AcDbSymbolTableRecord
100
AcDbBlockTableRecord
  2
*Model_Space
340
22
 70
     0
280
     1
281
     0
  0
BLOCK_RECORD
  5
1B
330
1
100
AcDbSymbolTableRecord
100
AcDbBlockTableRecord
  2
*Paper_Space
340
1E
 70
     0
280
     1
281
     0
  0
BLOCK_RECORD
  5
23
330
1
100
AcDbSymbolTableRecord
100
AcDbBlockTableRecord
  2
*Paper_Space0
340
26
 70
     0
280
     1
281
     0
  0
BLOCK_RECORD
  5
155
330
1
100
AcDbSymbolTableRecord
100
AcDbBlockTableRecord
  2
_D
340
0
 70
     0
280
     1
281
     0
  0
BLOCK_RECORD
  5
161
330
1
100
AcDbSymbolTableRecord
100
AcDbBlockTableRecord
  2
_D_1
340
0
 70
     0
280
     1
281
     0
  0
BLOCK_RECORD
  5
16B
330
1
100
AcDbSymbolTableRecord
100
AcDbBlockTableRecord
  2
_D_2
340
0
 70
     0
280
     1
281
     0
  0
BLOCK_RECORD
  5
175
330
1
100
AcDbSymbolTableRecord
100
AcDbBlockTableRecord
  2
_D_3
340
0
 70
     0
280
     1
281
     0
  0
BLOCK_RECORD
  5
180
330
1
100
AcDbSymbolTableRecord
100
AcDbBlockTableRecord
  2
_D_4
340
0
 70
     0
280
     1
281
     0
  0
BLOCK_RECORD
  5
18B
330
1
100
AcDbSymbolTableRecord
100
AcDbBlockTableRecord
  2
_D_5
340
0
 70
     0
280
     1
281
     0
  0
BLOCK_RECORD
  5
196
330
1
100
AcDbSymbolTableRecord
100
AcDbBlockTableRecord
  2
_D_6
340
0
 70
     0
280
     1
281
     0
  0
BLOCK_RECORD
  5
1A1
330
1
100
AcDbSymbolTableRecord
100
AcDbBlockTableRecord
  2
_D_7
340
0
 70
     0
280
     1
281
     0
  0
ENDTAB
  0
ENDSEC
  0
SECTION
  2
BLOCKS
  0
BLOCK
  5
20
330
1F
100
AcDbEntity
  8
0
100
AcDbBlockBegin
  2
*Model_Space
 70
     0
 10
0.0
 20
0.0
 30
0.0
  3
*Model_Space
  1

  0
ENDBLK
  5
21
330
1F
100
AcDbEntity
  8
0
100
AcDbBlockEnd
  0
BLOCK
  5
1C
330
1B
100
AcDbEntity
 67
     1
  8
0
100
AcDbBlockBegin
  2
*Paper_Space
 70
     0
 10
0.0
 20
0.0
 30
0.0
  3
*Paper_Space
  1

  0
ENDBLK
  5
1D
330
1B
100
AcDbEntity
 67
     1
  8
0
100
AcDbBlockEnd
  0
BLOCK
  5
24
330
23
100
AcDbEntity
  8
0
100
AcDbBlockBegin
  2
*Paper_Space0
 70
     0
 10
0.0
 20
0.0
 30
0.0
  3
*Paper_Space0
  1

  0
ENDBLK
  5
25
330
23
100
AcDbEntity
  8
0
100
AcDbBlockEnd
  0
BLOCK
  5
156
330
155
100
AcDbEntity
  8
0
100
AcDbBlockBegin
  2
_D
 70
     0
 10
0.0
 20
0.0
 30
0.0
  3
_D
  1

  0
SOLID
  5
158
330
155
100
AcDbEntity
  8
SK2
100
AcDbTrace
 10
-33.6835492928
 20
-31.47
 30
0.0
 11
-33.1755492928
 21
-28.168
 31
0.0
 12
-34.1915492928
 22
-28.168
 32
0.0
 13
-34.1915492928
 23
-28.168
 33
0.0
  0
SOLID
  5
159
330
155
100
AcDbEntity
  8
SK2
100
AcDbTrace
 10
-33.6835492928
 20
31.47
 30
0.0
 11
-34.1915492928
 21
28.168
 31
0.0
 12
-33.1755492928
 22
28.168
 32
0.0
 13
-33.1755492928
 23
28.168
 33
0.0
  0
LINE
  5
15A
330
155
100
AcDbEntity
  8
SK2
100
AcDbLine
 10
-0.8
 20
-31.47
 30
0.0
 11
-34.6835492928
 21
-31.47
 31
0.0
  0
LINE
  5
15B
330
155
100
AcDbEntity
  8
SK2
100
AcDbLine
 10
-0.8
 20
31.47
 30
0.0
 11
-34.6835492928
 21
31.47
 31
0.0
  0
LINE
  5
15C
330
155
100
AcDbEntity
  8
SK2
100
AcDbLine
 10
-33.6835492928
 20
-31.47
 30
0.0
 11
-33.6835492928
 21
31.47
 31
0.0
  0
MTEXT
  5
15D
330
155
100
AcDbEntity
  8
SK2
100
AcDbMText
 10
-38.195286382
 20
-6.5498029893
 30
0.0
 40
3.5
 41
0.0
 46
0.0
 71
     1
 72
     1
  1
%%c
  7
SLDTEXTSTYLE0
 11
9.494107596574928E-16
 21
1.0
 31
0.0
 73
     1
 44
1.0
  0
MTEXT
  5
15E
330
155
100
AcDbEntity
  8
SK2
100
AcDbMText
 10
-38.2487585587
 20
-1.2713655909
 30
0.0
 40
3.5
 41
0.0
 46
0.0
 71
     1
 72
     1
  1
63
  7
SLDTEXTSTYLE0
 11
9.494107596574928E-16
 21
1.0
 31
0.0
 73
     1
 44
1.0
  0
ENDBLK
  5
157
330
155
100
AcDbEntity
  8
0
100
AcDbBlockEnd
  0
BLOCK
  5
162
330
161
100
AcDbEntity
  8
0
100
AcDbBlockBegin
  2
_D_1
 70
     0
 10
0.0
 20
0.0
 30
0.0
  3
_D_1
  1

  0
SOLID
  5
164
330
161
100
AcDbEntity
  8
SK2
100
AcDbTrace
 10
44.0
 20
33.9594444374
 30
0.0
 11
47.302
 21
33.4514444374
 31
0.0
 12
47.302
 22
34.4674444374
 32
0.0
 13
47.302
 23
34.4674444374
 33
0.0
  0
SOLID
  5
165
330
161
100
AcDbEntity
  8
SK2
100
AcDbTrace
 10
100.0
 20
33.9594444374
 30
0.0
 11
96.698
 21
34.4674444374
 31
0.0
 12
96.698
 22
33.4514444374
 32
0.0
 13
96.698
 23
33.4514444374
 33
0.0
  0
LINE
  5
166
330
161
100
AcDbEntity
  8
SK2
100
AcDbLine
 10
44.0
 20
20.0
 30
0.0
 11
44.0
 21
34.9594444374
 31
0.0
  0
LINE
  5
167
330
161
100
AcDbEntity
  8
SK2
100
AcDbLine
 10
100.0
 20
18.0
 30
0.0
 11
100.0
 21
34.9594444374
 31
0.0
  0
LINE
  5
168
330
161
100
AcDbEntity
  8
SK2
100
AcDbLine
 10
44.0
 20
33.9594444374
 30
0.0
 11
100.0
 21
33.9594444374
 31
0.0
  0
MTEXT
  5
169
330
161
100
AcDbEntity
  8
SK2
100
AcDbMText
 10
69.5882094422
 20
38.471181352
 30
0.0
 40
3.5
 41
0.0
 46
0.0
 71
     1
 72
     1
  1
56
  7
SLDTEXTSTYLE0
 73
     1
 44
1.0
  0
ENDBLK
  5
163
330
161
100
AcDbEntity
  8
0
100
AcDbBlockEnd
  0
BLOCK
  5
16C
330
16B
100
AcDbEntity
  8
0
100
AcDbBlockBegin
  2
_D_2
 70
     0
 10
0.0
 20
0.0
 30
0.0
  3
_D_2
  1

  0
SOLID
  5
16E
330
16B
100
AcDbEntity
  8
SK2
100
AcDbTrace
 10
100.0
 20
43.9522116273
 30
0.0
 11
96.698
 21
44.4602116273
 31
0.0
 12
96.698
 22
43.4442116273
 32
0.0
 13
96.698
 23
43.4442116273
 33
0.0
  0
SOLID
  5
16F
330
16B
100
AcDbEntity
  8
SK2
100
AcDbTrace
 10
0.0
 20
43.9522116273
 30
0.0
 11
3.302
 21
43.4442116273
 31
0.0
 12
3.302
 22
44.4602116273
 32
0.0
 13
3.302
 23
44.4602116273
 33
0.0
  0
LINE
  5
170
330
16B
100
AcDbEntity
  8
SK2
100
AcDbLine
 10
100.0
 20
18.0
 30
0.0
 11
100.0
 21
44.9522116273
 31
0.0
  0
LINE
  5
171
330
16B
100
AcDbEntity
  8
SK2
100
AcDbLine
 10
0.0
 20
32.27
 30
0.0
 11
0.0
 21
44.9522116273
 31
0.0
  0
LINE
  5
172
330
16B
100
AcDbEntity
  8
SK2
100
AcDbLine
 10
100.0
 20
43.9522116273
 30
0.0
 11
0.0
 21
43.9522116273
 31
0.0
  0
MTEXT
  5
173
330
16B
100
AcDbEntity
  8
SK2
100
AcDbMText
 10
46.863513122
 20
48.4639485419
 30
0.0
 40
3.5
 41
0.0
 46
0.0
 71
     1
 72
     1
  1
100
  7
SLDTEXTSTYLE0
 73
     1
 44
1.0
  0
ENDBLK
  5
16D
330
16B
100
AcDbEntity
  8
0
100
AcDbBlockEnd
  0
BLOCK
  5
176
330
175
100
AcDbEntity
  8
0
100
AcDbBlockBegin
  2
_D_3
 70
     0
 10
0.0
 20
0.0
 30
0.0
  3
_D_3
  1

  0
SOLID
  5
178
330
175
100
AcDbEntity
  8
SK2
100
AcDbTrace
 10
142.0934712654
 20
-25.0
 30
0.0
 11
142.6014712654
 21
-21.698
 31
0.0
 12
141.5854712654
 22
-21.698
 32
0.0
 13
141.5854712654
 23
-21.698
 33
0.0
  0
SOLID
  5
179
330
175
100
AcDbEntity
  8
SK2
100
AcDbTrace
 10
142.0934712654
 20
25.0
 30
0.0
 11
141.5854712654
 21
21.698
 31
0.0
 12
142.6014712654
 22
21.698
 32
0.0
 13
142.6014712654
 23
21.698
 33
0.0
  0
LINE
  5
17A
330
175
100
AcDbEntity
  8
SK2
100
AcDbLine
 10
41.8836189207
 20
-25.0
 30
0.0
 11
143.0934712654
 21
-25.0
 31
0.0
  0
LINE
  5
17B
330
175
100
AcDbEntity
  8
SK2
100
AcDbLine
 10
41.8836189207
 20
25.0
 30
0.0
 11
143.0934712654
 21
25.0
 31
0.0
  0
LINE
  5
17C
330
175
100
AcDbEntity
  8
SK2
100
AcDbLine
 10
142.0934712654
 20
-25.0
 30
0.0
 11
142.0934712654
 21
25.0
 31
0.0
  0
MTEXT
  5
17D
330
175
100
AcDbEntity
  8
SK2
100
AcDbMText
 10
137.5817341762
 20
-4.6344107668
 30
0.0
 40
3.5
 41
0.0
 46
0.0
 71
     1
 72
     1
  1
%%c
  7
SLDTEXTSTYLE0
 11
6.123233995736766E-17
 21
1.0
 31
0.0
 73
     1
 44
1.0
  0
MTEXT
  5
17E
330
175
100
AcDbEntity
  8
SK2
100
AcDbMText
 10
137.5282619996
 20
0.6440266315
 30
0.0
 40
3.5
 41
0.0
 46
0.0
 71
     1
 72
     1
  1
50
  7
SLDTEXTSTYLE0
 11
6.123233995736766E-17
 21
1.0
 31
0.0
 73
     1
 44
1.0
  0
ENDBLK
  5
177
330
175
100
AcDbEntity
  8
0
100
AcDbBlockEnd
  0
BLOCK
  5
181
330
180
100
AcDbEntity
  8
0
100
AcDbBlockBegin
  2
_D_4
 70
     0
 10
0.0
 20
0.0
 30
0.0
  3
_D_4
  1

  0
SOLID
  5
183
330
180
100
AcDbEntity
  8
SK2
100
AcDbTrace
 10
111.4548357886
 20
-8.0
 30
0.0
 11
111.9628357886
 21
-4.698
 31
0.0
 12
110.9468357886
 22
-4.698
 32
0.0
 13
110.9468357886
 23
-4.698
 33
0.0
  0
SOLID
  5
184
330
180
100
AcDbEntity
  8
SK2
100
AcDbTrace
 10
111.4548357886
 20
8.0
 30
0.0
 11
110.9468357886
 21
4.698
 31
0.0
 12
111.9628357886
 22
4.698
 32
0.0
 13
111.9628357886
 23
4.698
 33
0.0
  0
LINE
  5
185
330
180
100
AcDbEntity
  8
SK2
100
AcDbLine
 10
101.0
 20
-8.0
 30
0.0
 11
112.4548357886
 21
-8.0
 31
0.0
  0
LINE
  5
186
330
180
100
AcDbEntity
  8
SK2
100
AcDbLine
 10
101.0
 20
8.0
 30
0.0
 11
112.4548357886
 21
8.0
 31
0.0
  0
LINE
  5
187
330
180
100
AcDbEntity
  8
SK2
100
AcDbLine
 10
111.4548357886
 20
-8.0
 30
0.0
 11
111.4548357886
 21
8.0
 31
0.0
  0
MTEXT
  5
188
330
180
100
AcDbEntity
  8
SK2
100
AcDbMText
 10
106.9430986993
 20
-4.6344107668
 30
0.0
 40
3.5
 41
0.0
 46
0.0
 71
     1
 72
     1
  1
%%c
  7
SLDTEXTSTYLE0
 11
6.123233995736766E-17
 21
1.0
 31
0.0
 73
     1
 44
1.0
  0
MTEXT
  5
189
330
180
100
AcDbEntity
  8
SK2
100
AcDbMText
 10
106.8896265227
 20
0.6440266315
 30
0.0
 40
3.5
 41
0.0
 46
0.0
 71
     1
 72
     1
  1
16
  7
SLDTEXTSTYLE0
 11
6.123233995736766E-17
 21
1.0
 31
0.0
 73
     1
 44
1.0
  0
ENDBLK
  5
182
330
180
100
AcDbEntity
  8
0
100
AcDbBlockEnd
  0
BLOCK
  5
18C
330
18B
100
AcDbEntity
  8
0
100
AcDbBlockBegin
  2
_D_5
 70
     0
 10
0.0
 20
0.0
 30
0.0
  3
_D_5
  1

  0
SOLID
  5
18E
330
18B
100
AcDbEntity
  8
SK2
100
AcDbTrace
 10
121.4840294159
 20
17.0
 30
0.0
 11
120.9760294159
 21
13.698
 31
0.0
 12
121.9920294159
 22
13.698
 32
0.0
 13
121.9920294159
 23
13.698
 33
0.0
  0
SOLID
  5
18F
330
18B
100
AcDbEntity
  8
SK2
100
AcDbTrace
 10
121.4840294159
 20
-17.0
 30
0.0
 11
121.9920294159
 21
-13.698
 31
0.0
 12
120.9760294159
 22
-13.698
 32
0.0
 13
120.9760294159
 23
-13.698
 33
0.0
  0
LINE
  5
190
330
18B
100
AcDbEntity
  8
SK2
100
AcDbLine
 10
101.0
 20
17.0
 30
0.0
 11
122.4840294159
 21
17.0
 31
0.0
  0
LINE
  5
191
330
18B
100
AcDbEntity
  8
SK2
100
AcDbLine
 10
101.0
 20
-17.0
 30
0.0
 11
122.4840294159
 21
-17.0
 31
0.0
  0
LINE
  5
192
330
18B
100
AcDbEntity
  8
SK2
100
AcDbLine
 10
121.4840294159
 20
17.0
 30
0.0
 11
121.4840294159
 21
-17.0
 31
0.0
  0
MTEXT
  5
193
330
18B
100
AcDbEntity
  8
SK2
100
AcDbMText
 10
116.9722923267
 20
-4.6344107668
 30
0.0
 40
3.5
 41
0.0
 46
0.0
 71
     1
 72
     1
  1
%%c
  7
SLDTEXTSTYLE0
 11
-7.044195017643634E-15
 21
1.0
 31
0.0
 73
     1
 44
1.0
  0
MTEXT
  5
194
330
18B
100
AcDbEntity
  8
SK2
100
AcDbMText
 10
116.91882015
 20
0.6440266315
 30
0.0
 40
3.5
 41
0.0
 46
0.0
 71
     1
 72
     1
  1
34
  7
SLDTEXTSTYLE0
 11
-7.044195017643634E-15
 21
1.0
 31
0.0
 73
     1
 44
1.0
  0
ENDBLK
  5
18D
330
18B
100
AcDbEntity
  8
0
100
AcDbBlockEnd
  0
BLOCK
  5
197
330
196
100
AcDbEntity
  8
0
100
AcDbBlockBegin
  2
_D_6
 70
     0
 10
0.0
 20
0.0
 30
0.0
  3
_D_6
  1

  0
SOLID
  5
199
330
196
100
AcDbEntity
  8
SK2
100
AcDbTrace
 10
131.8438558001
 20
19.0
 30
0.0
 11
131.3358558001
 21
15.698
 31
0.0
 12
132.3518558001
 22
15.698
 32
0.0
 13
132.3518558001
 23
15.698
 33
0.0
  0
SOLID
  5
19A
330
196
100
AcDbEntity
  8
SK2
100
AcDbTrace
 10
131.8438558001
 20
-19.0
 30
0.0
 11
132.3518558001
 21
-15.698
 31
0.0
 12
131.3358558001
 22
-15.698
 32
0.0
 13
131.3358558001
 23
-15.698
 33
0.0
  0
LINE
  5
19B
330
196
100
AcDbEntity
  8
SK2
100
AcDbLine
 10
89.6574363608
 20
19.0
 30
0.0
 11
132.8438558001
 21
19.0
 31
0.0
  0
LINE
  5
19C
330
196
100
AcDbEntity
  8
SK2
100
AcDbLine
 10
89.6574363608
 20
-19.0
 30
0.0
 11
132.8438558001
 21
-19.0
 31
0.0
  0
LINE
  5
19D
330
196
100
AcDbEntity
  8
SK2
100
AcDbLine
 10
131.8438558001
 20
19.0
 30
0.0
 11
131.8438558001
 21
-19.0
 31
0.0
  0
MTEXT
  5
19E
330
196
100
AcDbEntity
  8
SK2
100
AcDbMText
 10
127.3321187109
 20
-4.6344107668
 30
0.0
 40
3.5
 41
0.0
 46
0.0
 71
     1
 72
     1
  1
%%c
  7
SLDTEXTSTYLE0
 11
-7.044195017643634E-15
 21
1.0
 31
0.0
 73
     1
 44
1.0
  0
MTEXT
  5
19F
330
196
100
AcDbEntity
  8
SK2
100
AcDbMText
 10
127.2786465343
 20
0.6440266315
 30
0.0
 40
3.5
 41
0.0
 46
0.0
 71
     1
 72
     1
  1
38
  7
SLDTEXTSTYLE0
 11
-7.044195017643634E-15
 21
1.0
 31
0.0
 73
     1
 44
1.0
  0
ENDBLK
  5
198
330
196
100
AcDbEntity
  8
0
100
AcDbBlockEnd
  0
BLOCK
  5
1A2
330
1A1
100
AcDbEntity
  8
0
100
AcDbBlockBegin
  2
_D_7
 70
     0
 10
0.0
 20
0.0
 30
0.0
  3
_D_7
  1

  0
SOLID
  5
1A4
330
1A1
100
AcDbEntity
  8
SK2
100
AcDbTrace
 10
100.0
 20
-39.4727893105
 30
0.0
 11
96.698
 21
-38.9647893105
 31
0.0
 12
96.698
 22
-39.9807893105
 32
0.0
 13
96.698
 23
-39.9807893105
 33
0.0
  0
SOLID
  5
1A5
330
1A1
100
AcDbEntity
  8
SK2
100
AcDbTrace
 10
48.0
 20
-39.4727893105
 30
0.0
 11
51.302
 21
-39.9807893105
 31
0.0
 12
51.302
 22
-38.9647893105
 32
0.0
 13
51.302
 23
-38.9647893105
 33
0.0
  0
LINE
  5
1A6
330
1A1
100
AcDbEntity
  8
SK2
100
AcDbLine
 10
100.0
 20
-18.0
 30
0.0
 11
100.0
 21
-40.4727893105
 31
0.0
  0
LINE
  5
1A7
330
1A1
100
AcDbEntity
  8
SK2
100
AcDbLine
 10
48.0
 20
-9.2
 30
0.0
 11
48.0
 21
-40.4727893105
 31
0.0
  0
LINE
  5
1A8
330
1A1
100
AcDbEntity
  8
SK2
100
AcDbLine
 10
100.0
 20
-39.4727893105
 30
0.0
 11
48.0
 21
-39.4727893105
 31
0.0
  0
MTEXT
  5
1A9
330
1A1
100
AcDbEntity
  8
SK2
100
AcDbMText
 10
65.7864857073
 20
-29.4048024048
 30
0.0
 40
3.5
 41
0.0
 46
0.0
 71
     1
 72
     1
  1
52
  7
SLDTEXTSTYLE0
 73
     1
 44
1.0
  0
MTEXT
  5
1AA
330
1A1
100
AcDbEntity
  8
SK2
100
AcDbMText
 10
72.2712080944
 20
-29.4048024048
 30
0.0
 40
3.5
 41
0.0
 46
0.0
 71
     1
 72
     1
  1
MAX
  7
SLDTEXTSTYLE0
 73
     1
 44
1.0
  0
MTEXT
  5
1AB
330
1A1
100
AcDbEntity
  8
SK2
100
AcDbMText
 10
66.6809307019
 20
-34.9610523959
 30
0.0
 40
3.5
 41
0.0
 46
0.0
 71
     1
 72
     1
  1
42 MIN
  7
SLDTEXTSTYLE0
 73
     1
 44
1.0
  0
ENDBLK
  5
1A3
330
1A1
100
AcDbEntity
  8
0
100
AcDbBlockEnd
  0
ENDSEC
  0
SECTION
  2
ENTITIES
  0
LINE
  5
7A
330
1F
100
AcDbEntity
  8
1
  6
Continuous
370
    25
100
AcDbLine
 10
25.75
 20
31.47
 30
0.0
 11
21.4612148638
 21
31.47
 31
0.0
  0
LINE
  5
7B
330
1F
100
AcDbEntity
  8
1
  6
Continuous
370
    25
100
AcDbLine
 10
21.4612148638
 20
-31.47
 30
0.0
 11
25.75
 21
-31.47
 31
0.0
  0
LINE
  5
7C
330
1F
100
AcDbEntity
  8
1
  6
Continuous
370
    25
100
AcDbLine
 10
14.5387851362
 20
31.47
 30
0.0
 11
0.2
 21
31.47
 31
0.0
  0
LINE
  5
7D
330
1F
100
AcDbEntity
  8
1
  6
Continuous
370
    25
100
AcDbLine
 10
0.2
 20
-31.47
 30
0.0
 11
14.5387851362
 21
-31.47
 31
0.0
  0
LINE
  5
7E
330
1F
100
AcDbEntity
  8
1
  6
Continuous
370
    25
100
AcDbLine
 10
21.3313110532
 20
31.395
 30
0.0
 11
19.9125
 21
28.9375471695
 31
0.0
  0
LINE
  5
7F
330
1F
100
AcDbEntity
  8
1
  6
Continuous
370
    25
100
AcDbLine
 10
19.9125
 20
-28.9375471695
 30
0.0
 11
21.3313110532
 21
-31.395
 31
0.0
  0
LINE
  5
80
330
1F
100
AcDbEntity
  8
1
  6
Continuous
370
    25
100
AcDbLine
 10
14.6686889468
 20
-31.395
 30
0.0
 11
16.0875
 21
-28.9375471695
 31
0.0
  0
LINE
  5
81
330
1F
100
AcDbEntity
  8
1
  6
Continuous
370
    25
100
AcDbLine
 10
16.0875
 20
28.9375471695
 30
0.0
 11
14.6686889468
 21
31.395
 31
0.0
  0
LINE
  5
82
330
1F
100
AcDbEntity
  8
1
  6
Continuous
370
    25
100
AcDbLine
 10
19.1625
 20
27.475
 30
0.0
 11
16.8375
 21
27.475
 31
0.0
  0
LINE
  5
83
330
1F
100
AcDbEntity
  8
1
  6
Continuous
370
    25
100
AcDbLine
 10
16.8375
 20
-27.475
 30
0.0
 11
19.1625
 21
-27.475
 31
0.0
  0
LINE
  5
84
330
1F
100
AcDbEntity
  8
1
  6
Continuous
370
    25
100
AcDbLine
 10
40.8836189207
 20
25.0
 30
0.0
 11
26.7
 21
25.0
 31
0.0
  0
LINE
  5
85
330
1F
100
AcDbEntity
  8
1
  6
Continuous
370
    25
100
AcDbLine
 10
26.7
 20
-25.0
 30
0.0
 11
40.8836189207
 21
-25.0
 31
0.0
  0
LINE
  5
86
330
1F
100
AcDbEntity
  8
1
  6
Continuous
370
    25
100
AcDbLine
 10
41.3367728142
 20
-24.7113091309
 30
0.0
 11
43.3321797188
 21
-20.4321452148
 31
0.0
  0
LINE
  5
87
330
1F
100
AcDbEntity
  8
1
  6
Continuous
370
    25
100
AcDbLine
 10
43.3321797188
 20
20.4321452148
 30
0.0
 11
41.3367728142
 21
24.7113091309
 31
0.0
  0
LINE
  5
88
330
1F
100
AcDbEntity
  8
SK1
  6
Continuous
370
    25
100
AcDbLine
 10
-10.9956073344
 20
18.7041268843
 30
0.0
 11
-23.9500361105
 21
18.0551247203
 31
0.0
  0
LINE
  5
89
330
1F
100
AcDbEntity
  8
SK1
  6
Continuous
370
    25
100
AcDbLine
 10
-2.0386068945
 20
19.1528624301
 30
0.0
 11
-3.6413704951
 21
19.0725657946
 31
0.0
  0
LINE
  5
8A
330
1F
100
AcDbEntity
  8
SK1
  6
Continuous
370
    25
100
AcDbLine
 10
-3.6407142317
 20
-19.0725986727
 30
0.0
 11
-2.0386068945
 21
-19.1528624301
 31
0.0
  0
LINE
  5
8B
330
1F
100
AcDbEntity
  8
SK1
  6
Continuous
370
    25
100
AcDbLine
 10
-23.9500361105
 20
-18.0551247203
 30
0.0
 11
-10.9882971576
 21
-18.7044931158
 31
0.0
  0
LINE
  5
8C
330
1F
100
AcDbEntity
  8
SK1
  6
Continuous
370
    25
100
AcDbLine
 10
-2.0
 20
-19.1487597322
 30
0.0
 11
-1.1585987036
 21
-18.9233069343
 31
0.0
  0
LINE
  5
8D
330
1F
100
AcDbEntity
  8
SK1
  6
Continuous
370
    25
100
AcDbLine
 10
-1.1585987036
 20
18.9233069343
 30
0.0
 11
-2.0
 21
19.1487597322
 31
0.0
  0
LINE
  5
8E
330
1F
100
AcDbEntity
  8
1
  6
Continuous
370
    25
100
AcDbLine
 10
74.2
 20
19.0
 30
0.0
 11
48.3211030799
 21
19.0
 31
0.0
  0
LINE
  5
8F
330
1F
100
AcDbEntity
  8
1
  6
Continuous
370
    25
100
AcDbLine
 10
48.3211030799
 20
-19.0
 30
0.0
 11
74.2
 21
-19.0
 31
0.0
  0
LINE
  5
90
330
1F
100
AcDbEntity
  8
1
  6
Continuous
370
    25
100
AcDbLine
 10
48.3211030799
 20
19.0
 30
0.0
 11
48.0211030799
 21
18.7
 31
0.0
  0
LINE
  5
91
330
1F
100
AcDbEntity
  8
1
  6
Continuous
370
    25
100
AcDbLine
 10
48.0211030799
 20
-18.7
 30
0.0
 11
48.3211030799
 21
-19.0
 31
0.0
  0
LINE
  5
92
330
1F
100
AcDbEntity
  8
1
  6
Continuous
370
    25
100
AcDbLine
 10
80.2
 20
19.0
 30
0.0
 11
79.0
 21
19.0
 31
0.0
  0
LINE
  5
93
330
1F
100
AcDbEntity
  8
1
  6
Continuous
370
    25
100
AcDbLine
 10
79.0
 20
-19.0
 30
0.0
 11
80.2
 21
-19.0
 31
0.0
  0
LINE
  5
94
330
1F
100
AcDbEntity
  8
1
  6
Continuous
370
    25
100
AcDbLine
 10
88.6574363608
 20
19.0
 30
0.0
 11
85.0
 21
19.0
 31
0.0
  0
LINE
  5
95
330
1F
100
AcDbEntity
  8
1
  6
Continuous
370
    25
100
AcDbLine
 10
85.0
 20
-19.0
 30
0.0
 11
88.6574363608
 21
-19.0
 31
0.0
  0
LINE
  5
96
330
1F
100
AcDbEntity
  8
1
  6
Continuous
370
    25
100
AcDbLine
 10
77.2
 20
19.0
 30
0.0
 11
76.0
 21
19.0
 31
0.0
  0
LINE
  5
97
330
1F
100
AcDbEntity
  8
1
  6
Continuous
370
    25
100
AcDbLine
 10
76.0
 20
-19.0
 30
0.0
 11
77.2
 21
-19.0
 31
0.0
  0
LINE
  5
98
330
1F
100
AcDbEntity
  8
1
  6
Continuous
370
    25
100
AcDbLine
 10
83.2
 20
19.0
 30
0.0
 11
82.0
 21
19.0
 31
0.0
  0
LINE
  5
99
330
1F
100
AcDbEntity
  8
1
  6
Continuous
370
    25
100
AcDbLine
 10
82.0
 20
-19.0
 30
0.0
 11
83.2
 21
-19.0
 31
0.0
  0
LINE
  5
9A
330
1F
100
AcDbEntity
  8
1
  6
Continuous
370
    25
100
AcDbLine
 10
88.6574363608
 20
-19.0
 30
0.0
 11
100.0
 21
-17.0
 31
0.0
  0
LINE
  5
9B
330
1F
100
AcDbEntity
  8
1
  6
Continuous
370
    25
100
AcDbLine
 10
100.0
 20
17.0
 30
0.0
 11
88.6574363608
 21
19.0
 31
0.0
  0
LINE
  5
9C
330
1F
100
AcDbEntity
  8
SK1
  6
Continuous
370
    25
100
AcDbLine
 10
-0.475
 20
18.9028624301
 30
0.0
 11
-1.0033072765
 21
18.9028624301
 31
0.0
  0
LINE
  5
9D
330
1F
100
AcDbEntity
  8
SK1
  6
Continuous
370
    25
100
AcDbLine
 10
-1.0033072765
 20
-18.9028624301
 30
0.0
 11
-0.475
 21
-18.9028624301
 31
0.0
  0
LINE
  5
9E
330
1F
100
AcDbEntity
  8
1
  6
Continuous
370
    25
100
AcDbLine
 10
48.0211030799
 20
18.7
 30
0.0
 11
46.0511030799
 21
18.7
 31
0.0
  0
LINE
  5
9F
330
1F
100
AcDbEntity
  8
1
  6
Continuous
370
    25
100
AcDbLine
 10
46.0511030799
 20
-18.7
 30
0.0
 11
48.0211030799
 21
-18.7
 31
0.0
  0
LINE
  5
A0
330
1F
100
AcDbEntity
  8
1
  6
Continuous
370
    25
100
AcDbLine
 10
0.0
 20
-31.27
 30
0.0
 11
0.0
 21
31.27
 31
0.0
  0
LINE
  5
A1
330
1F
100
AcDbEntity
  8
1
  6
Continuous
370
    25
100
AcDbLine
 10
25.95
 20
31.27
 30
0.0
 11
25.95
 21
-31.27
 31
0.0
  0
LINE
  5
A2
330
1F
100
AcDbEntity
  8
1
  6
Continuous
370
    25
100
AcDbLine
 10
19.9125
 20
28.9375471695
 30
0.0
 11
19.9125
 21
-28.9375471695
 31
0.0
  0
LINE
  5
A3
330
1F
100
AcDbEntity
  8
1
  6
Continuous
370
    25
100
AcDbLine
 10
16.0875
 20
28.9375471695
 30
0.0
 11
16.0875
 21
-28.9375471695
 31
0.0
  0
LINE
  5
A4
330
1F
100
AcDbEntity
  8
1
  6
Continuous
370
    25
100
AcDbLine
 10
38.5
 20
16.5
 30
0.0
 11
27.5
 21
16.5
 31
0.0
  0
LINE
  5
A5
330
1F
100
AcDbEntity
  8
1
  6
Continuous
370
    25
100
AcDbLine
 10
38.5
 20
21.3541565041
 30
0.0
 11
38.5
 21
16.5
 31
0.0
  0
LINE
  5
A6
330
1F
100
AcDbEntity
  8
1
  6
Continuous
370
    25
100
AcDbLine
 10
27.5
 20
16.5
 30
0.0
 11
27.5
 21
21.3541565041
 31
0.0
  0
LINE
  5
A7
330
1F
100
AcDbEntity
  8
1
  6
Continuous
370
    25
100
AcDbLine
 10
74.2
 20
-19.0
 30
0.0
 11
74.2
 21
19.0
 31
0.0
  0
LINE
  5
A8
330
1F
100
AcDbEntity
  8
1
  6
Continuous
370
    25
100
AcDbLine
 10
48.3211030799
 20
19.0
 30
0.0
 11
48.3211030799
 21
-19.0
 31
0.0
  0
LINE
  5
A9
330
1F
100
AcDbEntity
  8
1
  6
Continuous
370
    25
100
AcDbLine
 10
48.0211030799
 20
18.7
 30
0.0
 11
48.0211030799
 21
-18.7
 31
0.0
  0
LINE
  5
AA
330
1F
100
AcDbEntity
  8
1
  6
Continuous
370
    25
100
AcDbLine
 10
80.2
 20
-19.0
 30
0.0
 11
80.2
 21
19.0
 31
0.0
  0
LINE
  5
AB
330
1F
100
AcDbEntity
  8
1
  6
Continuous
370
    25
100
AcDbLine
 10
79.0
 20
0.0
 30
0.0
 11
79.0
 21
-19.0
 31
0.0
  0
LINE
  5
AC
330
1F
100
AcDbEntity
  8
1
  6
Continuous
370
    25
100
AcDbLine
 10
79.0
 20
19.0
 30
0.0
 11
79.0
 21
0.0
 31
0.0
  0
LINE
  5
AD
330
1F
100
AcDbEntity
  8
1
  6
Continuous
370
    25
100
AcDbLine
 10
85.0
 20
0.0
 30
0.0
 11
85.0
 21
-19.0
 31
0.0
  0
LINE
  5
AE
330
1F
100
AcDbEntity
  8
1
  6
Continuous
370
    25
100
AcDbLine
 10
85.0
 20
19.0
 30
0.0
 11
85.0
 21
0.0
 31
0.0
  0
LINE
  5
AF
330
1F
100
AcDbEntity
  8
1
  6
Continuous
370
    25
100
AcDbLine
 10
88.6574363608
 20
19.0
 30
0.0
 11
88.6574363608
 21
-19.0
 31
0.0
  0
LINE
  5
B0
330
1F
100
AcDbEntity
  8
1
  6
Continuous
370
    25
100
AcDbLine
 10
77.2
 20
-19.0
 30
0.0
 11
77.2
 21
19.0
 31
0.0
  0
LINE
  5
B1
330
1F
100
AcDbEntity
  8
1
  6
Continuous
370
    25
100
AcDbLine
 10
76.0
 20
0.0
 30
0.0
 11
76.0
 21
-19.0
 31
0.0
  0
LINE
  5
B2
330
1F
100
AcDbEntity
  8
1
  6
Continuous
370
    25
100
AcDbLine
 10
76.0
 20
19.0
 30
0.0
 11
76.0
 21
0.0
 31
0.0
  0
LINE
  5
B3
330
1F
100
AcDbEntity
  8
1
  6
Continuous
370
    25
100
AcDbLine
 10
83.2
 20
-19.0
 30
0.0
 11
83.2
 21
19.0
 31
0.0
  0
LINE
  5
B4
330
1F
100
AcDbEntity
  8
1
  6
Continuous
370
    25
100
AcDbLine
 10
82.0
 20
0.0
 30
0.0
 11
82.0
 21
-19.0
 31
0.0
  0
LINE
  5
B5
330
1F
100
AcDbEntity
  8
1
  6
Continuous
370
    25
100
AcDbLine
 10
82.0
 20
19.0
 30
0.0
 11
82.0
 21
0.0
 31
0.0
  0
LINE
  5
B6
330
1F
100
AcDbEntity
  8
1
  6
Continuous
370
    25
100
AcDbLine
 10
100.0
 20
17.0
 30
0.0
 11
100.0
 21
-17.0
 31
0.0
  0
LINE
  5
B7
330
1F
100
AcDbEntity
  8
SK1
  6
Continuous
370
    25
100
AcDbLine
 10
-24.9
 20
-17.056377311
 30
0.0
 11
-24.9
 21
17.056377311
 31
0.0
  0
LINE
  5
B8
330
1F
100
AcDbEntity
  8
1
  6
Continuous
370
    25
100
AcDbLine
 10
14.6686889468
 20
31.395
 30
0.0
 11
14.6686889468
 21
-31.395
 31
0.0
  0
LINE
  5
B9
330
1F
100
AcDbEntity
  8
1
  6
Continuous
370
    25
100
AcDbLine
 10
14.5387851362
 20
-31.47
 30
0.0
 11
14.5387851362
 21
31.47
 31
0.0
  0
LINE
  5
BA
330
1F
100
AcDbEntity
  8
1
  6
Continuous
370
    25
100
AcDbLine
 10
0.2
 20
31.47
 30
0.0
 11
0.2
 21
-31.47
 31
0.0
  0
LINE
  5
BB
330
1F
100
AcDbEntity
  8
1
  6
Continuous
370
    25
100
AcDbLine
 10
21.4612148638
 20
31.47
 30
0.0
 11
21.4612148638
 21
-31.47
 31
0.0
  0
LINE
  5
BC
330
1F
100
AcDbEntity
  8
1
  6
Continuous
370
    25
100
AcDbLine
 10
21.3313110532
 20
-31.395
 30
0.0
 11
21.3313110532
 21
31.395
 31
0.0
  0
LINE
  5
BD
330
1F
100
AcDbEntity
  8
1
  6
Continuous
370
    25
100
AcDbLine
 10
25.75
 20
-31.47
 30
0.0
 11
25.75
 21
31.47
 31
0.0
  0
LINE
  5
BE
330
1F
100
AcDbEntity
  8
1
  6
Continuous
370
    25
100
AcDbLine
 10
19.1625
 20
27.475
 30
0.0
 11
19.1625
 21
-27.475
 31
0.0
  0
LINE
  5
BF
330
1F
100
AcDbEntity
  8
1
  6
Continuous
370
    25
100
AcDbLine
 10
16.8375
 20
27.475
 30
0.0
 11
16.8375
 21
-27.475
 31
0.0
  0
LINE
  5
C0
330
1F
100
AcDbEntity
  8
1
  6
Continuous
370
    25
100
AcDbLine
 10
26.7
 20
25.0
 30
0.0
 11
26.7
 21
-25.0
 31
0.0
  0
LINE
  5
C1
330
1F
100
AcDbEntity
  8
1
  6
Continuous
370
    25
100
AcDbLine
 10
40.8836189207
 20
-25.0
 30
0.0
 11
40.8836189207
 21
25.0
 31
0.0
  0
LINE
  5
C2
330
1F
100
AcDbEntity
  8
1
  6
Continuous
370
    25
100
AcDbLine
 10
41.3367728142
 20
24.7113091309
 30
0.0
 11
41.3367728142
 21
-24.7113091309
 31
0.0
  0
LINE
  5
C3
330
1F
100
AcDbEntity
  8
1
  6
Continuous
370
    25
100
AcDbLine
 10
43.3321797188
 20
20.4321452148
 30
0.0
 11
43.3321797188
 21
-20.4321452148
 31
0.0
  0
LINE
  5
C4
330
1F
100
AcDbEntity
  8
1
  6
Continuous
370
    25
100
AcDbLine
 10
46.0511030799
 20
18.7
 30
0.0
 11
46.0511030799
 21
-18.7
 31
0.0
  0
LINE
  5
C5
330
1F
100
AcDbEntity
  8
SK1
  6
Continuous
370
    25
100
AcDbLine
 10
-0.475
 20
18.9028624301
 30
0.0
 11
-0.475
 21
-18.9028624301
 31
0.0
  0
LINE
  5
C6
330
1F
100
AcDbEntity
  8
SK1
  6
Continuous
370
    25
100
AcDbLine
 10
-2.0
 20
19.1487597322
 30
0.0
 11
-2.0
 21
-19.1487597322
 31
0.0
  0
LINE
  5
C7
330
1F
100
AcDbEntity
  8
SK1
  6
Continuous
370
    25
100
AcDbLine
 10
-2.0386068945
 20
19.1528624301
 30
0.0
 11
-2.0386068945
 21
-19.1528624301
 31
0.0
  0
LINE
  5
C8
330
1F
100
AcDbEntity
  8
SK1
  6
Continuous
370
    25
100
AcDbLine
 10
-23.9500361105
 20
18.0551247203
 30
0.0
 11
-23.9500361105
 21
-18.0551247203
 31
0.0
  0
LINE
  5
C9
330
1F
100
AcDbEntity
  8
SK1
  6
Continuous
370
    25
100
AcDbLine
 10
-1.1585987036
 20
18.9233069343
 30
0.0
 11
-1.1585987036
 21
-18.9233069343
 31
0.0
  0
LINE
  5
CA
330
1F
100
AcDbEntity
  8
SK1
  6
Continuous
370
    25
100
AcDbLine
 10
-1.0033072765
 20
18.9028624301
 30
0.0
 11
-1.0033072765
 21
-18.9028624301
 31
0.0
  0
LINE
  5
CB
330
1F
100
AcDbEntity
  8
SK3
  6
HIDDEN
370
    18
100
AcDbLine
 10
0.1191608412
 20
19.5863662907
 30
0.0
 11
0.1191608412
 21
-19.5729899805
 31
0.0
  0
LINE
  5
CC
330
1F
100
AcDbEntity
  8
SK3
  6
HIDDEN
370
    18
100
AcDbLine
 10
-5.2070758589
 20
15.9229112011
 30
0.0
 11
-5.2070758589
 21
-15.9229112011
 31
0.0
  0
LINE
  5
CD
330
1F
100
AcDbEntity
  8
SK3
  6
HIDDEN
370
    18
100
AcDbLine
 10
-5.2070758589
 20
-15.9229112011
 30
0.0
 11
-5.2070758589
 21
15.9229112011
 31
0.0
  0
LINE
  5
CE
330
1F
100
AcDbEntity
  8
SK3
  6
HIDDEN
370
    18
100
AcDbLine
 10
-12.9596860732
 20
-16.0366625282
 30
0.0
 11
-12.9596860732
 21
16.0366625282
 31
0.0
  0
LINE
  5
CF
330
1F
100
AcDbEntity
  8
SK3
  6
HIDDEN
370
    18
100
AcDbLine
 10
-13.3937854805
 20
-15.7848231916
 30
0.0
 11
-13.3937854805
 21
15.7848231916
 31
0.0
  0
LINE
  5
D0
330
1F
100
AcDbEntity
  8
SK3
  6
HIDDEN
370
    18
100
AcDbLine
 10
-14.9753181422
 20
13.021
 30
0.0
 11
-14.9753181422
 21
-13.021
 31
0.0
  0
LINE
  5
D1
330
1F
100
AcDbEntity
  8
SK3
  6
HIDDEN
370
    18
100
AcDbLine
 10
-23.75
 20
13.021
 30
0.0
 11
-23.75
 21
-13.021
 31
0.0
  0
LINE
  5
D2
330
1F
100
AcDbEntity
  8
SK3
  6
HIDDEN
370
    18
100
AcDbLine
 10
9.95
 20
11.775
 30
0.0
 11
9.95
 21
-11.775
 31
0.0
  0
LINE
  5
D3
330
1F
100
AcDbEntity
  8
SK3
  6
HIDDEN
370
    18
100
AcDbLine
 10
7.6368594454
 20
-13.0223512098
 30
0.0
 11
7.6368594454
 21
13.0223512098
 31
0.0
  0
LINE
  5
D4
330
1F
100
AcDbEntity
  8
SK3
  6
HIDDEN
370
    18
100
AcDbLine
 10
7.6057136977
 20
13.021
 30
0.0
 11
7.6057136977
 21
-13.021
 31
0.0
  0
LINE
  5
D5
330
1F
100
AcDbEntity
  8
SK3
  6
HIDDEN
370
    18
100
AcDbLine
 10
53.0
 20
0.0
 30
0.0
 11
53.0
 21
8.2
 31
0.0
  0
LINE
  5
D6
330
1F
100
AcDbEntity
  8
SK3
  6
HIDDEN
370
    18
100
AcDbLine
 10
53.0
 20
-8.2
 30
0.0
 11
53.0
 21
0.0
 31
0.0
  0
LINE
  5
D7
330
1F
100
AcDbEntity
  8
SK3
  6
HIDDEN
370
    18
100
AcDbLine
 10
48.0
 20
0.0
 30
0.0
 11
48.0
 21
8.2
 31
0.0
  0
LINE
  5
D8
330
1F
100
AcDbEntity
  8
SK3
  6
HIDDEN
370
    18
100
AcDbLine
 10
48.0
 20
-8.2
 30
0.0
 11
48.0
 21
0.0
 31
0.0
  0
LINE
  5
D9
330
1F
100
AcDbEntity
  8
SK3
  6
HIDDEN
370
    18
100
AcDbLine
 10
17.05
 20
0.0
 30
0.0
 11
17.05
 21
6.0
 31
0.0
  0
LINE
  5
DA
330
1F
100
AcDbEntity
  8
SK3
  6
HIDDEN
370
    18
100
AcDbLine
 10
17.05
 20
-6.0
 30
0.0
 11
17.05
 21
0.0
 31
0.0
  0
LINE
  5
DB
330
1F
100
AcDbEntity
  8
SK3
  6
HIDDEN
370
    18
100
AcDbLine
 10
19.1530121666
 20
0.0
 30
0.0
 11
19.1530121666
 21
2.5
 31
0.0
  0
LINE
  5
DC
330
1F
100
AcDbEntity
  8
SK3
  6
HIDDEN
370
    18
100
AcDbLine
 10
19.1530121666
 20
-2.5
 30
0.0
 11
19.1530121666
 21
0.0
 31
0.0
  0
LINE
  5
DD
330
1F
100
AcDbEntity
  8
SK3
  6
HIDDEN
370
    18
100
AcDbLine
 10
26.0
 20
5.5
 30
0.0
 11
26.0
 21
-5.5
 31
0.0
  0
LINE
  5
DE
330
1F
100
AcDbEntity
  8
SK3
  6
HIDDEN
370
    18
100
AcDbLine
 10
24.1974181429
 20
-2.5
 30
0.0
 11
24.1974181429
 21
2.5
 31
0.0
  0
LINE
  5
DF
330
1F
100
AcDbEntity
  8
SK3
  6
HIDDEN
370
    18
100
AcDbLine
 10
-10.5
 20
-18.2039068167
 30
0.0
 11
-4.5
 21
-18.2039068167
 31
0.0
  0
LINE
  5
E0
330
1F
100
AcDbEntity
  8
SK3
  6
HIDDEN
370
    18
100
AcDbLine
 10
-10.5
 20
18.2039068167
 30
0.0
 11
-4.5
 21
18.2039068167
 31
0.0
  0
LINE
  5
E1
330
1F
100
AcDbEntity
  8
SK3
  6
HIDDEN
370
    18
100
AcDbLine
 10
0.0
 20
-20.4342397326
 30
0.0
 11
0.1191608412
 21
-19.5863662907
 31
0.0
  0
LINE
  5
E2
330
1F
100
AcDbEntity
  8
SK3
  6
HIDDEN
370
    18
100
AcDbLine
 10
0.1191608412
 20
19.5863662907
 30
0.0
 11
0.0
 21
20.4342397326
 31
0.0
  0
LINE
  5
E3
330
1F
100
AcDbEntity
  8
SK3
  6
HIDDEN
370
    18
100
AcDbLine
 10
0.125
 20
-19.5028624301
 30
0.0
 11
0.125
 21
19.5028624301
 31
0.0
  0
LINE
  5
E4
330
1F
100
AcDbEntity
  8
SK3
  6
HIDDEN
370
    18
100
AcDbLine
 10
-10.4899022934
 20
16.04
 30
0.0
 11
-12.9596860732
 21
16.04
 31
0.0
  0
LINE
  5
E5
330
1F
100
AcDbEntity
  8
SK3
  6
HIDDEN
370
    18
100
AcDbLine
 10
-12.9596860732
 20
-16.04
 30
0.0
 11
-10.4899022934
 21
-16.04
 31
0.0
  0
LINE
  5
E6
330
1F
100
AcDbEntity
  8
SK3
  6
HIDDEN
370
    18
100
AcDbLine
 10
-13.3937854805
 20
15.7881082518
 30
0.0
 11
-14.9753181422
 21
13.021
 31
0.0
  0
LINE
  5
E7
330
1F
100
AcDbEntity
  8
SK3
  6
HIDDEN
370
    18
100
AcDbLine
 10
-14.9753181422
 20
-13.021
 30
0.0
 11
-13.3937854805
 21
-15.7881082518
 31
0.0
  0
LINE
  5
E8
330
1F
100
AcDbEntity
  8
SK3
  6
HIDDEN
370
    18
100
AcDbLine
 10
-24.9
 20
-13.6849528096
 30
0.0
 11
-23.75
 21
-13.021
 31
0.0
  0
LINE
  5
E9
330
1F
100
AcDbEntity
  8
SK3
  6
HIDDEN
370
    18
100
AcDbLine
 10
-23.75
 20
13.021
 30
0.0
 11
-24.9
 21
13.6849528096
 31
0.0
  0
LINE
  5
EA
330
1F
100
AcDbEntity
  8
SK3
  6
HIDDEN
370
    18
100
AcDbLine
 10
7.6057136977
 20
13.021
 30
0.0
 11
0.0
 21
13.021
 31
0.0
  0
LINE
  5
EB
330
1F
100
AcDbEntity
  8
SK3
  6
HIDDEN
370
    18
100
AcDbLine
 10
0.0
 20
-13.021
 30
0.0
 11
7.6057136977
 21
-13.021
 31
0.0
  0
LINE
  5
EC
330
1F
100
AcDbEntity
  8
SK3
  6
HIDDEN
370
    18
100
AcDbLine
 10
-14.9753181422
 20
13.021
 30
0.0
 11
-23.75
 21
13.021
 31
0.0
  0
LINE
  5
ED
330
1F
100
AcDbEntity
  8
SK3
  6
HIDDEN
370
    18
100
AcDbLine
 10
-23.75
 20
-13.021
 30
0.0
 11
-14.9753181422
 21
-13.021
 31
0.0
  0
LINE
  5
EE
330
1F
100
AcDbEntity
  8
SK3
  6
HIDDEN
370
    18
100
AcDbLine
 10
48.0
 20
-8.2
 30
0.0
 11
53.0
 21
-8.2
 31
0.0
  0
LINE
  5
EF
330
1F
100
AcDbEntity
  8
SK3
  6
HIDDEN
370
    18
100
AcDbLine
 10
53.0
 20
8.2
 30
0.0
 11
48.0
 21
8.2
 31
0.0
  0
LINE
  5
F0
330
1F
100
AcDbEntity
  8
SK3
  6
HIDDEN
370
    18
100
AcDbLine
 10
53.0
 20
-8.0
 30
0.0
 11
100.0
 21
-8.0
 31
0.0
  0
LINE
  5
F1
330
1F
100
AcDbEntity
  8
SK3
  6
HIDDEN
370
    18
100
AcDbLine
 10
100.0
 20
8.0
 30
0.0
 11
53.0
 21
8.0
 31
0.0
  0
LINE
  5
F2
330
1F
100
AcDbEntity
  8
SK3
  6
HIDDEN
370
    18
100
AcDbLine
 10
9.95
 20
-6.0
 30
0.0
 11
17.05
 21
-6.0
 31
0.0
  0
LINE
  5
F3
330
1F
100
AcDbEntity
  8
SK3
  6
HIDDEN
370
    18
100
AcDbLine
 10
17.05
 20
6.0
 30
0.0
 11
9.95
 21
6.0
 31
0.0
  0
LINE
  5
F4
330
1F
100
AcDbEntity
  8
SK3
  6
HIDDEN
370
    18
100
AcDbLine
 10
17.05
 20
-6.0
 30
0.0
 11
19.1530121666
 21
-2.5
 31
0.0
  0
LINE
  5
F5
330
1F
100
AcDbEntity
  8
SK3
  6
HIDDEN
370
    18
100
AcDbLine
 10
19.1530121666
 20
2.5
 30
0.0
 11
17.05
 21
6.0
 31
0.0
  0
LINE
  5
F6
330
1F
100
AcDbEntity
  8
SK3
  6
HIDDEN
370
    18
100
AcDbLine
 10
26.0
 20
5.5
 30
0.0
 11
24.1974181429
 21
2.5
 31
0.0
  0
LINE
  5
F7
330
1F
100
AcDbEntity
  8
SK3
  6
HIDDEN
370
    18
100
AcDbLine
 10
24.1974181429
 20
-2.5
 30
0.0
 11
26.0
 21
-5.5
 31
0.0
  0
LINE
  5
F8
330
1F
100
AcDbEntity
  8
SK3
  6
HIDDEN
370
    18
100
AcDbLine
 10
48.0
 20
5.5
 30
0.0
 11
26.0
 21
5.5
 31
0.0
  0
LINE
  5
F9
330
1F
100
AcDbEntity
  8
SK3
  6
HIDDEN
370
    18
100
AcDbLine
 10
26.0
 20
-5.5
 30
0.0
 11
48.0
 21
-5.5
 31
0.0
  0
LINE
  5
FA
330
1F
100
AcDbEntity
  8
SK3
  6
HIDDEN
370
    18
100
AcDbLine
 10
-3.6367542476
 20
-19.0671525691
 30
0.0
 11
-4.5
 21
-18.2039068167
 31
0.0
  0
LINE
  5
FB
330
1F
100
AcDbEntity
  8
SK3
  6
HIDDEN
370
    18
100
AcDbLine
 10
-10.5
 20
-18.2039068167
 30
0.0
 11
-10.9934217176
 21
-18.6973285343
 31
0.0
  0
LINE
  5
FC
330
1F
100
AcDbEntity
  8
SK3
  6
HIDDEN
370
    18
100
AcDbLine
 10
-10.9975360533
 20
18.70144287
 30
0.0
 11
-10.5
 21
18.2039068167
 31
0.0
  0
LINE
  5
FD
330
1F
100
AcDbEntity
  8
SK3
  6
HIDDEN
370
    18
100
AcDbLine
 10
-4.5
 20
18.2039068167
 30
0.0
 11
-3.6371457637
 21
19.066761053
 31
0.0
  0
LINE
  5
FE
330
1F
100
AcDbEntity
  8
SK3
  6
HIDDEN
370
    18
100
AcDbLine
 10
-10.5
 20
18.2039068167
 30
0.0
 11
-10.5
 21
16.0381145922
 31
0.0
  0
LINE
  5
FF
330
1F
100
AcDbEntity
  8
SK3
  6
HIDDEN
370
    18
100
AcDbLine
 10
-4.5
 20
15.9977324368
 30
0.0
 11
-4.5
 21
18.2039068167
 31
0.0
  0
LINE
  5
100
330
1F
100
AcDbEntity
  8
SK3
  6
HIDDEN
370
    18
100
AcDbLine
 10
-4.5
 20
-18.2039068167
 30
0.0
 11
-4.5
 21
-15.9977324368
 31
0.0
  0
LINE
  5
101
330
1F
100
AcDbEntity
  8
SK3
  6
HIDDEN
370
    18
100
AcDbLine
 10
-10.5
 20
-16.0381145922
 30
0.0
 11
-10.5
 21
-18.2039068167
 31
0.0
  0
LINE
  5
102
330
1F
100
AcDbEntity
  8
SK3
  6
HIDDEN
370
    18
100
AcDbLine
 10
19.1530121666
 20
-2.5
 30
0.0
 11
24.1974181429
 21
-2.5
 31
0.0
  0
LINE
  5
103
330
1F
100
AcDbEntity
  8
SK3
  6
HIDDEN
370
    18
100
AcDbLine
 10
24.1974181429
 20
2.5
 30
0.0
 11
19.1530121666
 21
2.5
 31
0.0
  0
LINE
  5
104
330
1F
100
AcDbEntity
  8
1
  6
HIDDEN
370
    18
100
AcDbLine
 10
14.6686889468
 20
-31.395
 30
0.0
 11
14.6686889468
 21
31.395
 31
0.0
  0
LINE
  5
105
330
1F
100
AcDbEntity
  8
1
  6
HIDDEN
370
    18
100
AcDbLine
 10
14.5387851362
 20
31.47
 30
0.0
 11
14.5387851362
 21
-31.47
 31
0.0
  0
LINE
  5
106
330
1F
100
AcDbEntity
  8
1
  6
HIDDEN
370
    18
100
AcDbLine
 10
0.2
 20
-31.47
 30
0.0
 11
0.2
 21
31.47
 31
0.0
  0
LINE
  5
107
330
1F
100
AcDbEntity
  8
1
  6
HIDDEN
370
    18
100
AcDbLine
 10
21.4612148638
 20
-31.47
 30
0.0
 11
21.4612148638
 21
31.47
 31
0.0
  0
LINE
  5
108
330
1F
100
AcDbEntity
  8
1
  6
HIDDEN
370
    18
100
AcDbLine
 10
21.3313110532
 20
31.395
 30
0.0
 11
21.3313110532
 21
-31.395
 31
0.0
  0
LINE
  5
109
330
1F
100
AcDbEntity
  8
1
  6
HIDDEN
370
    18
100
AcDbLine
 10
25.75
 20
31.47
 30
0.0
 11
25.75
 21
-31.47
 31
0.0
  0
LINE
  5
10A
330
1F
100
AcDbEntity
  8
1
  6
HIDDEN
370
    18
100
AcDbLine
 10
19.1625
 20
-27.475
 30
0.0
 11
19.1625
 21
27.475
 31
0.0
  0
LINE
  5
10B
330
1F
100
AcDbEntity
  8
1
  6
HIDDEN
370
    18
100
AcDbLine
 10
16.8375
 20
-27.475
 30
0.0
 11
16.8375
 21
27.475
 31
0.0
  0
LINE
  5
10C
330
1F
100
AcDbEntity
  8
1
  6
HIDDEN
370
    18
100
AcDbLine
 10
26.7
 20
-25.0
 30
0.0
 11
26.7
 21
25.0
 31
0.0
  0
LINE
  5
10D
330
1F
100
AcDbEntity
  8
1
  6
HIDDEN
370
    18
100
AcDbLine
 10
40.8836189207
 20
25.0
 30
0.0
 11
40.8836189207
 21
-25.0
 31
0.0
  0
LINE
  5
10E
330
1F
100
AcDbEntity
  8
1
  6
HIDDEN
370
    18
100
AcDbLine
 10
41.3367728142
 20
-24.7113091309
 30
0.0
 11
41.3367728142
 21
24.7113091309
 31
0.0
  0
LINE
  5
10F
330
1F
100
AcDbEntity
  8
1
  6
HIDDEN
370
    18
100
AcDbLine
 10
43.3321797188
 20
-20.4321452148
 30
0.0
 11
43.3321797188
 21
20.4321452148
 31
0.0
  0
LINE
  5
110
330
1F
100
AcDbEntity
  8
1
  6
HIDDEN
370
    18
100
AcDbLine
 10
46.0511030799
 20
-18.7
 30
0.0
 11
46.0511030799
 21
18.7
 31
0.0
  0
LINE
  5
111
330
1F
100
AcDbEntity
  8
SK1
  6
HIDDEN
370
    18
100
AcDbLine
 10
-0.475
 20
-18.9028624301
 30
0.0
 11
-0.475
 21
18.9028624301
 31
0.0
  0
LINE
  5
112
330
1F
100
AcDbEntity
  8
SK1
  6
HIDDEN
370
    18
100
AcDbLine
 10
-2.0
 20
-19.1487597322
 30
0.0
 11
-2.0
 21
19.1487597322
 31
0.0
  0
LINE
  5
113
330
1F
100
AcDbEntity
  8
SK1
  6
HIDDEN
370
    18
100
AcDbLine
 10
-2.0386068945
 20
-19.1528624301
 30
0.0
 11
-2.0386068945
 21
19.1528624301
 31
0.0
  0
LINE
  5
114
330
1F
100
AcDbEntity
  8
SK1
  6
HIDDEN
370
    18
100
AcDbLine
 10
-23.9500361105
 20
-18.0551247203
 30
0.0
 11
-23.9500361105
 21
18.0551247203
 31
0.0
  0
LINE
  5
115
330
1F
100
AcDbEntity
  8
SK1
  6
HIDDEN
370
    18
100
AcDbLine
 10
-1.1585987036
 20
-18.9233069343
 30
0.0
 11
-1.1585987036
 21
18.9233069343
 31
0.0
  0
LINE
  5
116
330
1F
100
AcDbEntity
  8
SK1
  6
HIDDEN
370
    18
100
AcDbLine
 10
-1.0033072765
 20
-18.9028624301
 30
0.0
 11
-1.0033072765
 21
18.9028624301
 31
0.0
  0
LINE
  5
117
330
1F
100
AcDbEntity
  8
SK3
  6
Continuous
370
    18
100
AcDbLine
 10
48.0
 20
-5.9900000003
 30
0.0
 11
33.0
 21
-5.9900000003
 31
0.0
  0
LINE
  5
118
330
1F
100
AcDbEntity
  8
SK3
  6
Continuous
370
    18
100
AcDbLine
 10
48.0
 20
5.9900000003
 30
0.0
 11
33.0
 21
5.9900000003
 31
0.0
  0
LINE
  5
119
330
1F
100
AcDbEntity
  8
SK3
  6
HIDDEN
370
    18
100
AcDbLine
 10
33.0
 20
5.9900000003
 30
0.0
 11
33.0
 21
-5.9900000003
 31
0.0
  0
LINE
  5
11A
330
1F
100
AcDbEntity
  8
SK4
  6
CENTERX2
370
    18
100
AcDbLine
 10
102.0
 20
0.0
 30
0.0
 11
-26.9
 21
0.0
 31
0.0
  0
ARC
  5
11B
330
1F
100
AcDbEntity
  8
1
  6
Continuous
370
    25
100
AcDbCircle
 10
14.5387851362
 20
-31.32
 30
0.0
 40
0.150000000000018
100
AcDbArc
 50
270.0
 51
330.0
  0
ARC
  5
11C
330
1F
100
AcDbEntity
  8
1
  6
Continuous
370
    25
100
AcDbCircle
 10
14.5387851362
 20
31.32
 30
0.0
 40
0.1500000000000393
100
AcDbArc
 50
30.0
 51
90.0
  0
ARC
  5
11D
330
1F
100
AcDbEntity
  8
1
  6
Continuous
370
    25
100
AcDbCircle
 10
0.2
 20
-31.27
 30
0.0
 40
0.2000000000000057
100
AcDbArc
 50
180.0
 51
270.0
  0
ARC
  5
11E
330
1F
100
AcDbEntity
  8
1
  6
Continuous
370
    25
100
AcDbCircle
 10
0.2
 20
31.27
 30
0.0
 40
0.2000000000000196
100
AcDbArc
 50
90.0
 51
180.0
  0
ARC
  5
11F
330
1F
100
AcDbEntity
  8
1
  6
Continuous
370
    25
100
AcDbCircle
 10
21.4612148638
 20
-31.32
 30
0.0
 40
0.1500000000000005
100
AcDbArc
 50
210.0
 51
270.0
  0
ARC
  5
120
330
1F
100
AcDbEntity
  8
1
  6
Continuous
370
    25
100
AcDbCircle
 10
21.4612148638
 20
31.32
 30
0.0
 40
0.1500000000000147
100
AcDbArc
 50
90.0
 51
150.0
  0
ARC
  5
121
330
1F
100
AcDbEntity
  8
1
  6
Continuous
370
    25
100
AcDbCircle
 10
25.75
 20
31.27
 30
0.0
 40
0.2000000000000313
100
AcDbArc
 50
0.0
 51
90.0
  0
ARC
  5
122
330
1F
100
AcDbEntity
  8
1
  6
Continuous
370
    25
100
AcDbCircle
 10
25.75
 20
-31.27
 30
0.0
 40
0.2000000000000313
100
AcDbArc
 50
270.0
 51
0.0
  0
ARC
  5
123
330
1F
100
AcDbEntity
  8
1
  6
Continuous
370
    25
100
AcDbCircle
 10
19.1625
 20
28.225
 30
0.0
 40
0.7500000000000036
100
AcDbArc
 50
270.0
 51
0.0
  0
ARC
  5
124
330
1F
100
AcDbEntity
  8
1
  6
Continuous
370
    25
100
AcDbCircle
 10
19.1625
 20
-28.225
 30
0.0
 40
0.7500000000000036
100
AcDbArc
 50
0.0
 51
90.0
  0
ARC
  5
125
330
1F
100
AcDbEntity
  8
1
  6
Continuous
370
    25
100
AcDbCircle
 10
16.8375
 20
28.225
 30
0.0
 40
0.7500000000000036
100
AcDbArc
 50
180.0
 51
270.0
  0
ARC
  5
126
330
1F
100
AcDbEntity
  8
1
  6
Continuous
370
    25
100
AcDbCircle
 10
16.8375
 20
-28.225
 30
0.0
 40
0.7500000000000036
100
AcDbArc
 50
90.0
 51
180.0
  0
ARC
  5
127
330
1F
100
AcDbEntity
  8
1
  6
Continuous
370
    25
100
AcDbCircle
 10
26.7
 20
25.75
 30
0.0
 40
0.7500000000000284
100
AcDbArc
 50
180.0
 51
270.0
  0
ARC
  5
128
330
1F
100
AcDbEntity
  8
1
  6
Continuous
370
    25
100
AcDbCircle
 10
26.7
 20
-25.75
 30
0.0
 40
0.7500000000000036
100
AcDbArc
 50
90.0
 51
180.0
  0
ARC
  5
129
330
1F
100
AcDbEntity
  8
1
  6
Continuous
370
    25
100
AcDbCircle
 10
40.8836189207
 20
-24.5
 30
0.0
 40
0.5000000000000018
100
AcDbArc
 50
270.0
 51
335.0
  0
ARC
  5
12A
330
1F
100
AcDbEntity
  8
1
  6
Continuous
370
    25
100
AcDbCircle
 10
40.8836189207
 20
24.5
 30
0.0
 40
0.5000000000000078
100
AcDbArc
 50
25.0
 51
90.0
  0
ARC
  5
12B
330
1F
100
AcDbEntity
  8
1
  6
Continuous
370
    25
100
AcDbCircle
 10
46.0511030799
 20
21.7
 30
0.0
 40
3.000000000000031
100
AcDbArc
 50
205.0
 51
270.0
  0
ARC
  5
12C
330
1F
100
AcDbEntity
  8
1
  6
Continuous
370
    25
100
AcDbCircle
 10
46.0511030799
 20
-21.7
 30
0.0
 40
3.000000000000031
100
AcDbArc
 50
90.0
 51
155.0
  0
ARC
  5
12D
330
1F
100
AcDbEntity
  8
SK1
  6
Continuous
370
    25
100
AcDbCircle
 10
-0.475
 20
19.5028624301
 30
0.0
 40
0.600000000000005
100
AcDbArc
 50
270.0
 51
322.3415379938
  0
ARC
  5
12E
330
1F
100
AcDbEntity
  8
SK1
  6
Continuous
370
    25
100
AcDbCircle
 10
-0.475
 20
-19.5028624301
 30
0.0
 40
0.600000000000005
100
AcDbArc
 50
37.6584620062
 51
90.0
  0
ARC
  5
12F
330
1F
100
AcDbEntity
  8
SK1
  6
Continuous
370
    25
100
AcDbCircle
 10
-2.0323523806
 20
19.0280190039
 30
0.0
 40
0.1250000000000026
100
AcDbArc
 50
75.0
 51
92.8680555556
  0
ARC
  5
130
330
1F
100
AcDbEntity
  8
SK1
  6
Continuous
370
    25
100
AcDbCircle
 10
-2.0323523806
 20
-19.0280190039
 30
0.0
 40
0.1250000000000026
100
AcDbArc
 50
267.1319444445
 51
285.0
  0
ARC
  5
131
330
1F
100
AcDbEntity
  8
1
  6
Continuous
370
    25
100
AcDbCircle
 10
78.1
 20
-20.2
 30
0.0
 40
1.500000000000017
100
AcDbArc
 50
53.1301023542
 51
126.8698976458
  0
ARC
  5
132
330
1F
100
AcDbEntity
  8
1
  6
Continuous
370
    25
100
AcDbCircle
 10
78.1
 20
20.2
 30
0.0
 40
1.499999999999989
100
AcDbArc
 50
233.1301023542
 51
306.8698976458
  0
ARC
  5
133
330
1F
100
AcDbEntity
  8
1
  6
Continuous
370
    25
100
AcDbCircle
 10
75.1
 20
-20.2
 30
0.0
 40
1.500000000000011
100
AcDbArc
 50
53.1301023542
 51
126.8698976458
  0
ARC
  5
134
330
1F
100
AcDbEntity
  8
1
  6
Continuous
370
    25
100
AcDbCircle
 10
75.1
 20
20.2
 30
0.0
 40
1.499999999999994
100
AcDbArc
 50
233.1301023542
 51
306.8698976458
  0
ARC
  5
135
330
1F
100
AcDbEntity
  8
1
  6
Continuous
370
    25
100
AcDbCircle
 10
84.1
 20
-20.2
 30
0.0
 40
1.499999999999997
100
AcDbArc
 50
53.1301023542
 51
126.8698976458
  0
ARC
  5
136
330
1F
100
AcDbEntity
  8
1
  6
Continuous
370
    25
100
AcDbCircle
 10
84.1
 20
20.2
 30
0.0
 40
1.499999999999986
100
AcDbArc
 50
233.1301023542
 51
306.8698976458
  0
ARC
  5
137
330
1F
100
AcDbEntity
  8
1
  6
Continuous
370
    25
100
AcDbCircle
 10
81.1
 20
-20.2
 30
0.0
 40
1.500000000000006
100
AcDbArc
 50
53.1301023542
 51
126.8698976458
  0
ARC
  5
138
330
1F
100
AcDbEntity
  8
1
  6
Continuous
370
    25
100
AcDbCircle
 10
81.1
 20
20.2
 30
0.0
 40
1.499999999999994
100
AcDbArc
 50
233.1301023542
 51
306.8698976458
  0
ARC
  5
139
330
1F
100
AcDbEntity
  8
SK1
  6
Continuous
370
    25
100
AcDbCircle
 10
-1.0033072765
 20
19.5028624301
 30
0.0
 40
0.6000000000000106
100
AcDbArc
 50
255.0
 51
270.0
  0
ARC
  5
13A
330
1F
100
AcDbEntity
  8
SK1
  6
Continuous
370
    25
100
AcDbCircle
 10
-1.0033072765
 20
-19.5028624301
 30
0.0
 40
0.6000000000000106
100
AcDbArc
 50
90.0
 51
105.0
  0
ARC
  5
13B
330
1F
100
AcDbEntity
  8
SK1
  6
Continuous
370
    25
100
AcDbCircle
 10
-23.9
 20
-17.056377311
 30
0.0
 40
1.0
100
AcDbArc
 50
180.0
 51
267.1319444444
  0
ARC
  5
13C
330
1F
100
AcDbEntity
  8
SK1
  6
Continuous
370
    25
100
AcDbCircle
 10
-23.9
 20
17.056377311
 30
0.0
 40
1.0
100
AcDbArc
 50
92.8680555556
 51
180.0
  0
ARC
  5
13D
330
1F
100
AcDbEntity
  8
SK3
  6
HIDDEN
370
    18
100
AcDbCircle
 10
-0.475
 20
19.5028624301
 30
0.0
 40
0.6000000000000025
100
AcDbArc
 50
348.75
 51
8.0
  0
ARC
  5
13E
330
1F
100
AcDbEntity
  8
SK3
  6
HIDDEN
370
    18
100
AcDbCircle
 10
-0.475
 20
19.5028624301
 30
0.0
 40
0.6000000000000041
100
AcDbArc
 50
322.3415379938
 51
348.75
  0
ARC
  5
13F
330
1F
100
AcDbEntity
  8
SK3
  6
HIDDEN
370
    18
100
AcDbCircle
 10
-0.475
 20
-19.5028624301
 30
0.0
 40
0.6000000000000025
100
AcDbArc
 50
352.0
 51
0.0
  0
ARC
  5
140
330
1F
100
AcDbEntity
  8
SK3
  6
HIDDEN
370
    18
100
AcDbCircle
 10
-0.475
 20
-19.5028624301
 30
0.0
 40
0.6000000000000041
100
AcDbArc
 50
0.0
 51
37.6584620062
  0
ARC
  5
141
330
1F
100
AcDbEntity
  8
SK3
  6
HIDDEN
370
    18
100
AcDbCircle
 10
-5.2070758589
 20
10.04
 30
0.0
 40
6.000000000000021
100
AcDbArc
 50
29.7907152336
 51
83.2942024506
  0
ARC
  5
142
330
1F
100
AcDbEntity
  8
SK3
  6
HIDDEN
370
    18
100
AcDbCircle
 10
-5.2070758589
 20
-10.04
 30
0.0
 40
6.00000000000006
100
AcDbArc
 50
276.7012743259
 51
330.2092847664
  0
ARC
  5
143
330
1F
100
AcDbEntity
  8
SK3
  6
HIDDEN
370
    18
100
AcDbCircle
 10
-12.9596860732
 20
15.54
 30
0.0
 40
0.5000000000000128
100
AcDbArc
 50
90.0
 51
150.25
  0
ARC
  5
144
330
1F
100
AcDbEntity
  8
SK3
  6
HIDDEN
370
    18
100
AcDbCircle
 10
-12.9596860732
 20
-15.54
 30
0.0
 40
0.5000000000000067
100
AcDbArc
 50
209.75
 51
270.0
  0
ARC
  5
145
330
1F
100
AcDbEntity
  8
SK3
  6
HIDDEN
370
    18
100
AcDbCircle
 10
8.45
 20
11.775
 30
0.0
 40
1.499999999999999
100
AcDbArc
 50
0.0
 51
122.8262803377
  0
ARC
  5
146
330
1F
100
AcDbEntity
  8
SK3
  6
HIDDEN
370
    18
100
AcDbCircle
 10
8.45
 20
-11.775
 30
0.0
 40
1.500000000000011
100
AcDbArc
 50
237.1737196623
 51
0.0
  0
ARC
  5
147
330
1F
100
AcDbEntity
  8
SK3
  6
HIDDEN
370
    18
100
AcDbCircle
 10
7.5690977325
 20
13.1405168235
 30
0.0
 40
0.1249999999999939
100
AcDbArc
 50
287.0333159959
 51
302.8262803377
  0
ARC
  5
148
330
1F
100
AcDbEntity
  8
SK3
  6
HIDDEN
370
    18
100
AcDbCircle
 10
7.5690977325
 20
-13.1405168235
 30
0.0
 40
0.1250000000000061
100
AcDbArc
 50
57.1737196623
 51
72.9666840041
  0
SPLINE
  5
149
330
1F
100
AcDbEntity
  8
1
  6
Continuous
370
    25
100
AcDbSpline
210
0.0
220
0.0
230
1.0
 70
     8
 71
     3
 72
    47
 73
    43
 74
     0
 42
0.000000001
 43
0.00000001
 40
0.0
 40
0.0
 40
0.0
 40
0.0
 40
0.0624999999999984
 40
0.0624999999999984
 40
0.1249999999999968
 40
0.1249999999999968
 40
0.1874999999999951
 40
0.1874999999999951
 40
0.2187499999999946
 40
0.2187499999999946
 40
0.249999999999994
 40
0.249999999999994
 40
0.3124999999999933
 40
0.3124999999999933
 40
0.3437499999999928
 40
0.3437499999999928
 40
0.3749999999999923
 40
0.3749999999999923
 40
0.4374999999999918
 40
0.4374999999999918
 40
0.4687499999999916
 40
0.4687499999999916
 40
0.4999999999999913
 40
0.5312499999999911
 40
0.5312499999999911
 40
0.5624999999999908
 40
0.5624999999999908
 40
0.6249999999999915
 40
0.6249999999999915
 40
0.6562499999999917
 40
0.6562499999999917
 40
0.687499999999992
 40
0.687499999999992
 40
0.7499999999999936
 40
0.7499999999999936
 40
0.8124999999999952
 40
0.8124999999999952
 40
0.8749999999999968
 40
0.8749999999999968
 40
0.9374999999999984
 40
0.9374999999999984
 40
1.0
 40
1.0
 40
1.0
 40
1.0
 10
27.5
 20
21.35415650406262
 30
0.0
 10
27.5
 20
21.55301836655178
 30
0.0
 10
27.52888848936061
 20
21.74183802299657
 30
0.0
 10
27.64734776510433
 20
22.10031118139545
 30
0.0
 10
27.73729570781572
 20
22.27053052616198
 30
0.0
 10
27.98476215280737
 20
22.58991472349312
 30
0.0
 10
28.13892260454529
 20
22.7350695180854
 30
0.0
 10
28.41723180313954
 20
22.93356603386701
 30
0.0
 10
28.51788690408586
 20
22.9965133316814
 30
0.0
 10
28.73577439433278
 20
23.11625912711473
 30
0.0
 10
28.85371554071264
 20
23.17335148260916
 30
0.0
 10
29.2291471193451
 20
23.33353332587398
 30
0.0
 10
29.50467257213418
 20
23.42453607711359
 30
0.0
 10
29.95587928005749
 20
23.54128439687025
 30
0.0
 10
30.11264175456632
 20
23.57688047095055
 30
0.0
 10
30.4394520510663
 20
23.64176351306766
 30
0.0
 10
30.60916978965506
 20
23.67091976624869
 30
0.0
 10
31.12551143003858
 20
23.74745772631542
 30
0.0
 10
31.48328961451813
 20
23.78492279955305
 30
0.0
 10
32.04061139842266
 20
23.82289417491523
 30
0.0
 10
32.23072784492808
 20
23.83247210969633
 30
0.0
 10
32.60904957282018
 20
23.845148300457
 30
0.0
 10
32.98731600868929
 20
23.85152773070703
 30
0.0
 10
33.36547392452214
 20
23.84569799178096
 30
0.0
 10
33.74357672881253
 20
23.83359846181188
 30
0.0
 10
33.93372513503956
 20
23.82432163655421
 30
0.0
 10
34.49251108244761
 20
23.78715260381847
 30
0.0
 10
34.85122734327562
 20
23.75020155104249
 30
0.0
 10
35.36897546423495
 20
23.67447829343103
 30
0.0
 10
35.53910690845191
 20
23.64561364136694
 30
0.0
 10
35.86694114269731
 20
23.5812917306612
 30
0.0
 10
36.02442001480438
 20
23.54594053545411
 30
0.0
 10
36.478244997529
 20
23.4297610995775
 30
0.0
 10
36.7573799872663
 20
23.33838933174348
 30
0.0
 10
37.26046682290185
 20
23.125484320934
 30
0.0
 10
37.47888626888507
 20
23.00651600029074
 30
0.0
 10
37.85476027202117
 20
22.74066420474358
 30
0.0
 10
38.01267562114849
 20
22.5923615079405
 30
0.0
 10
38.25938886491429
 20
22.27564924693795
 30
0.0
 10
38.35005750417719
 20
22.10641611508406
 30
0.0
 10
38.47072002255278
 20
21.744726890044
 30
0.0
 10
38.50000000000004
 20
21.55325219651678
 30
0.0
 10
38.50000000000004
 20
21.35415650406262
 30
0.0
  0
SPLINE
  5
14A
330
1F
100
AcDbEntity
  8
SK1
  6
Continuous
370
    25
100
AcDbSpline
210
0.0
220
0.0
230
1.0
 70
     8
 71
     3
 72
    26
 73
    22
 74
     0
 42
0.000000001
 43
0.00000001
 40
0.0
 40
0.0
 40
0.0
 40
0.0
 40
0.0444256773873288
 40
0.0905549184479871
 40
0.1379586221138436
 40
0.1853790878895817
 40
0.2340046861143654
 40
0.2847954280145102
 40
0.336865147033289
 40
0.3914383892924935
 40
0.4474419251659126
 40
0.5048635445151766
 40
0.5638617432822783
 40
0.6228471230117465
 40
0.6835529567247745
 40
0.7422020993000095
 40
0.802771193306402
 40
0.8576854443561741
 40
0.9145912963321265
 40
0.9635746690826021
 40
1.0
 40
1.0
 40
1.0
 40
1.0
 10
-10.99557086914804
 20
18.7033990176903
 30
0.0
 10
-10.98979031662442
 20
18.70272380943385
 30
0.0
 10
-10.9780075483439
 20
18.70134750113212
 30
0.0
 10
-10.84897938809851
 20
18.68677392652765
 30
0.0
 10
-10.64414790157053
 20
18.66518430643452
 30
0.0
 10
-10.35782417136305
 20
18.63813276120274
 30
0.0
 10
-9.997001787902942
 20
18.60926795479126
 30
0.0
 10
-9.563278391670552
 20
18.58235768287589
 30
0.0
 10
-9.060001836923057
 20
18.56189424978008
 30
0.0
 10
-8.498075035046252
 20
18.55278066742004
 30
0.0
 10
-7.888609865803087
 20
18.55941612178744
 30
0.0
 10
-7.249229509135271
 20
18.58476295487765
 30
0.0
 10
-6.601707259760614
 20
18.62959128623703
 30
0.0
 10
-5.963077163770827
 20
18.69237224842224
 30
0.0
 10
-5.364611793040264
 20
18.76778861745722
 30
0.0
 10
-4.818720376075142
 20
18.85016803537702
 30
0.0
 10
-4.364731358308893
 20
18.92849217151749
 30
0.0
 10
-4.004733118464554
 20
18.99666689116487
 30
0.0
 10
-3.77052593986045
 20
19.04389139192554
 30
0.0
 10
-3.644683990499331
 20
19.07016827363984
 30
0.0
 10
-3.642302510141249
 20
19.07067856513865
 30
0.0
 10
-3.641286850069245
 20
19.07089619561316
 30
0.0
  0
SPLINE
  5
14B
330
1F
100
AcDbEntity
  8
SK1
  6
Continuous
370
    25
100
AcDbSpline
210
0.0
220
0.0
230
1.0
 70
     8
 71
     3
 72
    27
 73
    23
 74
     0
 42
0.000000001
 43
0.00000001
 40
0.0
 40
0.0
 40
0.0
 40
0.0
 40
0.0159181444414528
 40
0.0638263840688938
 40
0.1087617157498113
 40
0.1548799129527807
 40
0.2022514763337103
 40
0.2507651190287663
 40
0.3028803194932785
 40
0.3562705495406043
 40
0.4130410657198353
 40
0.4713292328349381
 40
0.5303737401952306
 40
0.5911473334707374
 40
0.6497979538149553
 40
0.7102724993330826
 40
0.7667629201298138
 40
0.8251234466501639
 40
0.8778212996230099
 40
0.9323254479084
 40
0.9807478436822819
 40
0.9999999999999999
 40
0.9999999999999999
 40
0.9999999999999999
 40
0.9999999999999999
 10
-3.640635724549118
 20
-19.07103162814591
 30
0.0
 10
-3.637961219426292
 20
-19.07159324922533
 30
0.0
 10
-3.627237356994204
 20
-19.0738451601091
 30
0.0
 10
-3.699774217782503
 20
-19.05859118644076
 30
0.0
 10
-3.853239008979243
 20
-19.02707312187532
 30
0.0
 10
-4.08656361993795
 20
-18.98092705173496
 30
0.0
 10
-4.393700014338586
 20
-18.92360630295896
 30
0.0
 10
-4.777522993863803
 20
-18.85743431385911
 30
0.0
 10
-5.234010037944686
 20
-18.78682259921111
 30
0.0
 10
-5.764539690846643
 20
-18.71606799204793
 30
0.0
 10
-6.354763687699841
 20
-18.65188122870161
 30
0.0
 10
-6.991348750809298
 20
-18.60031189374434
 30
0.0
 10
-7.652878601459051
 20
-18.56627566264862
 30
0.0
 10
-8.307894195389048
 20
-18.55259772485547
 30
0.0
 10
-8.940240409645666
 20
-18.55819185725424
 30
0.0
 10
-9.511528123688246
 20
-18.5792339654311
 30
0.0
 10
-10.0168500582109
 20
-18.61028514106317
 30
0.0
 10
-10.42081699442317
 20
-18.64353313953912
 30
0.0
 10
-10.72951674149343
 20
-18.67385549876976
 30
0.0
 10
-10.91641782030724
 20
-18.69427575755036
 30
0.0
 10
-11.00190718016934
 20
-18.70412509095391
 30
0.0
 10
-10.99123560018017
 20
-18.70289765875202
 30
0.0
 10
-10.98819973337707
 20
-18.70254847703023
 30
0.0
  0
SPLINE
  5
14C
330
1F
100
AcDbEntity
  8
SK1
  6
HIDDEN
370
    18
100
AcDbSpline
210
0.0
220
0.0
230
1.0
 70
     8
 71
     3
 72
     9
 73
     5
 74
     0
 42
0.000000001
 43
0.00000001
 40
0.0
 40
0.0
 40
0.0
 40
0.0
 40
0.5956606775113404
 40
1.0
 40
1.0
 40
1.0
 40
1.0
 10
-5.989989836102161
 20
-18.69409353770012
 30
0.0
 10
-5.954595619298994
 20
-18.69715844902692
 30
0.0
 10
-5.895175519669394
 20
-18.7023038471412
 30
0.0
 10
-5.842198049207576
 20
-18.70946233478672
 30
0.0
 10
-5.820777174693897
 20
-18.71235679283134
 30
0.0
  0
SPLINE
  5
14D
330
1F
100
AcDbEntity
  8
SK3
  6
HIDDEN
370
    18
100
AcDbSpline
210
0.0
220
0.0
230
1.0
 70
     8
 71
     3
 72
    12
 73
     8
 74
     0
 42
0.000000001
 43
0.00000001
 40
0.0
 40
0.0
 40
0.0
 40
0.0
 40
0.2347272749348032
 40
0.476318332029038
 40
0.7110965657303207
 40
0.9526094858218784
 40
1.0
 40
1.0
 40
1.0
 40
1.0
 10
-5.207075858867427
 20
15.92291120106461
 30
0.0
 10
-5.107265230809871
 20
15.93626035524362
 30
0.0
 10
-4.904725360279874
 20
15.9633490131523
 30
0.0
 10
-4.688196493490143
 20
15.98370879449061
 30
0.0
 10
-4.550893834028916
 20
15.99478179310831
 30
0.0
 10
-4.49199663049836
 20
15.99875013081642
 30
0.0
 10
-4.504538549707296
 20
15.99787343602851
 30
0.0
 10
-4.506595873814911
 20
15.9977296266727
 30
0.0
  0
SPLINE
  5
14E
330
1F
100
AcDbEntity
  8
SK3
  6
HIDDEN
370
    18
100
AcDbSpline
210
0.0
220
0.0
230
1.0
 70
     8
 71
     3
 72
    12
 73
     8
 74
     0
 42
0.000000001
 43
0.00000001
 40
0.0
 40
0.0
 40
0.0
 40
0.0
 40
0.188750238361553
 40
0.4317778524805887
 40
0.6681345271364479
 40
0.9114297509300209
 40
1.0
 40
1.0
 40
1.0
 40
1.0
 10
-4.506598201638609
 20
-15.99772946291955
 30
0.0
 10
-4.509071767983125
 20
-15.99756664196593
 30
0.0
 10
-4.51473020409146
 20
-15.99719417895717
 30
0.0
 10
-4.623272498446948
 20
-15.98932655111313
 30
0.0
 10
-4.813068243597882
 20
-15.9722123994277
 30
0.0
 10
-5.02219042782863
 20
-15.9487948816539
 30
0.0
 10
-5.168127339932813
 20
-15.92836393478117
 30
0.0
 10
-5.207075858867427
 20
-15.92291120106459
 30
0.0
  0
SPLINE
  5
14F
330
1F
100
AcDbEntity
  8
SK3
  6
HIDDEN
370
    18
100
AcDbSpline
210
0.0
220
0.0
230
1.0
 70
     8
 71
     3
 72
    22
 73
    18
 74
     0
 42
0.000000001
 43
0.00000001
 40
0.0
 40
0.0
 40
0.0
 40
0.0
 40
0.031260879397082
 40
0.1005047741884201
 40
0.1674103270779247
 40
0.2362117575996991
 40
0.3039416316579687
 40
0.3735889677376837
 40
0.4420989756437082
 40
0.5126205973994088
 40
0.580636223633408
 40
0.6506858178884829
 40
0.717676746553281
 40
0.7866113944958932
 40
0.8536559801698375
 40
0.9225874333658534
 40
1.0
 40
1.0
 40
1.0
 40
1.0
 10
-10.48990229336262
 20
16.03811453070537
 30
0.0
 10
-10.4920652934551
 20
16.03851804080185
 30
0.0
 10
-10.49901941119133
 20
16.03981533927555
 30
0.0
 10
-10.42183364548668
 20
16.02541320851669
 30
0.0
 10
-10.26383231357754
 20
15.99713411621421
 30
0.0
 10
-10.0271284298957
 20
15.95756031069678
 30
0.0
 10
-9.718619993613064
 20
15.91120052590735
 30
0.0
 10
-9.34829863531282
 20
15.86332471225335
 30
0.0
 10
-8.920304960031197
 20
15.81872212121663
 30
0.0
 10
-8.454338829255642
 20
15.78336213841694
 30
0.0
 10
-7.957095005181047
 20
15.76091053240653
 30
0.0
 10
-7.454654090805493
 20
15.75431866370175
 30
0.0
 10
-6.951727690870893
 20
15.76392637097854
 30
0.0
 10
-6.471124857770683
 20
15.78818475983321
 30
0.0
 10
-6.016554500970578
 20
15.8246949935003
 30
0.0
 10
-5.5811770303376
 20
15.8713015003813
 30
0.0
 10
-5.336502805899299
 20
15.905055908149
 30
0.0
 10
-5.207075858867427
 20
15.92291120106461
 30
0.0
  0
SPLINE
  5
150
330
1F
100
AcDbEntity
  8
SK3
  6
HIDDEN
370
    18
100
AcDbSpline
210
0.0
220
0.0
230
1.0
 70
     8
 71
     3
 72
    22
 73
    18
 74
     0
 42
0.000000001
 43
0.00000001
 40
0.0
 40
0.0
 40
0.0
 40
0.0
 40
0.0682907921785916
 40
0.1385475857452261
 40
0.2068424507996973
 40
0.2771556359199998
 40
0.3447504630740963
 40
0.4143528177245484
 40
0.481191566225405
 40
0.5499407793217834
 40
0.6173286470633081
 40
0.6866133083103095
 40
0.754998992553093
 40
0.82536907168137
 40
0.893660780792159
 40
0.963992652406981
 40
1.0
 40
1.0
 40
1.0
 40
1.0
 10
-5.207075858867427
 20
-15.92291120106459
 30
0.0
 10
-5.320449015146444
 20
-15.90719895513512
 30
0.0
 10
-5.550459190598711
 20
-15.87532212854231
 30
0.0
 10
-5.9663952395866
 20
-15.82944706463084
 30
0.0
 10
-6.425950682039966
 20
-15.79113174177292
 30
0.0
 10
-6.912283470612388
 20
-15.76528433734274
 30
0.0
 10
-7.418342634922026
 20
-15.75446051610317
 30
0.0
 10
-7.918631197392944
 20
-15.75989487863225
 30
0.0
 10
-8.409330818499011
 20
-15.78078550775162
 30
0.0
 10
-8.869426755908405
 20
-15.81427865622512
 30
0.0
 10
-9.296350773199485
 20
-15.85733336197574
 30
0.0
 10
-9.672750959513587
 20
-15.90480166291346
 30
0.0
 10
-9.99293930756369
 20
-15.95210310403604
 30
0.0
 10
-10.24244445720553
 20
-15.99340146716997
 30
0.0
 10
-10.41169013997933
 20
-16.02354347235263
 30
0.0
 10
-10.49640711816864
 20
-16.03932609298066
 30
0.0
 10
-10.49154772460192
 20
-16.0384210020517
 30
0.0
 10
-10.48990229336262
 20
-16.03811453070535
 30
0.0
  0
POINT
  5
151
330
1F
100
AcDbEntity
  8
SK3
100
AcDbPoint
 10
44.0
 20
19.0
 30
0.0
  0
DIMENSION
  5
152
330
1F
100
AcDbEntity
  8
SK2
100
AcDbDimension
  2
_D
 10
-33.6835492928
 20
31.47
 30
0.0
 11
-33.6835492928
 21
-1.3244728638
 31
0.0
 70
   160
  1
%%c<>
 71
     2
 42
-1.0
 73
     0
 74
     0
 75
     0
  3
SLDDIMSTYLE0
100
AcDbAlignedDimension
 13
0.2
 23
-31.47
 33
0.0
 14
0.2
 24
31.47
 34
0.0
 50
90.0
100
AcDbRotatedDimension
  0
DIMENSION
  5
15F
330
1F
100
AcDbEntity
  8
SK2
100
AcDbDimension
  2
_D_1
 10
100.0
 20
33.9594444374
 30
0.0
 11
72.1743206358
 21
33.9594444374
 31
0.0
 70
   160
  1
<>
 71
     2
 42
-1.0
 73
     0
 74
     0
 75
     0
  3
SLDDIMSTYLE1
100
AcDbAlignedDimension
 13
44.0
 23
19.0
 33
0.0
 14
100.0
 24
17.0
 34
0.0
100
AcDbRotatedDimension
  0
DIMENSION
  5
16A
330
1F
100
AcDbEntity
  8
SK2
100
AcDbDimension
  2
_D_2
 10
0.0
 20
43.9522116273
 30
0.0
 11
50.7426797959
 21
43.9522116273
 31
0.0
 70
   160
  1
<>
 71
     2
 42
-1.0
 73
     0
 74
     0
 75
     0
  3
SLDDIMSTYLE1
100
AcDbAlignedDimension
 13
100.0
 23
17.0
 33
0.0
 14
0.0
 24
31.27
 34
0.0
 50
0.0
100
AcDbRotatedDimension
  0
DIMENSION
  5
174
330
1F
100
AcDbEntity
  8
SK2
100
AcDbDimension
  2
_D_3
 10
142.0934712654
 20
25.0
 30
0.0
 11
142.0934712654
 21
0.5909193587
 31
0.0
 70
   160
  1
%%c<>
 71
     2
 42
-1.0
 73
     0
 74
     0
 75
     0
  3
SLDDIMSTYLE1
100
AcDbAlignedDimension
 13
40.8836189207
 23
-25.0
 33
0.0
 14
40.8836189207
 24
25.0
 34
0.0
 50
90.0
100
AcDbRotatedDimension
  0
DIMENSION
  5
17F
330
1F
100
AcDbEntity
  8
SK2
100
AcDbDimension
  2
_D_4
 10
111.4548357886
 20
8.0
 30
0.0
 11
111.4548357886
 21
0.5909193587
 31
0.0
 70
   160
  1
%%c<>
 71
     2
 42
-1.0
 73
     0
 74
     0
 75
     0
  3
SLDDIMSTYLE1
100
AcDbAlignedDimension
 13
100.0
 23
-8.0
 33
0.0
 14
100.0
 24
8.0
 34
0.0
 50
90.0
100
AcDbRotatedDimension
  0
DIMENSION
  5
18A
330
1F
100
AcDbEntity
  8
SK2
100
AcDbDimension
  2
_D_5
 10
121.4840294159
 20
-17.0
 30
0.0
 11
121.4840294159
 21
0.5909193587
 31
0.0
 70
   160
  1
%%c<>
 71
     2
 42
-1.0
 73
     0
 74
     0
 75
     0
  3
SLDDIMSTYLE1
100
AcDbAlignedDimension
 13
100.0
 23
17.0
 33
0.0
 14
100.0
 24
-17.0
 34
0.0
 50
90.0
100
AcDbRotatedDimension
  0
DIMENSION
  5
195
330
1F
100
AcDbEntity
  8
SK2
100
AcDbDimension
  2
_D_6
 10
131.8438558001
 20
-19.0
 30
0.0
 11
131.8438558001
 21
0.5909193587
 31
0.0
 70
   160
  1
%%c<>
 71
     2
 42
-1.0
 73
     0
 74
     0
 75
     0
  3
SLDDIMSTYLE1
100
AcDbAlignedDimension
 13
88.6574363608
 23
19.0
 33
0.0
 14
88.6574363608
 24
-19.0
 34
0.0
 50
90.0
100
AcDbRotatedDimension
  0
DIMENSION
  5
1A0
330
1F
100
AcDbEntity
  8
SK2
100
AcDbDimension
  2
_D_7
 10
48.0
 20
-39.4727893105
 30
0.0
 11
74.3104444425
 21
-39.4727893105
 31
0.0
 70
   160
  1
<> MAX\P42 MIN
 71
     2
 42
-1.0
 73
     0
 74
     0
 75
     0
  3
SLDDIMSTYLE1
100
AcDbAlignedDimension
 13
100.0
 23
-17.0
 33
0.0
 14
48.0
 24
-8.2
 34
0.0
100
AcDbRotatedDimension
  0
MTEXT
  5
1AC
330
1F
100
AcDbEntity
  8
SK6
 62
     5
420
      255
100
AcDbMText
 10
-24.5000132012
 20
-35.9867466437
 30
0.0
 40
3.5
 41
0.0
 46
0.0
 71
     1
 72
     1
  1
F63.H16
  7
SLDTEXTSTYLE0
 73
     1
 44
1.0
  0
MTEXT
  5
1AD
330
1F
100
AcDbEntity
  8
SK6
 62
     5
420
      255
100
AcDbMText
 10
-23.6894963181
 20
39.4175878555
 30
0.0
 40
3.5
 41
0.0
 46
0.0
 71
     1
 72
     1
  1
DIN 69893-6 (HSK-F)
  7
SLDTEXTSTYLE0
 73
     1
 44
1.0
  0
ENDSEC
  0
SECTION
  2
OBJECTS
  0
DICTIONARY
  5
C
330
0
100
AcDbDictionary
281
     1
  3
ACAD_DETAILVIEWSTYLE
350
1B6
  3
ACAD_GROUP
350
D
  3
ACAD_LAYOUT
350
1A
  3
ACAD_MATERIAL
350
43
  3
ACAD_MLEADERSTYLE
350
6B
  3
ACAD_MLINESTYLE
350
17
  3
ACAD_PLOTSETTINGS
350
19
  3
ACAD_PLOTSTYLENAME
350
E
  3
ACAD_SCALELIST
350
47
  3
ACAD_SECTIONVIEWSTYLE
350
1B7
  3
ACAD_TABLESTYLE
350
69
  3
ACAD_VISUALSTYLE
350
2A
  3
ACDB_RECOMPOSE_DATA
350
1B3
  3
AcDbVariableDictionary
350
1AE
  0
SUN
  5
6D
330
29
100
AcDbSun
 90
        1
290
     0
 63
     7
421
 16777215
 40
1.0
291
     1
 91
  2455826
 92
 54000000
292
     0
 70
     2
 71
   256
280
     1
  0
DICTIONARY
  5
1B6
102
{ACAD_REACTORS
330
C
102
}
330
C
100
AcDbDictionary
281
     1
  0
DICTIONARY
  5
D
102
{ACAD_REACTORS
330
C
102
}
330
C
100
AcDbDictionary
281
     1
  0
DICTIONARY
  5
1A
102
{ACAD_REACTORS
330
C
102
}
330
C
100
AcDbDictionary
281
     1
  3
Layout1
350
1E
  3
Layout2
350
26
  3
Model
350
22
  0
DICTIONARY
  5
43
102
{ACAD_REACTORS
330
C
102
}
330
C
100
AcDbDictionary
281
     1
  3
ByBlock
350
45
  3
ByLayer
350
44
  3
Global
350
46
  0
DICTIONARY
  5
6B
102
{ACAD_REACTORS
330
C
102
}
330
C
100
AcDbDictionary
281
     1
  3
Standard
350
6C
  0
DICTIONARY
  5
17
102
{ACAD_REACTORS
330
C
102
}
330
C
100
AcDbDictionary
281
     1
  3
Standard
350
18
  0
DICTIONARY
  5
19
102
{ACAD_REACTORS
330
C
102
}
330
C
100
AcDbDictionary
281
     1
  0
ACDBDICTIONARYWDFLT
  5
E
102
{ACAD_REACTORS
330
C
102
}
330
C
100
AcDbDictionary
281
     1
  3
Normal
350
F
100
AcDbDictionaryWithDefault
340
F
  0
DICTIONARY
  5
47
102
{ACAD_REACTORS
330
C
102
}
330
C
100
AcDbDictionary
281
     1
  3
A0
350
48
  3
A1
350
49
  3
A2
350
4A
  3
A3
350
4B
  3
A4
350
4C
  3
A5
350
4D
  3
A6
350
4E
  3
A7
350
4F
  3
A8
350
50
  3
A9
350
51
  3
B0
350
52
  3
B1
350
53
  3
B2
350
54
  3
B3
350
55
  3
B4
350
56
  3
B5
350
57
  3
B6
350
58
  3
B7
350
59
  3
B8
350
5A
  3
B9
350
5B
  3
C0
350
5C
  3
C1
350
5D
  3
C2
350
5E
  3
C3
350
5F
  3
C4
350
60
  3
C5
350
61
  3
C6
350
62
  3
C7
350
63
  3
C8
350
64
  3
C9
350
65
  3
D0
350
66
  3
D1
350
67
  3
D2
350
68
  0
DICTIONARY
  5
1B7
102
{ACAD_REACTORS
330
C
102
}
330
C
100
AcDbDictionary
281
     1
  0
DICTIONARY
  5
69
102
{ACAD_REACTORS
330
C
102
}
330
C
100
AcDbDictionary
281
     1
  3
Standard
350
6A
  0
DICTIONARY
  5
2A
102
{ACAD_REACTORS
330
C
102
}
330
C
100
AcDbDictionary
281
     1
  3
2dWireframe
350
2F
  3
Basic
350
32
  3
Brighten
350
36
  3
ColorChange
350
3A
  3
Conceptual
350
34
  3
Dim
350
35
  3
EdgeColorOff
350
3D
  3
Facepattern
350
39
  3
Flat
350
2B
  3
FlatWithEdges
350
2C
  3
Gouraud
350
2D
  3
GouraudWithEdges
350
2E
  3
Hidden
350
31
  3
JitterOff
350
3B
  3
Linepattern
350
38
  3
OverhangOff
350
3C
  3
Realistic
350
33
  3
Shaded
350
42
  3
Shaded with edges
350
41
  3
Shades of Gray
350
3E
  3
Sketchy
350
3F
  3
Thicken
350
37
  3
Wireframe
350
30
  3
X-Ray
350
40
  0
XRECORD
  5
1B3
102
{ACAD_REACTORS
330
C
102
}
330
C
100
AcDbXrecord
280
     1
 90
        1
330
6A
  0
DICTIONARY
  5
1AE
102
{ACAD_REACTORS
330
C
102
}
330
C
100
AcDbDictionary
281
     1
  3
CANNOSCALE
350
1AF
  3
CENTEREXE
350
1B8
  3
CENTERLTYPEFILE
350
1B9
  3
CMLEADERSTYLE
350
1B5
  3
CTABLESTYLE
350
1B4
  0
LAYOUT
  5
1E
102
{ACAD_REACTORS
330
1A
102
}
330
1A
100
AcDbPlotSettings
  1

  2
none_device
  4

  6

 40
0.0
 41
0.0
 42
0.0
 43
0.0
 44
0.0
 45
0.0
 46
0.0
 47
0.0
 48
0.0
 49
0.0
140
0.0
141
0.0
142
1.0
143
1.0
 70
   688
 72
     1
 73
     0
 74
     5
  7

 75
    16
 76
     0
 77
     2
 78
   300
147
1.0
148
0.0
149
0.0
100
AcDbLayout
  1
Layout1
 70
     1
 71
     1
 10
0.0
 20
0.0
 11
420.0
 21
297.0
 12
0.0
 22
0.0
 32
0.0
 14
1.0000000000E+20
 24
1.0000000000E+20
 34
1.0000000000E+20
 15
-1.0000000000E+20
 25
-1.0000000000E+20
 35
-1.0000000000E+20
146
0.0
 13
0.0
 23
0.0
 33
0.0
 16
1.0
 26
0.0
 36
0.0
 17
0.0
 27
1.0
 37
0.0
 76
     0
330
1B
  0
LAYOUT
  5
26
102
{ACAD_REACTORS
330
1A
102
}
330
1A
100
AcDbPlotSettings
  1

  2
none_device
  4

  6

 40
0.0
 41
0.0
 42
0.0
 43
0.0
 44
0.0
 45
0.0
 46
0.0
 47
0.0
 48
0.0
 49
0.0
140
0.0
141
0.0
142
1.0
143
1.0
 70
   688
 72
     1
 73
     0
 74
     5
  7

 75
    16
 76
     0
 77
     2
 78
   300
147
1.0
148
0.0
149
0.0
100
AcDbLayout
  1
Layout2
 70
     1
 71
     2
 10
0.0
 20
0.0
 11
0.0
 21
0.0
 12
0.0
 22
0.0
 32
0.0
 14
0.0
 24
0.0
 34
0.0
 15
0.0
 25
0.0
 35
0.0
146
0.0
 13
0.0
 23
0.0
 33
0.0
 16
1.0
 26
0.0
 36
0.0
 17
0.0
 27
1.0
 37
0.0
 76
     0
330
23
  0
LAYOUT
  5
22
102
{ACAD_REACTORS
330
1A
102
}
330
1A
100
AcDbPlotSettings
  1

  2
none_device
  4
Letter_(8.50_x_11.00_Inches)
  6

 40
6.35
 41
6.35
 42
6.35000508
 43
6.35000508
 44
215.9
 45
279.4
 46
0.0
 47
0.0
 48
0.0
 49
0.0
140
0.0
141
0.0
142
1.0
143
1.0
 70
  1712
 72
     1
 73
     0
 74
     0
  7

 75
     0
 76
     0
 77
     2
 78
   300
147
1.0
148
0.0
149
0.0
100
AcDbLayout
  1
Model
 70
     1
 71
     0
 10
0.0
 20
0.0
 11
297.0
 21
210.0
 12
0.0
 22
0.0
 32
0.0
 14
0.0
 24
0.0
 34
0.0
 15
297.0
 25
210.0
 35
0.0
146
0.0
 13
0.0
 23
0.0
 33
0.0
 16
1.0
 26
0.0
 36
0.0
 17
0.0
 27
1.0
 37
0.0
 76
     0
330
1F
331
29
  0
MATERIAL
  5
45
102
{ACAD_REACTORS
330
43
102
}
330
43
100
AcDbMaterial
  1
ByBlock
 72
     1
 94
      127
  0
MATERIAL
  5
44
102
{ACAD_REACTORS
330
43
102
}
330
43
100
AcDbMaterial
  1
ByLayer
 72
     1
 94
      127
  0
MATERIAL
  5
46
102
{ACAD_REACTORS
330
43
102
}
330
43
100
AcDbMaterial
  1
Global
 72
     1
 94
      127
  0
MLEADERSTYLE
  5
6C
102
{ACAD_REACTORS
330
6B
102
}
330
6B
100
AcDbMLeaderStyle
170
     2
171
     1
172
     0
 90
        2
 40
0.0
 41
0.0
173
     1
 91
-1056964608
340
14
 92
       -2
290
     1
 42
2.0
291
     1
 43
8.0
  3
Standard
341
0
 44
4.0
300

342
11
174
     1
178
     6
175
     1
176
     0
 93
-1056964608
 45
4.0
292
     0
297
     0
 46
4.0
343
0
 94
-1056964608
 47
1.0
 49
1.0
140
1.0
293
     1
141
0.0
294
     1
177
     0
142
1.0
295
     0
296
     0
143
3.75
1001
ACAD_MLEADERVER
1070
     2
  0
MLINESTYLE
  5
18
102
{ACAD_REACTORS
330
17
102
}
330
17
100
AcDbMlineStyle
  2
Standard
 70
     0
  3

 62
   256
 51
90.0
 52
90.0
 71
     2
 49
0.5
 62
   256
  6
BYLAYER
 49
-0.5
 62
   256
  6
BYLAYER
  0
ACDBPLACEHOLDER
  5
F
102
{ACAD_REACTORS
330
E
102
}
330
E
  0
SCALE
  5
48
102
{ACAD_REACTORS
330
47
102
}
330
47
100
AcDbScale
 70
     0
300
1:1
140
1.0
141
1.0
290
     1
  0
SCALE
  5
49
102
{ACAD_REACTORS
330
47
102
}
330
47
100
AcDbScale
 70
     0
300
1:2
140
1.0
141
2.0
290
     0
  0
SCALE
  5
4A
102
{ACAD_REACTORS
330
47
102
}
330
47
100
AcDbScale
 70
     0
300
1:4
140
1.0
141
4.0
290
     0
  0
SCALE
  5
4B
102
{ACAD_REACTORS
330
47
102
}
330
47
100
AcDbScale
 70
     0
300
1:5
140
1.0
141
5.0
290
     0
  0
SCALE
  5
4C
102
{ACAD_REACTORS
330
47
102
}
330
47
100
AcDbScale
 70
     0
300
1:8
140
1.0
141
8.0
290
     0
  0
SCALE
  5
4D
102
{ACAD_REACTORS
330
47
102
}
330
47
100
AcDbScale
 70
     0
300
1:10
140
1.0
141
10.0
290
     0
  0
SCALE
  5
4E
102
{ACAD_REACTORS
330
47
102
}
330
47
100
AcDbScale
 70
     0
300
1:16
140
1.0
141
16.0
290
     0
  0
SCALE
  5
4F
102
{ACAD_REACTORS
330
47
102
}
330
47
100
AcDbScale
 70
     0
300
1:20
140
1.0
141
20.0
290
     0
  0
SCALE
  5
50
102
{ACAD_REACTORS
330
47
102
}
330
47
100
AcDbScale
 70
     0
300
1:30
140
1.0
141
30.0
290
     0
  0
SCALE
  5
51
102
{ACAD_REACTORS
330
47
102
}
330
47
100
AcDbScale
 70
     0
300
1:40
140
1.0
141
40.0
290
     0
  0
SCALE
  5
52
102
{ACAD_REACTORS
330
47
102
}
330
47
100
AcDbScale
 70
     0
300
1:50
140
1.0
141
50.0
290
     0
  0
SCALE
  5
53
102
{ACAD_REACTORS
330
47
102
}
330
47
100
AcDbScale
 70
     0
300
1:100
140
1.0
141
100.0
290
     0
  0
SCALE
  5
54
102
{ACAD_REACTORS
330
47
102
}
330
47
100
AcDbScale
 70
     0
300
2:1
140
2.0
141
1.0
290
     0
  0
SCALE
  5
55
102
{ACAD_REACTORS
330
47
102
}
330
47
100
AcDbScale
 70
     0
300
4:1
140
4.0
141
1.0
290
     0
  0
SCALE
  5
56
102
{ACAD_REACTORS
330
47
102
}
330
47
100
AcDbScale
 70
     0
300
8:1
140
8.0
141
1.0
290
     0
  0
SCALE
  5
57
102
{ACAD_REACTORS
330
47
102
}
330
47
100
AcDbScale
 70
     0
300
10:1
140
10.0
141
1.0
290
     0
  0
SCALE
  5
58
102
{ACAD_REACTORS
330
47
102
}
330
47
100
AcDbScale
 70
     0
300
100:1
140
100.0
141
1.0
290
     0
  0
SCALE
  5
59
102
{ACAD_REACTORS
330
47
102
}
330
47
100
AcDbScale
 70
     0
300
1/128" = 1'-0"
140
0.0078125
141
12.0
290
     0
  0
SCALE
  5
5A
102
{ACAD_REACTORS
330
47
102
}
330
47
100
AcDbScale
 70
     0
300
1/64" = 1'-0"
140
0.015625
141
12.0
290
     0
  0
SCALE
  5
5B
102
{ACAD_REACTORS
330
47
102
}
330
47
100
AcDbScale
 70
     0
300
1/32" = 1'-0"
140
0.03125
141
12.0
290
     0
  0
SCALE
  5
5C
102
{ACAD_REACTORS
330
47
102
}
330
47
100
AcDbScale
 70
     0
300
1/16" = 1'-0"
140
0.0625
141
12.0
290
     0
  0
SCALE
  5
5D
102
{ACAD_REACTORS
330
47
102
}
330
47
100
AcDbScale
 70
     0
300
3/32" = 1'-0"
140
0.09375
141
12.0
290
     0
  0
SCALE
  5
5E
102
{ACAD_REACTORS
330
47
102
}
330
47
100
AcDbScale
 70
     0
300
1/8" = 1'-0"
140
0.125
141
12.0
290
     0
  0
SCALE
  5
5F
102
{ACAD_REACTORS
330
47
102
}
330
47
100
AcDbScale
 70
     0
300
3/16" = 1'-0"
140
0.1875
141
12.0
290
     0
  0
SCALE
  5
60
102
{ACAD_REACTORS
330
47
102
}
330
47
100
AcDbScale
 70
     0
300
1/4" = 1'-0"
140
0.25
141
12.0
290
     0
  0
SCALE
  5
61
102
{ACAD_REACTORS
330
47
102
}
330
47
100
AcDbScale
 70
     0
300
3/8" = 1'-0"
140
0.375
141
12.0
290
     0
  0
SCALE
  5
62
102
{ACAD_REACTORS
330
47
102
}
330
47
100
AcDbScale
 70
     0
300
1/2" = 1'-0"
140
0.5
141
12.0
290
     0
  0
SCALE
  5
63
102
{ACAD_REACTORS
330
47
102
}
330
47
100
AcDbScale
 70
     0
300
3/4" = 1'-0"
140
0.75
141
12.0
290
     0
  0
SCALE
  5
64
102
{ACAD_REACTORS
330
47
102
}
330
47
100
AcDbScale
 70
     0
300
1" = 1'-0"
140
1.0
141
12.0
290
     0
  0
SCALE
  5
65
102
{ACAD_REACTORS
330
47
102
}
330
47
100
AcDbScale
 70
     0
300
1-1/2" = 1'-0"
140
1.5
141
12.0
290
     0
  0
SCALE
  5
66
102
{ACAD_REACTORS
330
47
102
}
330
47
100
AcDbScale
 70
     0
300
3" = 1'-0"
140
3.0
141
12.0
290
     0
  0
SCALE
  5
67
102
{ACAD_REACTORS
330
47
102
}
330
47
100
AcDbScale
 70
     0
300
6" = 1'-0"
140
6.0
141
12.0
290
     0
  0
SCALE
  5
68
102
{ACAD_REACTORS
330
47
102
}
330
47
100
AcDbScale
 70
     0
300
1'-0" = 1'-0"
140
12.0
141
12.0
290
     0
  0
TABLESTYLE
  5
6A
102
{ACAD_REACTORS
330
69
102
}
102
{ACAD_XDICTIONARY
360
1B0
102
}
330
69
100
AcDbTableStyle
  3
Standard
 70
     0
 71
     0
 40
0.06
 41
0.06
280
     0
281
     0
  7
Standard
140
4.5
170
     2
 62
     0
 63
   257
283
     0
 90
        4
 91
        0
  1

274
    -2
284
     1
 64
     0
275
    -2
285
     1
 65
     0
276
    -2
286
     1
 66
     0
277
    -2
287
     1
 67
     0
278
    -2
288
     1
 68
     0
279
    -2
289
     1
 69
     0
  7
Standard
140
6.0
170
     5
 62
     0
 63
   257
283
     0
 90
        4
 91
        0
  1

274
    -2
284
     1
 64
     0
275
    -2
285
     1
 65
     0
276
    -2
286
     1
 66
     0
277
    -2
287
     1
 67
     0
278
    -2
288
     1
 68
     0
279
    -2
289
     1
 69
     0
  7
Standard
140
4.5
170
     5
 62
     0
 63
   257
283
     0
 90
        4
 91
        0
  1

274
    -2
284
     1
 64
     0
275
    -2
285
     1
 65
     0
276
    -2
286
     1
 66
     0
277
    -2
287
     1
 67
     0
278
    -2
288
     1
 68
     0
279
    -2
289
     1
 69
     0
  0
VISUALSTYLE
  5
2F
102
{ACAD_REACTORS
330
2A
102
}
330
2A
100
AcDbVisualStyle
  2
2dWireframe
 70
     4
 71
     0
 72
     2
 73
     0
 90
        0
 40
0.6
 41
30.0
 62
     5
 63
     7
421
 16777215
 74
     1
 91
        4
 64
     7
 65
   257
 75
     1
175
     1
 42
1.0
 92
        0
 66
   257
 43
1.0
 76
     1
 77
     6
 78
     2
 67
     7
 79
     5
170
     0
171
     0
290
     0
174
     0
 93
        1
 44
0.0
173
     0
291
     0
 45
0.0
  0
VISUALSTYLE
  5
32
102
{ACAD_REACTORS
330
2A
102
}
330
2A
100
AcDbVisualStyle
  2
Basic
 70
     7
 71
     1
 72
     0
 73
     1
 90
        0
 40
0.6
 41
30.0
 62
     5
 63
     7
421
 16777215
 74
     0
 91
        4
 64
     7
 65
   257
 75
     1
175
     1
 42
1.0
 92
        8
 66
     7
 43
1.0
 76
     1
 77
     6
 78
     2
 67
     7
 79
     5
170
     0
171
     0
290
     0
174
     0
 93
        1
 44
0.0
173
     0
291
     1
 45
0.0
  0
VISUALSTYLE
  5
36
102
{ACAD_REACTORS
330
2A
102
}
330
2A
100
AcDbVisualStyle
  2
Brighten
 70
    12
 71
     2
 72
     2
 73
     0
 90
        0
 40
0.6
 41
30.0
 62
     5
 63
     7
421
 16777215
 74
     1
 91
        4
 64
     7
 65
   257
 75
     1
175
     1
 42
1.0
 92
        8
 66
     7
 43
1.0
 76
     1
 77
     6
 78
     2
 67
     7
 79
     5
170
     0
171
     0
290
     0
174
     0
 93
        1
 44
50.0
173
     0
291
     1
 45
0.0
  0
VISUALSTYLE
  5
3A
102
{ACAD_REACTORS
330
2A
102
}
330
2A
100
AcDbVisualStyle
  2
ColorChange
 70
    16
 71
     2
 72
     2
 73
     3
 90
        0
 40
0.6
 41
30.0
 62
     5
 63
     8
421
  8421504
 74
     1
 91
        4
 64
     7
 65
   257
 75
     1
175
     1
 42
1.0
 92
        8
 66
     8
424
  8421504
 43
1.0
 76
     1
 77
     6
 78
     2
 67
     7
 79
     5
170
     0
171
     0
290
     0
174
     0
 93
        1
 44
0.0
173
     0
291
     1
 45
0.0
  0
VISUALSTYLE
  5
34
102
{ACAD_REACTORS
330
2A
102
}
330
2A
100
AcDbVisualStyle
  2
Conceptual
 70
     9
 71
     3
 72
     2
 73
     0
 90
        0
 40
0.6
 41
30.0
 62
     5
 63
     7
421
 16777215
 74
     2
 91
        2
 64
     7
 65
   257
 75
     1
175
     1
 42
179.0
 92
        8
 66
     7
 43
1.0
 76
     1
 77
     6
 78
     2
 67
     7
 79
     3
170
     0
171
     0
290
     0
174
     0
 93
        1
 44
0.0
173
     0
291
     0
 45
0.0
  0
VISUALSTYLE
  5
35
102
{ACAD_REACTORS
330
2A
102
}
330
2A
100
AcDbVisualStyle
  2
Dim
 70
    11
 71
     2
 72
     2
 73
     0
 90
        0
 40
0.6
 41
30.0
 62
     5
 63
     7
421
 16777215
 74
     1
 91
        4
 64
     7
 65
   257
 75
     1
175
     1
 42
1.0
 92
        8
 66
     7
 43
1.0
 76
     1
 77
     6
 78
     2
 67
     7
 79
     5
170
     0
171
     0
290
     0
174
     0
 93
        1
 44
-50.0
173
     0
291
     1
 45
0.0
  0
VISUALSTYLE
  5
3D
102
{ACAD_REACTORS
330
2A
102
}
330
2A
100
AcDbVisualStyle
  2
EdgeColorOff
 70
    22
 71
     2
 72
     2
 73
     0
 90
        0
 40
0.6
 41
30.0
 62
     5
 63
     7
421
 16777215
 74
     1
 91
        4
 64
     7
 65
   257
 75
     1
175
     1
 42
1.0
 92
        8
 66
     7
 43
1.0
 76
     1
 77
     6
 78
     2
 67
     7
 79
     5
170
     0
171
     0
290
     0
174
     0
 93
        1
 44
0.0
173
     0
291
     1
 45
0.0
  0
VISUALSTYLE
  5
39
102
{ACAD_REACTORS
330
2A
102
}
330
2A
100
AcDbVisualStyle
  2
Facepattern
 70
    15
 71
     2
 72
     2
 73
     0
 90
        0
 40
0.6
 41
30.0
 62
     5
 63
     7
421
 16777215
 74
     1
 91
        4
 64
     7
 65
   257
 75
     1
175
     1
 42
1.0
 92
        8
 66
     7
 43
1.0
 76
     1
 77
     6
 78
     2
 67
     7
 79
     5
170
     0
171
     0
290
     0
174
     0
 93
        1
 44
0.0
173
     0
291
     1
 45
0.0
  0
VISUALSTYLE
  5
2B
102
{ACAD_REACTORS
330
2A
102
}
330
2A
100
AcDbVisualStyle
  2
Flat
 70
     0
 71
     2
 72
     1
 73
     1
 90
        2
 40
0.6
 41
30.0
 62
     5
 63
     7
421
 16777215
 74
     0
 91
        0
 64
     7
 65
   257
 75
     1
175
     1
 42
1.0
 92
        8
 66
     7
 43
1.0
 76
     1
 77
     6
 78
     2
 67
     7
 79
     5
170
     0
171
     0
290
     0
174
     0
 93
       13
 44
0.0
173
     0
291
     1
 45
0.0
  0
VISUALSTYLE
  5
2C
102
{ACAD_REACTORS
330
2A
102
}
330
2A
100
AcDbVisualStyle
  2
FlatWithEdges
 70
     1
 71
     2
 72
     1
 73
     1
 90
        2
 40
0.6
 41
30.0
 62
     5
 63
     7
421
 16777215
 74
     1
 91
        0
 64
     7
 65
   257
 75
     1
175
     1
 42
1.0
 92
        0
 66
   257
 43
1.0
 76
     1
 77
     6
 78
     2
 67
     7
 79
     5
170
     0
171
     0
290
     0
174
     0
 93
       13
 44
0.0
173
     0
291
     1
 45
0.0
  0
VISUALSTYLE
  5
2D
102
{ACAD_REACTORS
330
2A
102
}
330
2A
100
AcDbVisualStyle
  2
Gouraud
 70
     2
 71
     2
 72
     2
 73
     1
 90
        2
 40
0.6
 41
30.0
 62
     5
 63
     7
421
 16777215
 74
     0
 91
        0
 64
     7
 65
   257
 75
     1
175
     1
 42
1.0
 92
        0
 66
     7
 43
1.0
 76
     1
 77
     6
 78
     2
 67
     7
 79
     5
170
     0
171
     0
290
     0
174
     0
 93
       13
 44
0.0
173
     0
291
     1
 45
0.0
  0
VISUALSTYLE
  5
2E
102
{ACAD_REACTORS
330
2A
102
}
330
2A
100
AcDbVisualStyle
  2
GouraudWithEdges
 70
     3
 71
     2
 72
     2
 73
     1
 90
        2
 40
0.6
 41
30.0
 62
     5
 63
     7
421
 16777215
 74
     1
 91
        0
 64
     7
 65
   257
 75
     1
175
     1
 42
1.0
 92
        0
 66
   257
 43
1.0
 76
     1
 77
     6
 78
     2
 67
     7
 79
     5
170
     0
171
     0
290
     0
174
     0
 93
       13
 44
0.0
173
     0
291
     1
 45
0.0
  0
VISUALSTYLE
  5
31
102
{ACAD_REACTORS
330
2A
102
}
330
2A
100
AcDbVisualStyle
  2
Hidden
 70
     6
 71
     1
 72
     2
 73
     2
 90
        0
 40
0.6
 41
30.0
 62
     5
 63
     7
421
 16777215
 74
     2
 91
        2
 64
     7
 65
   257
 75
     2
175
     1
 42
40.0
 92
        0
 66
   257
 43
1.0
 76
     1
 77
     6
 78
     2
 67
     7
 79
     3
170
     0
171
     0
290
     0
174
     0
 93
        1
 44
0.0
173
     0
291
     0
 45
0.0
  0
VISUALSTYLE
  5
3B
102
{ACAD_REACTORS
330
2A
102
}
330
2A
100
AcDbVisualStyle
  2
JitterOff
 70
    20
 71
     2
 72
     2
 73
     0
 90
        0
 40
0.6
 41
30.0
 62
     5
 63
     7
421
 16777215
 74
     1
 91
        4
 64
     7
 65
   257
 75
     1
175
     1
 42
1.0
 92
       10
 66
     7
 43
1.0
 76
     1
 77
     6
 78
     2
 67
     7
 79
     5
170
     0
171
     0
290
     0
174
     0
 93
        1
 44
0.0
173
     0
291
     1
 45
0.0
  0
VISUALSTYLE
  5
38
102
{ACAD_REACTORS
330
2A
102
}
330
2A
100
AcDbVisualStyle
  2
Linepattern
 70
    14
 71
     2
 72
     2
 73
     0
 90
        0
 40
0.6
 41
30.0
 62
     5
 63
     7
421
 16777215
 74
     1
 91
        4
 64
     7
 65
   257
 75
     7
175
     7
 42
1.0
 92
        8
 66
     7
 43
1.0
 76
     1
 77
     6
 78
     2
 67
     7
 79
     5
170
     0
171
     0
290
     0
174
     0
 93
        1
 44
0.0
173
     0
291
     1
 45
0.0
  0
VISUALSTYLE
  5
3C
102
{ACAD_REACTORS
330
2A
102
}
330
2A
100
AcDbVisualStyle
  2
OverhangOff
 70
    21
 71
     2
 72
     2
 73
     0
 90
        0
 40
0.6
 41
30.0
 62
     5
 63
     7
421
 16777215
 74
     1
 91
        4
 64
     7
 65
   257
 75
     1
175
     1
 42
1.0
 92
        9
 66
     7
 43
1.0
 76
     1
 77
     6
 78
     2
 67
     7
 79
     5
170
     0
171
     0
290
     0
174
     0
 93
        1
 44
0.0
173
     0
291
     1
 45
0.0
  0
VISUALSTYLE
  5
33
102
{ACAD_REACTORS
330
2A
102
}
330
2A
100
AcDbVisualStyle
  2
Realistic
 70
     8
 71
     2
 72
     3
 73
     0
 90
        2
 40
0.6
 41
30.0
 62
     5
 63
     7
421
 16777215
 74
     0
 91
        0
 64
     7
 65
   257
 75
     1
175
     1
 42
1.0
 92
        8
 66
   257
 43
1.0
 76
     1
 77
     6
 78
     2
 67
     7
 79
     3
170
     0
171
     0
290
     0
174
     0
 93
       13
 44
0.0
173
     0
291
     0
 45
0.0
  0
VISUALSTYLE
  5
42
102
{ACAD_REACTORS
330
2A
102
}
330
2A
100
AcDbVisualStyle
  2
Shaded
 70
    27
 71
     2
 72
     2
 73
     1
 90
        2
 40
0.6
 41
30.0
 62
     5
 63
     7
421
 16777215
 74
     0
 91
        4
 64
     7
 65
   257
 75
     1
175
     1
 42
1.0
 92
        8
 66
   257
 43
1.0
 76
     1
 77
     6
 78
     2
 67
     8
425
  7895160
 79
     3
170
     0
171
     0
290
     0
174
     0
 93
        5
 44
0.0
173
     0
291
     0
 45
0.0
  0
VISUALSTYLE
  5
41
102
{ACAD_REACTORS
330
2A
102
}
330
2A
100
AcDbVisualStyle
  2
Shaded with edges
 70
    26
 71
     2
 72
     2
 73
     1
 90
        2
 40
0.6
 41
30.0
 62
     5
 63
     7
421
 16777215
 74
     1
 91
       10
 64
     7
 65
   257
 75
     2
175
     1
 42
1.0
 92
        8
 66
   257
 43
1.0
 76
     1
 77
     6
 78
     2
 67
     7
 79
     3
170
     0
171
     0
290
     0
174
     0
 93
        5
 44
0.0
173
     0
291
     0
 45
0.0
  0
VISUALSTYLE
  5
3E
102
{ACAD_REACTORS
330
2A
102
}
330
2A
100
AcDbVisualStyle
  2
Shades of Gray
 70
    23
 71
     2
 72
     2
 73
     3
 90
        0
 40
0.6
 41
30.0
 62
     5
 63
     7
421
 16777215
 74
     2
 91
        2
 64
     7
 65
     7
 75
     1
175
     1
 42
40.0
 92
        8
 66
     7
 43
1.0
 76
     1
 77
     6
 78
     2
 67
     7
 79
     3
170
     0
171
     0
290
     0
174
     0
 93
        1
 44
0.0
173
     0
291
     0
 45
0.0
  0
VISUALSTYLE
  5
3F
102
{ACAD_REACTORS
330
2A
102
}
330
2A
100
AcDbVisualStyle
  2
Sketchy
 70
    24
 71
     1
 72
     2
 73
     2
 90
        0
 40
0.6
 41
30.0
 62
     5
 63
     7
421
 16777215
 74
     2
 91
        2
 64
     7
 65
     7
 75
     1
175
     1
 42
40.0
 92
       11
 66
     7
 43
1.0
 76
     1
 77
     6
 78
     2
 67
     7
 79
     6
170
     0
171
     0
290
     0
174
     0
 93
        1
 44
0.0
173
     0
291
     0
 45
0.0
  0
VISUALSTYLE
  5
37
102
{ACAD_REACTORS
330
2A
102
}
330
2A
100
AcDbVisualStyle
  2
Thicken
 70
    13
 71
     2
 72
     2
 73
     0
 90
        0
 40
0.6
 41
30.0
 62
     5
 63
     7
421
 16777215
 74
     1
 91
        4
 64
     7
 65
   257
 75
     1
175
     1
 42
1.0
 92
       12
 66
     7
 43
1.0
 76
     1
 77
     6
 78
     2
 67
     7
 79
     5
170
     0
171
     0
290
     0
174
     0
 93
        1
 44
0.0
173
     0
291
     1
 45
0.0
  0
VISUALSTYLE
  5
30
102
{ACAD_REACTORS
330
2A
102
}
330
2A
100
AcDbVisualStyle
  2
Wireframe
 70
     5
 71
     0
 72
     2
 73
     0
 90
        0
 40
0.6
 41
30.0
 62
     5
 63
     7
421
 16777215
 74
     1
 91
        4
 64
     7
 65
   257
 75
     1
175
     1
 42
1.0
 92
        0
 66
   257
 43
1.0
 76
     1
 77
     6
 78
     2
 67
     7
 79
     3
170
     0
171
     0
290
     0
174
     0
 93
        1
 44
0.0
173
     0
291
     0
 45
0.0
  0
VISUALSTYLE
  5
40
102
{ACAD_REACTORS
330
2A
102
}
330
2A
100
AcDbVisualStyle
  2
X-Ray
 70
    25
 71
     2
 72
     2
 73
     1
 90
        1
 40
0.5
 41
30.0
 62
     5
 63
     7
421
 16777215
 74
     1
 91
        0
 64
     7
 65
   257
 75
     1
175
     1
 42
1.0
 92
        8
 66
     7
 43
1.0
 76
     1
 77
     6
 78
     2
 67
     7
 79
     3
170
     0
171
     0
290
     0
174
     0
 93
       13
 44
0.0
173
     0
291
     0
 45
0.0
  0
DICTIONARYVAR
  5
1AF
102
{ACAD_REACTORS
330
1AE
102
}
330
1AE
100
DictionaryVariables
280
     0
  1
1:1
  0
DICTIONARYVAR
  5
1B8
102
{ACAD_REACTORS
330
1AE
102
}
330
1AE
100
DictionaryVariables
280
     0
  1
3.500000
  0
DICTIONARYVAR
  5
1B9
102
{ACAD_REACTORS
330
1AE
102
}
330
1AE
100
DictionaryVariables
280
     0
  1
acadiso.lin
  0
DICTIONARYVAR
  5
1B5
102
{ACAD_REACTORS
330
1AE
102
}
330
1AE
100
DictionaryVariables
280
     0
  1
Standard
  0
DICTIONARYVAR
  5
1B4
102
{ACAD_REACTORS
330
1AE
102
}
330
1AE
100
DictionaryVariables
280
     0
  1
Standard
  0
DICTIONARY
  5
1B0
330
6A
100
AcDbDictionary
280
     1
281
     1
  3
ACAD_ROUNDTRIP_2008_TABLESTYLE_CELLSTYLEMAP
360
1B1
  0
CELLSTYLEMAP
  5
1B1
102
{ACAD_REACTORS
330
1B0
102
}
330
1B0
100
AcDbCellStyleMap
 90
        3
300
CELLSTYLE
  1
TABLEFORMAT_BEGIN
 90
        5
170
     1
 91
        0
 92
    32768
 62
   257
 93
        1
300
CONTENTFORMAT
  1
CONTENTFORMAT_BEGIN
 90
        0
 91
        0
 92
        4
 93
        0
300

 40
0.0
140
1.0
 94
        5
 62
     0
340
11
144
6.0
309
CONTENTFORMAT_END
171
     1
301
MARGIN
  1
CELLMARGIN_BEGIN
 40
1.5
 40
1.5
 40
1.5
 40
1.5
 40
1.5
 40
1.5
309
CELLMARGIN_END
 94
        6
 95
        1
302
GRIDFORMAT
  1
GRIDFORMAT_BEGIN
 90
        0
 91
        1
 62
     0
 92
       -2
340
14
 93
        0
 40
0.045
309
GRIDFORMAT_END
 95
        2
302
GRIDFORMAT
  1
GRIDFORMAT_BEGIN
 90
        0
 91
        1
 62
     0
 92
       -2
340
14
 93
        0
 40
0.045
309
GRIDFORMAT_END
 95
        4
302
GRIDFORMAT
  1
GRIDFORMAT_BEGIN
 90
        0
 91
        1
 62
     0
 92
       -2
340
14
 93
        0
 40
0.045
309
GRIDFORMAT_END
 95
        8
302
GRIDFORMAT
  1
GRIDFORMAT_BEGIN
 90
        0
 91
        1
 62
     0
 92
       -2
340
14
 93
        0
 40
0.045
309
GRIDFORMAT_END
 95
       16
302
GRIDFORMAT
  1
GRIDFORMAT_BEGIN
 90
        0
 91
        1
 62
     0
 92
       -2
340
14
 93
        0
 40
0.045
309
GRIDFORMAT_END
 95
       32
302
GRIDFORMAT
  1
GRIDFORMAT_BEGIN
 90
        0
 91
        1
 62
     0
 92
       -2
340
14
 93
        0
 40
0.045
309
GRIDFORMAT_END
309
TABLEFORMAT_END
  1
CELLSTYLE_BEGIN
 90
        1
 91
        1
300
_TITLE
309
CELLSTYLE_END
300
CELLSTYLE
  1
TABLEFORMAT_BEGIN
 90
        5
170
     1
 91
        0
 92
        0
 62
   257
 93
        1
300
CONTENTFORMAT
  1
CONTENTFORMAT_BEGIN
 90
        0
 91
        0
 92
        4
 93
        0
300

 40
0.0
140
1.0
 94
        5
 62
     0
340
11
144
4.5
309
CONTENTFORMAT_END
171
     1
301
MARGIN
  1
CELLMARGIN_BEGIN
 40
1.5
 40
1.5
 40
1.5
 40
1.5
 40
1.5
 40
1.5
309
CELLMARGIN_END
 94
        6
 95
        1
302
GRIDFORMAT
  1
GRIDFORMAT_BEGIN
 90
        0
 91
        1
 62
     0
 92
       -2
340
14
 93
        0
 40
0.045
309
GRIDFORMAT_END
 95
        2
302
GRIDFORMAT
  1
GRIDFORMAT_BEGIN
 90
        0
 91
        1
 62
     0
 92
       -2
340
14
 93
        0
 40
0.045
309
GRIDFORMAT_END
 95
        4
302
GRIDFORMAT
  1
GRIDFORMAT_BEGIN
 90
        0
 91
        1
 62
     0
 92
       -2
340
14
 93
        0
 40
0.045
309
GRIDFORMAT_END
 95
        8
302
GRIDFORMAT
  1
GRIDFORMAT_BEGIN
 90
        0
 91
        1
 62
     0
 92
       -2
340
14
 93
        0
 40
0.045
309
GRIDFORMAT_END
 95
       16
302
GRIDFORMAT
  1
GRIDFORMAT_BEGIN
 90
        0
 91
        1
 62
     0
 92
       -2
340
14
 93
        0
 40
0.045
309
GRIDFORMAT_END
 95
       32
302
GRIDFORMAT
  1
GRIDFORMAT_BEGIN
 90
        0
 91
        1
 62
     0
 92
       -2
340
14
 93
        0
 40
0.045
309
GRIDFORMAT_END
309
TABLEFORMAT_END
  1
CELLSTYLE_BEGIN
 90
        2
 91
        1
300
_HEADER
309
CELLSTYLE_END
300
CELLSTYLE
  1
TABLEFORMAT_BEGIN
 90
        5
170
     1
 91
        0
 92
        0
 62
   257
 93
        1
300
CONTENTFORMAT
  1
CONTENTFORMAT_BEGIN
 90
        0
 91
        0
 92
        4
 93
        0
300

 40
0.0
140
1.0
 94
        2
 62
     0
340
11
144
4.5
309
CONTENTFORMAT_END
171
     1
301
MARGIN
  1
CELLMARGIN_BEGIN
 40
1.5
 40
1.5
 40
1.5
 40
1.5
 40
1.5
 40
1.5
309
CELLMARGIN_END
 94
        6
 95
        1
302
GRIDFORMAT
  1
GRIDFORMAT_BEGIN
 90
        0
 91
        1
 62
     0
 92
       -2
340
14
 93
        0
 40
0.045
309
GRIDFORMAT_END
 95
        2
302
GRIDFORMAT
  1
GRIDFORMAT_BEGIN
 90
        0
 91
        1
 62
     0
 92
       -2
340
14
 93
        0
 40
0.045
309
GRIDFORMAT_END
 95
        4
302
GRIDFORMAT
  1
GRIDFORMAT_BEGIN
 90
        0
 91
        1
 62
     0
 92
       -2
340
14
 93
        0
 40
0.045
309
GRIDFORMAT_END
 95
        8
302
GRIDFORMAT
  1
GRIDFORMAT_BEGIN
 90
        0
 91
        1
 62
     0
 92
       -2
340
14
 93
        0
 40
0.045
309
GRIDFORMAT_END
 95
       16
302
GRIDFORMAT
  1
GRIDFORMAT_BEGIN
 90
        0
 91
        1
 62
     0
 92
       -2
340
14
 93
        0
 40
0.045
309
GRIDFORMAT_END
 95
       32
302
GRIDFORMAT
  1
GRIDFORMAT_BEGIN
 90
        0
 91
        1
 62
     0
 92
       -2
340
14
 93
        0
 40
0.045
309
GRIDFORMAT_END
309
TABLEFORMAT_END
  1
CELLSTYLE_BEGIN
 90
        3
 91
        2
300
_DATA
309
CELLSTYLE_END
  0
ENDSEC
  0
EOF
