  0
SECTION
  2
HEADER
  9
$ACADVER
  1
AC1021
  9
$ACADMAINTVER
 70
    25
  9
$DWGCODEPAGE
  3
ANSI_950
  9
$INSBASE
 10
0.0
 20
0.0
 30
0.0
  9
$EXTMIN
 10
0.0
 20
0.0
 30
0.0
  9
$EXTMAX
 10
297.0
 20
210.0
 30
0.0
  9
$LIMMIN
 10
0.0
 20
0.0
  9
$LIMMAX
 10
297.0
 20
210.0
  9
$ORTHOMODE
 70
     0
  9
$REGENMODE
 70
     1
  9
$FILLMODE
 70
     1
  9
$QTEXTMODE
 70
     0
  9
$MIRRTEXT
 70
     1
  9
$LTSCALE
 40
1.0
  9
$ATTMODE
 70
     1
  9
$TEXTSIZE
 40
5.0
  9
$TRACEWID
 40
1.0
  9
$TEXTSTYLE
  7
Standard
  9
$CLAYER
  8
0
  9
$CELTYPE
  6
ByLayer
  9
$CECOLOR
 62
   256
  9
$CELTSCALE
 40
1.0
  9
$DISPSILH
 70
     0
  9
$DIMSCALE
 40
1.0
  9
$DIMASZ
 40
2.5
  9
$DIMEXO
 40
0.625
  9
$DIMDLI
 40
3.75
  9
$DIMRND
 40
0.0
  9
$DIMDLE
 40
0.0
  9
$DIMEXE
 40
1.25
  9
$DIMTP
 40
0.0
  9
$DIMTM
 40
0.0
  9
$DIMTXT
 40
2.5
  9
$DIMCEN
 40
2.5
  9
$DIMTSZ
 40
0.0
  9
$DIMTOL
 70
     0
  9
$DIMLIM
 70
     0
  9
$DIMTIH
 70
     0
  9
$DIMTOH
 70
     0
  9
$DIMSE1
 70
     0
  9
$DIMSE2
 70
     0
  9
$DIMTAD
 70
     1
  9
$DIMZIN
 70
     8
  9
$DIMBLK
  1

  9
$DIMASO
 70
     1
  9
$DIMSHO
 70
     1
  9
$DIMPOST
  1

  9
$DIMAPOST
  1

  9
$DIMALT
 70
     0
  9
$DIMALTD
 70
     3
  9
$DIMALTF
 40
0.0393700787
  9
$DIMLFAC
 40
1.0
  9
$DIMTOFL
 70
     1
  9
$DIMTVP
 40
0.0
  9
$DIMTIX
 70
     0
  9
$DIMSOXD
 70
     0
  9
$DIMSAH
 70
     0
  9
$DIMBLK1
  1

  9
$DIMBLK2
  1

  9
$DIMSTYLE
  2
ISO-25
  9
$DIMCLRD
 70
     0
  9
$DIMCLRE
 70
     0
  9
$DIMCLRT
 70
     0
  9
$DIMTFAC
 40
1.0
  9
$DIMGAP
 40
0.625
  9
$DIMJUST
 70
     0
  9
$DIMSD1
 70
     0
  9
$DIMSD2
 70
     0
  9
$DIMTOLJ
 70
     0
  9
$DIMTZIN
 70
     8
  9
$DIMALTZ
 70
     0
  9
$DIMALTTZ
 70
     0
  9
$DIMUPT
 70
     0
  9
$DIMDEC
 70
     2
  9
$DIMTDEC
 70
     2
  9
$DIMALTU
 70
     2
  9
$DIMALTTD
 70
     3
  9
$DIMTXSTY
  7
Standard
  9
$DIMAUNIT
 70
     0
  9
$DIMADEC
 70
     0
  9
$DIMALTRND
 40
0.0
  9
$DIMAZIN
 70
     0
  9
$DIMDSEP
 70
    44
  9
$DIMATFIT
 70
     3
  9
$DIMFRAC
 70
     0
  9
$DIMLDRBLK
  1

  9
$DIMLUNIT
 70
     2
  9
$DIMLWD
 70
    -2
  9
$DIMLWE
 70
    -2
  9
$DIMTMOVE
 70
     0
  9
$DIMFXL
 40
1.0
  9
$DIMFXLON
 70
     0
  9
$DIMJOGANG
 40
0.7853981634
  9
$DIMTFILL
 70
     0
  9
$DIMTFILLCLR
 70
     0
  9
$DIMARCSYM
 70
     0
  9
$DIMLTYPE
  6

  9
$DIMLTEX1
  6

  9
$DIMLTEX2
  6

  9
$LUNITS
 70
     2
  9
$LUPREC
 70
     4
  9
$SKETCHINC
 40
1.0
  9
$FILLETRAD
 40
10.0
  9
$AUNITS
 70
     0
  9
$AUPREC
 70
     0
  9
$MENU
  1
.
  9
$ELEVATION
 40
0.0
  9
$PELEVATION
 40
0.0
  9
$THICKNESS
 40
0.0
  9
$LIMCHECK
 70
     0
  9
$CHAMFERA
 40
0.0
  9
$CHAMFERB
 40
0.0
  9
$CHAMFERC
 40
0.0
  9
$CHAMFERD
 40
0.0
  9
$SKPOLY
 70
     0
  9
$TDCREATE
 40
2459716.464442546
  9
$TDUCREATE
 40
2459716.131109213
  9
$TDUPDATE
 40
2459716.464444051
  9
$TDUUPDATE
 40
2459716.131110718
  9
$TDINDWG
 40
0.0000000116
  9
$TDUSRTIMER
 40
0.0000000116
  9
$USRTIMER
 70
     1
  9
$ANGBASE
 50
0.0
  9
$ANGDIR
 70
     0
  9
$PDMODE
 70
     0
  9
$PDSIZE
 40
0.0
  9
$PLINEWID
 40
0.0
  9
$SPLFRAME
 70
     0
  9
$SPLINETYPE
 70
     6
  9
$SPLINESEGS
 70
     8
  9
$HANDSEED
  5
21C
  9
$SURFTAB1
 70
     6
  9
$SURFTAB2
 70
     6
  9
$SURFTYPE
 70
     6
  9
$SURFU
 70
     6
  9
$SURFV
 70
     6
  9
$UCSBASE
  2

  9
$UCSNAME
  2

  9
$UCSORG
 10
0.0
 20
0.0
 30
0.0
  9
$UCSXDIR
 10
1.0
 20
0.0
 30
0.0
  9
$UCSYDIR
 10
0.0
 20
1.0
 30
0.0
  9
$UCSORTHOREF
  2

  9
$UCSORTHOVIEW
 70
     0
  9
$UCSORGTOP
 10
0.0
 20
0.0
 30
0.0
  9
$UCSORGBOTTOM
 10
0.0
 20
0.0
 30
0.0
  9
$UCSORGLEFT
 10
0.0
 20
0.0
 30
0.0
  9
$UCSORGRIGHT
 10
0.0
 20
0.0
 30
0.0
  9
$UCSORGFRONT
 10
0.0
 20
0.0
 30
0.0
  9
$UCSORGBACK
 10
0.0
 20
0.0
 30
0.0
  9
$PUCSBASE
  2

  9
$PUCSNAME
  2

  9
$PUCSORG
 10
0.0
 20
0.0
 30
0.0
  9
$PUCSXDIR
 10
1.0
 20
0.0
 30
0.0
  9
$PUCSYDIR
 10
0.0
 20
1.0
 30
0.0
  9
$PUCSORTHOREF
  2

  9
$PUCSORTHOVIEW
 70
     0
  9
$PUCSORGTOP
 10
0.0
 20
0.0
 30
0.0
  9
$PUCSORGBOTTOM
 10
0.0
 20
0.0
 30
0.0
  9
$PUCSORGLEFT
 10
0.0
 20
0.0
 30
0.0
  9
$PUCSORGRIGHT
 10
0.0
 20
0.0
 30
0.0
  9
$PUCSORGFRONT
 10
0.0
 20
0.0
 30
0.0
  9
$PUCSORGBACK
 10
0.0
 20
0.0
 30
0.0
  9
$USERI1
 70
     0
  9
$USERI2
 70
     0
  9
$USERI3
 70
     0
  9
$USERI4
 70
     0
  9
$USERI5
 70
     0
  9
$USERR1
 40
0.0
  9
$USERR2
 40
0.0
  9
$USERR3
 40
0.0
  9
$USERR4
 40
0.0
  9
$USERR5
 40
0.0
  9
$WORLDVIEW
 70
     1
  9
$SHADEDGE
 70
     3
  9
$SHADEDIF
 70
    70
  9
$TILEMODE
 70
     1
  9
$MAXACTVP
 70
    64
  9
$PINSBASE
 10
0.0
 20
0.0
 30
0.0
  9
$PLIMCHECK
 70
     0
  9
$PEXTMIN
 10
0.0
 20
0.0
 30
0.0
  9
$PEXTMAX
 10
297.0
 20
210.0
 30
0.0
  9
$PLIMMIN
 10
0.0
 20
0.0
  9
$PLIMMAX
 10
297.0
 20
210.0
  9
$UNITMODE
 70
     0
  9
$VISRETAIN
 70
     1
  9
$PLINEGEN
 70
     0
  9
$PSLTSCALE
 70
     1
  9
$TREEDEPTH
 70
  3020
  9
$CMLSTYLE
  2
Standard
  9
$CMLJUST
 70
     0
  9
$CMLSCALE
 40
20.0
  9
$PROXYGRAPHICS
 70
     1
  9
$MEASUREMENT
 70
     1
  9
$CELWEIGHT
370
    -1
  9
$ENDCAPS
280
     0
  9
$JOINSTYLE
280
     0
  9
$LWDISPLAY
290
     0
  9
$INSUNITS
 70
     4
  9
$HYPERLINKBASE
  1

  9
$STYLESHEET
  1

  9
$XEDIT
290
     1
  9
$CEPSNTYPE
380
     0
  9
$PSTYLEMODE
290
     1
  9
$FINGERPRINTGUID
  2
{83E7A4B1-5638-4066-A3EA-AA4A2C5F8679}
  9
$VERSIONGUID
  2
{FAEB1C32-E019-11D5-929B-00C0DF256EC4}
  9
$EXTNAMES
290
     1
  9
$PSVPSCALE
 40
0.0
  9
$OLESTARTUP
290
     0
  9
$SORTENTS
280
   127
  9
$INDEXCTL
280
     0
  9
$HIDETEXT
280
     1
  9
$XCLIPFRAME
290
     0
  9
$HALOGAP
280
     0
  9
$OBSCOLOR
 70
   257
  9
$OBSLTYPE
280
     0
  9
$INTERSECTIONDISPLAY
280
     0
  9
$INTERSECTIONCOLOR
 70
   257
  9
$DIMASSOC
280
     2
  9
$PROJECTNAME
  1

  9
$CAMERADISPLAY
290
     0
  9
$LENSLENGTH
 40
50.0
  9
$CAMERAHEIGHT
 40
0.0
  9
$STEPSPERSEC
 40
2.0
  9
$STEPSIZE
 40
6.0
  9
$3DDWFPREC
 40
2.0
  9
$PSOLWIDTH
 40
5.0
  9
$PSOLHEIGHT
 40
80.0
  9
$LOFTANG1
 40
1.5707963268
  9
$LOFTANG2
 40
1.5707963268
  9
$LOFTMAG1
 40
0.0
  9
$LOFTMAG2
 40
0.0
  9
$LOFTPARAM
 70
     7
  9
$LOFTNORMALS
280
     1
  9
$LATITUDE
 40
37.795
  9
$LONGITUDE
 40
-122.394
  9
$NORTHDIRECTION
 40
0.0
  9
$TIMEZONE
 70
 -8000
  9
$LIGHTGLYPHDISPLAY
280
     1
  9
$TILEMODELIGHTSYNCH
280
     1
  9
$CMATERIAL
347
44
  9
$SOLIDHIST
280
     0
  9
$SHOWHIST
280
     1
  9
$DWFFRAME
280
     2
  9
$DGNFRAME
280
     2
  9
$REALWORLDSCALE
290
     1
  9
$INTERFERECOLOR
 62
   256
  9
$CSHADOW
280
     0
  9
$SHADOWPLANELOCATION
 40
0.0
  0
ENDSEC
  0
SECTION
  2
CLASSES
  0
CLASS
  1
ACDBDICTIONARYWDFLT
  2
AcDbDictionaryWithDefault
  3
ObjectDBX Classes
 90
        0
 91
        4
280
     0
281
     0
  0
CLASS
  1
VISUALSTYLE
  2
AcDbVisualStyle
  3
ObjectDBX Classes
 90
     4095
 91
        4
280
     0
281
     0
  0
CLASS
  1
MATERIAL
  2
AcDbMaterial
  3
ObjectDBX Classes
 90
     1153
 91
        4
280
     0
281
     0
  0
CLASS
  1
SCALE
  2
AcDbScale
  3
ObjectDBX Classes
 90
     1153
 91
        4
280
     0
281
     0
  0
CLASS
  1
TABLESTYLE
  2
AcDbTableStyle
  3
ObjectDBX Classes
 90
     4095
 91
        4
280
     0
281
     0
  0
CLASS
  1
MLEADERSTYLE
  2
AcDbMLeaderStyle
  3
ACDB_MLEADERSTYLE_CLASS
 90
     4095
 91
        4
280
     0
281
     0
  0
CLASS
  1
SUN
  2
AcDbSun
  3
SCENEOE
 90
     1153
 91
        4
280
     0
281
     0
  0
CLASS
  1
DICTIONARYVAR
  2
AcDbDictionaryVar
  3
ObjectDBX Classes
 90
        0
 91
        4
280
     0
281
     0
  0
CLASS
  1
CELLSTYLEMAP
  2
AcDbCellStyleMap
  3
ObjectDBX Classes
 90
     1152
 91
        4
280
     0
281
     0
  0
ENDSEC
  0
SECTION
  2
TABLES
  0
TABLE
  2
VPORT
  5
8
330
0
100
AcDbSymbolTable
 70
     1
  0
VPORT
  5
29
330
8
100
AcDbSymbolTableRecord
100
AcDbViewportTableRecord
  2
*Active
 70
     0
 10
0.0
 20
0.0
 11
1.0
 21
1.0
 12
344.1869158879
 22
148.5
 13
0.0
 23
0.0
 14
10.0
 24
10.0
 15
10.0
 25
10.0
 16
0.0
 26
0.0
 36
1.0
 17
0.0
 27
0.0
 37
0.0
 40
297.0
 41
1.9729729729
 42
50.0
 43
0.0
 44
0.0
 50
0.0
 51
0.0
 71
     0
 72
   100
 73
     1
 74
     3
 75
     0
 76
     0
 77
     0
 78
     0
281
     0
 65
     1
110
0.0
120
0.0
130
0.0
111
1.0
121
0.0
131
0.0
112
0.0
122
1.0
132
0.0
 79
     0
146
0.0
348
2F
 60
     3
 61
     5
292
     1
282
     1
141
0.0
142
0.0
 63
   250
361
6D
  0
ENDTAB
  0
TABLE
  2
LTYPE
  5
5
330
0
100
AcDbSymbolTable
 70
     3
  0
LTYPE
  5
14
330
5
100
AcDbSymbolTableRecord
100
AcDbLinetypeTableRecord
  2
ByBlock
 70
     0
  3

 72
    65
 73
     0
 40
0.0
  0
LTYPE
  5
15
330
5
100
AcDbSymbolTableRecord
100
AcDbLinetypeTableRecord
  2
ByLayer
 70
     0
  3

 72
    65
 73
     0
 40
0.0
  0
LTYPE
  5
16
330
5
100
AcDbSymbolTableRecord
100
AcDbLinetypeTableRecord
  2
Continuous
 70
     0
  3
Solid line
 72
    65
 73
     0
 40
0.0
  0
LTYPE
  5
88
330
5
100
AcDbSymbolTableRecord
100
AcDbLinetypeTableRecord
  2
HIDDEN2
 70
     0
  3
Hidden (.5x) _ _ _ _ _ _ _ _ _ _ _ _ _ _ _ _ _ 
 72
    65
 73
     2
 40
4.7625
 49
3.175
 74
     4
 75
     0
340
0
 46
0.0
 50
0.0
 44
0.0
 45
0.0
 49
-1.5875
 74
     4
 75
     0
340
0
 46
0.0
 50
0.0
 44
0.0
 45
0.0
  0
LTYPE
  5
181
330
5
100
AcDbSymbolTableRecord
100
AcDbLinetypeTableRecord
  2
CENTER2
 70
     0
  3
Center (.5x) ___ _ ___ _ ___ _ ___ _ ___ _ ___
 72
    65
 73
     4
 40
28.575
 49
19.05
 74
     4
 75
     0
340
0
 46
0.0
 50
0.0
 44
0.0
 45
0.0
 49
-3.175
 74
     4
 75
     0
340
0
 46
0.0
 50
0.0
 44
0.0
 45
0.0
 49
3.175
 74
     4
 75
     0
340
0
 46
0.0
 50
0.0
 44
0.0
 45
0.0
 49
-3.175
 74
     4
 75
     0
340
0
 46
0.0
 50
0.0
 44
0.0
 45
0.0
  0
ENDTAB
  0
TABLE
  2
LAYER
  5
2
330
0
100
AcDbSymbolTable
 70
     5
  0
LAYER
  5
10
330
2
100
AcDbSymbolTableRecord
100
AcDbLayerTableRecord
  2
0
 70
     0
 62
     7
  6
Continuous
370
    -3
390
F
347
46
  0
LAYER
  5
6E
330
2
100
AcDbSymbolTableRecord
100
AcDbLayerTableRecord
  2
Default
 70
     0
 62
     7
  6
Continuous
370
    -3
390
F
347
46
  0
LAYER
  5
73
330
2
100
AcDbSymbolTableRecord
100
AcDbLayerTableRecord
  2
DV1_Default
 70
     0
 62
     7
  6
Continuous
370
    -3
390
F
347
46
  0
LAYER
  5
F7
330
2
100
AcDbSymbolTableRecord
100
AcDbLayerTableRecord
  2
DV2_Default
 70
     0
 62
     7
  6
Continuous
370
    -3
390
F
347
46
  0
LAYER
  5
157
330
2
100
AcDbSymbolTableRecord
100
AcDbLayerTableRecord
  2
DV3_Default
 70
     0
 62
     7
  6
Continuous
370
    -3
390
F
347
46
  0
ENDTAB
  0
TABLE
  2
STYLE
  5
3
330
0
100
AcDbSymbolTable
 70
     3
  0
STYLE
  5
11
330
3
100
AcDbSymbolTableRecord
100
AcDbTextStyleTableRecord
  2
Standard
 70
     0
 40
0.0
 41
1.0
 50
0.0
 71
     0
 42
5.0
  3
txt
  4

  0
STYLE
  5
19D
330
3
100
AcDbSymbolTableRecord
100
AcDbTextStyleTableRecord
  2
SEACAD_Arial
 70
     0
 40
0.0
 41
1.0
 50
0.0
 71
     0
 42
5.0
  3
arial.ttf
  4

1001
ACAD
1000
Arial
1071
        0
  0
STYLE
  5
1A0
330
3
100
AcDbSymbolTableRecord
100
AcDbTextStyleTableRecord
  2
SEACAD_Solid_Edge_ANSI1_Symbols
 70
     0
 40
0.0
 41
1.0
 50
0.0
 71
     0
 42
5.0
  3
semeca1.ttf
  4

1001
ACAD
1000
Solid Edge ANSI1 Symbols
1071
        0
  0
ENDTAB
  0
TABLE
  2
VIEW
  5
6
330
0
100
AcDbSymbolTable
 70
     0
  0
ENDTAB
  0
TABLE
  2
UCS
  5
7
330
0
100
AcDbSymbolTable
 70
     0
  0
ENDTAB
  0
TABLE
  2
APPID
  5
9
330
0
100
AcDbSymbolTable
 70
     3
  0
APPID
  5
12
330
9
100
AcDbSymbolTableRecord
100
AcDbRegAppTableRecord
  2
ACAD
 70
     0
  0
APPID
  5
1AB
330
9
100
AcDbSymbolTableRecord
100
AcDbRegAppTableRecord
  2
ACAD_DSTYLE_DIMINSPECT
 70
     0
  0
APPID
  5
213
330
9
100
AcDbSymbolTableRecord
100
AcDbRegAppTableRecord
  2
ACAD_MLEADERVER
 70
     0
  0
ENDTAB
  0
TABLE
  2
DIMSTYLE
  5
A
330
0
100
AcDbSymbolTable
 70
     3
100
AcDbDimStyleTable
  0
DIMSTYLE
105
27
330
A
100
AcDbSymbolTableRecord
100
AcDbDimStyleTableRecord
  2
ISO-25
 70
     0
 41
2.5
 42
0.625
 43
3.75
 44
1.25
 73
     0
 74
     0
 77
     1
 78
     8
140
2.5
141
2.5
143
0.0393700787
147
0.625
171
     3
172
     1
178
     0
271
     2
272
     2
274
     3
278
    44
283
     0
284
     8
340
11
  0
DIMSTYLE
105
18B
330
A
100
AcDbSymbolTableRecord
100
AcDbDimStyleTableRecord
  2
Standard
 70
     0
178
     0
340
11
  0
DIMSTYLE
105
19E
102
{ACAD_REACTORS
330
19F
330
1AC
330
1B6
330
1C0
330
1CA
330
1D3
102
}
330
A
100
AcDbSymbolTableRecord
100
AcDbDimStyleTableRecord
  2
Precise
 70
     0
 41
3.0
 42
1.5
 44
1.5
 73
     0
 74
     0
 77
     1
 78
     8
140
3.0
141
1.5
143
0.0393700787
146
0.5
147
0.75
172
     1
173
     1
178
     0
179
     4
271
     0
272
     3
283
     0
284
     8
340
19D
343
198
344
198
  0
ENDTAB
  0
TABLE
  2
BLOCK_RECORD
  5
1
330
0
100
AcDbSymbolTable
 70
    13
  0
BLOCK_RECORD
  5
1F
330
1
100
AcDbSymbolTableRecord
100
AcDbBlockTableRecord
  2
*Model_Space
340
22
 70
     0
280
     1
281
     0
  0
BLOCK_RECORD
  5
1B
330
1
100
AcDbSymbolTableRecord
100
AcDbBlockTableRecord
  2
*Paper_Space
340
1E
 70
     0
280
     1
281
     0
  0
BLOCK_RECORD
  5
71
330
1
100
AcDbSymbolTableRecord
100
AcDbBlockTableRecord
  2
SE
340
0
102
{BLKREFS
331
72
102
}
 70
     0
280
     1
281
     0
  0
BLOCK_RECORD
  5
F5
330
1
100
AcDbSymbolTableRecord
100
AcDbBlockTableRecord
  2
SE1
340
0
102
{BLKREFS
331
F6
102
}
 70
     0
280
     1
281
     0
  0
BLOCK_RECORD
  5
155
330
1
100
AcDbSymbolTableRecord
100
AcDbBlockTableRecord
  2
SE2
340
0
102
{BLKREFS
331
156
102
}
 70
     0
280
     1
281
     0
  0
BLOCK_RECORD
  5
18C
330
1
100
AcDbSymbolTableRecord
100
AcDbBlockTableRecord
  2
_OBLIQUE
340
0
 70
     0
280
     1
281
     0
  0
BLOCK_RECORD
  5
190
330
1
100
AcDbSymbolTableRecord
100
AcDbBlockTableRecord
  2
_DOT
340
0
 70
     0
280
     1
281
     0
  0
BLOCK_RECORD
  5
198
330
1
100
AcDbSymbolTableRecord
100
AcDbBlockTableRecord
  2
_SE_FILLED
340
0
 70
     0
280
     1
281
     0
  0
BLOCK_RECORD
  5
1A1
330
1
100
AcDbSymbolTableRecord
100
AcDbBlockTableRecord
  2
DMBLK43
340
0
 70
     0
280
     1
281
     0
  0
BLOCK_RECORD
  5
1AD
330
1
100
AcDbSymbolTableRecord
100
AcDbBlockTableRecord
  2
DMBLK44
340
0
 70
     0
280
     1
281
     0
  0
BLOCK_RECORD
  5
1B7
330
1
100
AcDbSymbolTableRecord
100
AcDbBlockTableRecord
  2
DMBLK45
340
0
 70
     0
280
     1
281
     0
  0
BLOCK_RECORD
  5
1C1
330
1
100
AcDbSymbolTableRecord
100
AcDbBlockTableRecord
  2
DMBLK46
340
0
 70
     0
280
     1
281
     0
  0
BLOCK_RECORD
  5
1CB
330
1
100
AcDbSymbolTableRecord
100
AcDbBlockTableRecord
  2
DMBLK47
340
0
 70
     0
280
     1
281
     0
  0
BLOCK_RECORD
  5
1D4
330
1
100
AcDbSymbolTableRecord
100
AcDbBlockTableRecord
  2
DMBLK48
340
0
 70
     0
280
     1
281
     0
  0
ENDTAB
  0
ENDSEC
  0
SECTION
  2
BLOCKS
  0
BLOCK
  5
20
330
1F
100
AcDbEntity
  8
0
100
AcDbBlockBegin
  2
*Model_Space
 70
     0
 10
0.0
 20
0.0
 30
0.0
  3
*Model_Space
  1

  0
ENDBLK
  5
21
330
1F
100
AcDbEntity
  8
0
100
AcDbBlockEnd
  0
BLOCK
  5
1C
330
1B
100
AcDbEntity
 67
     1
  8
0
100
AcDbBlockBegin
  2
*Paper_Space
 70
     0
 10
0.0
 20
0.0
 30
0.0
  3
*Paper_Space
  1

  0
ENDBLK
  5
1D
330
1B
100
AcDbEntity
 67
     1
  8
0
100
AcDbBlockEnd
  0
BLOCK
  5
F3
330
71
100
AcDbEntity
  8
0
100
AcDbBlockBegin
  2
SE
 70
     0
 10
0.0
 20
0.0
 30
0.0
  3
SE
  1

  0
LINE
  5
74
330
71
100
AcDbEntity
  8
DV1_Default
  6
Continuous
 62
     7
370
    18
100
AcDbLine
 10
231.5412434155
 20
91.3770055151
 30
0.0
 11
231.5412434155
 21
96.4392217414
 31
0.0
  0
LINE
  5
75
330
71
100
AcDbEntity
  8
DV1_Default
  6
Continuous
 62
     7
370
    18
100
AcDbLine
 10
125.4563654233
 20
91.3770055151
 30
0.0
 11
231.5412434155
 21
91.3770055151
 31
0.0
  0
LINE
  5
76
330
71
100
AcDbEntity
  8
DV1_Default
  6
Continuous
 62
     7
370
    18
100
AcDbLine
 10
125.4563654233
 20
96.4392217414
 30
0.0
 11
125.4563654233
 21
96.3523846048
 31
0.0
  0
LINE
  5
77
330
71
100
AcDbEntity
  8
DV1_Default
  6
Continuous
 62
     7
370
    18
100
AcDbLine
 10
125.4563654233
 20
85.3274877723
 30
0.0
 11
231.5412434155
 21
85.3274877723
 31
0.0
  0
LINE
  5
78
330
71
100
AcDbEntity
  8
DV1_Default
  6
Continuous
 62
     7
370
    18
100
AcDbLine
 10
231.5412434155
 20
85.3274877723
 30
0.0
 11
231.5412434155
 21
80.2652715461
 31
0.0
  0
SPLINE
  5
79
330
71
100
AcDbEntity
  8
DV1_Default
  6
Continuous
 62
     7
370
    18
100
AcDbSpline
210
0.0
220
0.0
230
1.0
 70
     8
 71
     3
 72
    26
 73
    22
 74
     0
 42
0.000000001
 43
0.0000000001
 40
0.0
 40
0.0
 40
0.0
 40
0.0
 40
0.062500000000001
 40
0.062500000000001
 40
0.125000000000003
 40
0.125000000000003
 40
0.250000000000001
 40
0.250000000000001
 40
0.5
 40
0.5
 40
0.5625
 40
0.5625
 40
0.625
 40
0.625
 40
0.749999999999999
 40
0.749999999999999
 40
0.874999999999998
 40
0.874999999999998
 40
0.937499999999999
 40
0.937499999999999
 40
1.0
 40
1.0
 40
1.0
 40
1.0
 10
231.5412434154558
 20
91.37700551514794
 30
0.0
 10
231.5866561292909
 20
91.25559038702863
 30
0.0
 10
231.6302023422398
 20
91.1328414900312
 30
0.0
 10
231.7123765660097
 20
90.88680750534645
 30
0.0
 10
231.7510716212943
 20
90.76336418712677
 30
0.0
 10
231.859495079231
 20
90.39166871948234
 30
0.0
 10
231.9215579590411
 20
90.14205037715473
 30
0.0
 10
232.0732408996006
 20
89.38704554905881
 30
0.0
 10
232.1280876571111
 20
88.87546156821107
 30
0.0
 10
232.1282509328534
 20
88.22379181731979
 30
0.0
 10
232.1248654639241
 20
88.0933414449522
 30
0.0
 10
232.111470740218
 20
87.83434510627853
 30
0.0
 10
232.1014638759011
 20
87.70547450106712
 30
0.0
 10
232.0619093803684
 20
87.32067055090528
 30
0.0
 10
232.0228184615895
 20
87.06654685105366
 30
0.0
 10
231.9216180445738
 20
86.56266434753738
 30
0.0
 10
231.8595168505256
 20
86.31290396919168
 30
0.0
 10
231.7510817655936
 20
85.94116149498144
 30
0.0
 10
231.7123902803254
 20
85.81773020859703
 30
0.0
 10
231.6302432831739
 20
85.57177101397302
 30
0.0
 10
231.5866970995239
 20
85.44901243820858
 30
0.0
 10
231.5412434154558
 20
85.32748777234819
 30
0.0
  0
SPLINE
  5
7A
330
71
100
AcDbEntity
  8
DV1_Default
  6
Continuous
 62
     7
370
    18
100
AcDbSpline
210
0.0
220
0.0
230
1.0
 70
     8
 71
     3
 72
    28
 73
    24
 74
     0
 42
0.000000001
 43
0.0000000001
 40
0.0
 40
0.0
 40
0.0
 40
0.0
 40
0.125000000000001
 40
0.125000000000001
 40
0.250000000000002
 40
0.250000000000002
 40
0.375000000000003
 40
0.375000000000003
 40
0.437500000000004
 40
0.437500000000004
 40
0.500000000000004
 40
0.500000000000004
 40
0.531250000000004
 40
0.531250000000004
 40
0.562500000000004
 40
0.562500000000004
 40
0.625000000000003
 40
0.625000000000003
 40
0.750000000000002
 40
0.750000000000002
 40
0.875000000000001
 40
0.875000000000001
 40
1.0
 40
1.0
 40
1.0
 40
1.0
 10
125.4563654232854
 20
91.37700551514794
 30
0.0
 10
125.3254190138112
 20
91.14451144456395
 30
0.0
 10
125.1999052898925
 20
90.90837618462521
 30
0.0
 10
124.9682822583062
 20
90.42592690325654
 30
0.0
 10
124.8629409830323
 20
90.18117750282106
 30
0.0
 10
124.6838138391307
 20
89.68105571510706
 30
0.0
 10
124.6100530608825
 20
89.42567488126429
 30
0.0
 10
124.532905418676
 20
89.03132818470566
 30
0.0
 10
124.5128150180276
 20
88.89771999740192
 30
0.0
 10
124.4857899908927
 20
88.63048396205822
 30
0.0
 10
124.4787442579815
 20
88.49639838377047
 30
0.0
 10
124.4782665623453
 20
88.29454042468974
 30
0.0
 10
124.4798109311698
 20
88.22623606798211
 30
0.0
 10
124.4862808464148
 20
88.0908460157098
 30
0.0
 10
124.4911893844096
 20
88.02353641930627
 30
0.0
 10
124.5107084479578
 20
87.82271157348227
 30
0.0
 10
124.5301170749865
 20
87.6903013387951
 30
0.0
 10
124.6054707476305
 20
87.29701520783581
 30
0.0
 10
124.6785285126816
 20
87.04008041351854
 30
0.0
 10
124.8584734995249
 20
86.53400183312188
 30
0.0
 10
124.9657476142588
 20
86.28412976599198
 30
0.0
 10
125.1986491008237
 20
85.79845425511765
 30
0.0
 10
125.324679495183
 20
85.56129485103088
 30
0.0
 10
125.4563654232854
 20
85.32748777234819
 30
0.0
  0
LINE
  5
7B
330
71
100
AcDbEntity
  8
DV1_Default
  6
Continuous
 62
     7
370
    18
100
AcDbLine
 10
231.5412434155
 20
80.2652715461
 30
0.0
 11
122.543478482
 21
80.2652715461
 31
0.0
  0
LINE
  5
7C
330
71
100
AcDbEntity
  8
DV1_Default
  6
Continuous
 62
     7
370
    18
100
AcDbLine
 10
122.543478482
 20
96.4392217414
 30
0.0
 11
231.5412434155
 21
96.4392217414
 31
0.0
  0
LINE
  5
7D
330
71
100
AcDbEntity
  8
DV1_Default
  6
Continuous
 62
     7
370
    18
100
AcDbLine
 10
86.7177044018
 20
93.0155729167
 30
0.0
 11
86.7177044018
 21
93.1967462483
 31
0.0
  0
LINE
  5
7E
330
71
100
AcDbEntity
  8
DV1_Default
  6
Continuous
 62
     7
370
    18
100
AcDbLine
 10
87.0988125573
 20
93.1967462483
 30
0.0
 11
86.7177044018
 21
93.1967462483
 31
0.0
  0
ELLIPSE
  5
7F
330
71
100
AcDbEntity
  8
DV1_Default
  6
Continuous
 62
     7
370
    18
100
AcDbEllipse
 10
87.0988125573
 20
93.2450425396
 30
0.0
 11
-0.0499999999999997
 21
-8.673617379884035E-16
 31
0.0
210
0.0
220
0.0
230
1.0
 40
0.9659258263
 41
1.57079632679488
 42
3.665191429187648
  0
ELLIPSE
  5
80
330
71
100
AcDbEntity
  8
DV1_Default
  6
Continuous
 62
     7
370
    18
100
AcDbEllipse
 10
86.0595820728
 20
93.8245980353
 30
0.0
 11
0.9250000000000733
 21
-7.502679033599691E-13
 31
0.0
210
0.0
220
0.0
230
1.0
 40
0.9659258263
 41
4.96797929698784
 42
5.503996214979782
  0
LINE
  5
81
330
71
100
AcDbEntity
  8
DV1_Default
  6
Continuous
 62
     7
370
    18
100
AcDbLine
 10
86.2934374207
 20
92.7789687521
 30
0.0
 11
86.2934374207
 21
92.9601420837
 31
0.0
  0
LINE
  5
82
330
71
100
AcDbEntity
  8
DV1_Default
  6
Continuous
 62
     7
370
    18
100
AcDbLine
 10
87.1421138275
 20
93.2691906852
 30
0.0
 11
86.9515597497
 21
93.5879938708
 31
0.0
  0
LINE
  5
83
330
71
100
AcDbEntity
  8
DV1_Default
  6
Continuous
 62
     7
370
    18
100
AcDbLine
 10
86.1028833429
 20
92.6413388981
 30
0.0
 11
86.2934374207
 21
92.9601420837
 31
0.0
  0
ELLIPSE
  5
84
330
71
100
AcDbEntity
  8
DV1_Default
  6
Continuous
 62
     7
370
    18
100
AcDbEllipse
 10
86.0595820728
 20
93.8245980353
 30
0.0
 11
-0.9249999999998777
 21
2.688821387764051E-14
 31
0.0
210
0.0
220
0.0
230
1.0
 40
0.9659258263
 41
2.873584194593882
 42
3.409601112585818
  0
SPLINE
  5
85
330
71
100
AcDbEntity
  8
DV1_Default
  6
Continuous
 62
     7
370
    18
100
AcDbSpline
210
0.0
220
0.0
230
1.0
 70
     8
 71
     3
 72
     8
 73
     4
 74
     0
 42
0.000000001
 43
0.0000000001
 40
0.0
 40
0.0
 40
0.0
 40
0.0
 40
0.9999999999999999
 40
0.9999999999999999
 40
0.9999999999999999
 40
0.9999999999999999
 10
87.13732336762236
 20
94.186283863063
 30
0.0
 10
87.13968520538297
 20
94.19075406370946
 30
0.0
 10
87.1408995164364
 20
94.1947930587999
 30
0.0
 10
87.14211382748984
 20
94.19883205389037
 30
0.0
  0
SPLINE
  5
86
330
71
100
AcDbEntity
  8
DV1_Default
  6
Continuous
 62
     7
370
    18
100
AcDbSpline
210
0.0
220
0.0
230
1.0
 70
    12
 71
     3
 72
     8
 73
     4
 74
     0
 42
0.000000001
 43
0.0000000001
 40
0.0
 40
0.0
 40
0.0
 40
0.0
 40
1.0
 40
1.0
 40
1.0
 40
1.0
 10
84.98134055654131
 20
94.18647824743087
 30
0.0
 41
1.0
 10
84.9784866785429
 20
94.19122498489932
 30
0.0
 41
1.0
 10
84.97705031818381
 20
94.19535616226693
 30
0.0
 41
1.0
 10
84.97705031802873
 20
94.19883205389043
 30
0.0
 41
1.0
  0
SPLINE
  5
87
330
71
100
AcDbEntity
  8
DV1_Default
  6
Continuous
 62
     7
370
    18
100
AcDbSpline
210
0.0
220
0.0
230
1.0
 70
    12
 71
     3
 72
    10
 73
     6
 74
     0
 42
0.000000001
 43
0.0000000001
 40
0.0
 40
0.0
 40
0.0
 40
0.0
 40
0.2554186517309712
 40
0.2554186517309712
 40
1.0
 40
1.0
 40
1.0
 40
1.0
 10
85.03532172386758
 20
93.00535215418519
 30
0.0
 41
1.0
 10
85.03278721618376
 20
93.00533902076822
 30
0.0
 41
1.0
 10
85.03056844371378
 20
93.00555246536696
 30
0.0
 41
1.0
 10
85.0231428393802
 20
93.00727717196736
 30
0.0
 41
1.0
 10
85.02035158867136
 20
93.01049096793089
 30
0.0
 41
1.0
 10
85.0203515882179
 20
93.01557291668632
 30
0.0
 41
1.0
  0
ARC
  5
89
330
71
100
AcDbEntity
  8
DV1_Default
  6
HIDDEN2
 62
     7
370
    13
100
AcDbCircle
 10
81.013963673
 20
93.1700983366
 30
0.0
 40
5.053407465448449
100
AcDbArc
 50
353.7747709191
 51
353.7852687134
  0
ARC
  5
8A
330
71
100
AcDbEntity
  8
DV1_Default
  6
Continuous
 62
     7
370
    18
100
AcDbCircle
 10
81.013963673
 20
93.1700983366
 30
0.0
 40
5.053407465448449
100
AcDbArc
 50
351.9103558572
 51
351.9125738018
  0
ARC
  5
8B
330
71
100
AcDbEntity
  8
DV1_Default
  6
HIDDEN2
 62
     7
370
    13
100
AcDbCircle
 10
91.2753404857
 20
93.1827708978
 30
0.0
 40
5.223989555274974
100
AcDbArc
 50
186.14343847
 51
186.1613067088
  0
ARC
  5
8C
330
71
100
AcDbEntity
  8
DV1_Default
  6
Continuous
 62
     7
370
    18
100
AcDbCircle
 10
91.2753404857
 20
93.1827708978
 30
0.0
 40
5.223989555274974
100
AcDbArc
 50
188.0124410374
 51
188.0163287085
  0
ELLIPSE
  5
8D
330
71
100
AcDbEntity
  8
DV1_Default
  6
Continuous
 62
     7
370
    18
100
AcDbEllipse
 10
86.0595820728
 20
92.6654870438
 30
0.0
 11
0.05000000000000013
 21
4.336808689942018E-15
 31
0.0
210
0.0
220
0.0
230
1.0
 40
0.9659258263
 41
3.665191429187596
 42
5.759586531581617
  0
LINE
  5
8E
330
71
100
AcDbEntity
  8
DV1_Default
  6
Continuous
 62
     7
370
    18
100
AcDbLine
 10
87.1421138275
 20
94.3800053855
 30
0.0
 11
86.9515597497
 21
94.0612021999
 31
0.0
  0
ELLIPSE
  5
8F
330
71
100
AcDbEntity
  8
DV1_Default
  6
Continuous
 62
     7
370
    18
100
AcDbEllipse
 10
87.0988125573
 20
94.2229801995
 30
0.0
 11
-0.0499999999999997
 21
8.673617379884035E-16
 31
0.0
210
0.0
220
0.0
230
1.0
 40
0.9659258263
 41
2.617993877993075
 42
3.141592653589793
  0
LINE
  5
90
330
71
100
AcDbEntity
  8
DV1_Default
  6
Continuous
 62
     7
370
    18
100
AcDbLine
 10
87.0988125573
 20
94.4524498224
 30
0.0
 11
86.7177044018
 21
94.4524498224
 31
0.0
  0
ELLIPSE
  5
91
330
71
100
AcDbEntity
  8
DV1_Default
  6
Continuous
 62
     7
370
    18
100
AcDbEllipse
 10
86.0595820728
 20
93.8245980353
 30
0.0
 11
0.9249999999999944
 21
-1.665334536937735E-13
 31
0.0
210
0.0
220
0.0
230
1.0
 40
0.9659258263
 41
0.7791890922007845
 42
1.315206010192713
  0
LINE
  5
92
330
71
100
AcDbEntity
  8
DV1_Default
  6
Continuous
 62
     7
370
    18
100
AcDbLine
 10
86.1028833429
 20
95.0078571726
 30
0.0
 11
86.2934374207
 21
94.689053987
 31
0.0
  0
LINE
  5
93
330
71
100
AcDbEntity
  8
DV1_Default
  6
Continuous
 62
     7
370
    18
100
AcDbLine
 10
86.0162808026
 20
95.0078571726
 30
0.0
 11
85.8257267248
 21
94.689053987
 31
0.0
  0
ELLIPSE
  5
94
330
71
100
AcDbEntity
  8
DV1_Default
  6
Continuous
 62
     7
370
    18
100
AcDbEllipse
 10
86.0595820728
 20
93.8245980353
 30
0.0
 11
-0.9249999999998929
 21
-1.358288481689840E-12
 31
0.0
210
0.0
220
0.0
230
1.0
 40
0.9659258263
 41
4.967979296985515
 42
5.503996214977493
  0
LINE
  5
95
330
71
100
AcDbEntity
  8
DV1_Default
  6
Continuous
 62
     7
370
    18
100
AcDbLine
 10
85.0203515882
 20
94.4524498224
 30
0.0
 11
85.4014597437
 21
94.4524498224
 31
0.0
  0
ELLIPSE
  5
96
330
71
100
AcDbEntity
  8
DV1_Default
  6
Continuous
 62
     7
370
    18
100
AcDbEllipse
 10
85.0203515882
 20
94.2229801995
 30
0.0
 11
0.0499999999999997
 21
-1.994931997373328E-14
 31
0.0
210
0.0
220
0.0
230
1.0
 40
0.9659258263
 41
3.141592653589793
 42
3.665191429189187
  0
LINE
  5
97
330
71
100
AcDbEntity
  8
DV1_Default
  6
Continuous
 62
     7
370
    18
100
AcDbLine
 10
84.977050318
 20
94.3800053855
 30
0.0
 11
85.1676043958
 21
94.0612021999
 31
0.0
  0
LINE
  5
98
330
71
100
AcDbEntity
  8
DV1_Default
  6
Continuous
 62
     7
370
    18
100
AcDbLine
 10
85.1676043958
 20
94.0497707826
 30
0.0
 11
85.1676043958
 21
94.0612021999
 31
0.0
  0
ELLIPSE
  5
99
330
71
100
AcDbEntity
  8
DV1_Default
  6
Continuous
 62
     7
370
    18
100
AcDbEllipse
 10
86.0595820728
 20
93.8245980353
 30
0.0
 11
0.9250000000000373
 21
8.066464163292153E-14
 31
0.0
210
0.0
220
0.0
230
1.0
 40
0.9659258263
 41
2.873584194593722
 42
3.40960111258558
  0
LINE
  5
9A
330
71
100
AcDbEntity
  8
DV1_Default
  6
Continuous
 62
     7
370
    18
100
AcDbLine
 10
84.977050318
 20
93.2691906852
 30
0.0
 11
85.1676043958
 21
93.5879938708
 31
0.0
  0
LINE
  5
9B
330
71
100
AcDbEntity
  8
DV1_Default
  6
Continuous
 62
     7
370
    18
100
AcDbLine
 10
85.0203515882
 20
93.1967462483
 30
0.0
 11
85.4014597437
 21
93.1967462483
 31
0.0
  0
LINE
  5
9C
330
71
100
AcDbEntity
  8
DV1_Default
  6
Continuous
 62
     7
370
    18
100
AcDbLine
 10
85.4014597437
 20
93.0155729167
 30
0.0
 11
85.4014597437
 21
93.1967462483
 31
0.0
  0
ELLIPSE
  5
9D
330
71
100
AcDbEntity
  8
DV1_Default
  6
Continuous
 62
     7
370
    18
100
AcDbEllipse
 10
86.0595820728
 20
93.8245980353
 30
0.0
 11
-0.9249999999999753
 21
6.080205783298709E-13
 31
0.0
210
0.0
220
0.0
230
1.0
 40
0.9659258263
 41
0.7791890922012463
 42
1.315206010193168
  0
LINE
  5
9E
330
71
100
AcDbEntity
  8
DV1_Default
  6
Continuous
 62
     7
370
    18
100
AcDbLine
 10
85.8257267248
 20
92.7789687521
 30
0.0
 11
85.8257267248
 21
92.9601420837
 31
0.0
  0
LINE
  5
9F
330
71
100
AcDbEntity
  8
DV1_Default
  6
Continuous
 62
     7
370
    18
100
AcDbLine
 10
86.0162808026
 20
92.6413388981
 30
0.0
 11
85.8257267248
 21
92.9601420837
 31
0.0
  0
ELLIPSE
  5
A0
330
71
100
AcDbEntity
  8
DV1_Default
  6
Continuous
 62
     7
370
    18
100
AcDbEllipse
 10
87.0988125573
 20
94.4041535311
 30
0.0
 11
-0.0499999999999997
 21
-2.602085213965211E-15
 31
0.0
210
0.0
220
0.0
230
1.0
 40
0.9659258263
 41
2.617993877991871
 42
4.712388980384639
  0
ELLIPSE
  5
A1
330
71
100
AcDbEntity
  8
DV1_Default
  6
Continuous
 62
     7
370
    18
100
AcDbEllipse
 10
86.0595820728
 20
94.9837090269
 30
0.0
 11
-0.05000000000000013
 21
2.602085213965211E-15
 31
0.0
210
0.0
220
0.0
230
1.0
 40
0.9659258263
 41
3.665191429188866
 42
5.75958653158175
  0
ELLIPSE
  5
A2
330
71
100
AcDbEntity
  8
DV1_Default
  6
Continuous
 62
     7
370
    18
100
AcDbEllipse
 10
85.0203515882
 20
94.4041535311
 30
0.0
 11
0.05000000000000013
 21
-3.469446951953614E-15
 31
0.0
210
0.0
220
0.0
230
1.0
 40
0.9659258263
 41
1.570796326794964
 42
3.665191429188883
  0
ELLIPSE
  5
A3
330
71
100
AcDbEntity
  8
DV1_Default
  6
Continuous
 62
     7
370
    18
100
AcDbEllipse
 10
85.0203515882
 20
93.2450425396
 30
0.0
 11
0.0499999999999997
 21
4.336808689942018E-15
 31
0.0
210
0.0
220
0.0
230
1.0
 40
0.9659258263
 41
2.61799387799127
 42
4.712388980384606
  0
LINE
  5
A4
330
71
100
AcDbEntity
  8
DV1_Default
  6
Continuous
 62
     7
370
    18
100
AcDbLine
 10
87.1488125573
 20
93.2450425396
 30
0.0
 11
87.1488125573
 21
93.063869208
 31
0.0
  0
LINE
  5
A5
330
71
100
AcDbEntity
  8
DV1_Default
  6
Continuous
 62
     7
370
    18
100
AcDbLine
 10
87.0822635322
 20
93.0053506646
 30
0.0
 11
86.7125267973
 21
93.0053506646
 31
0.0
  0
SPLINE
  5
A6
330
71
100
AcDbEntity
  8
DV1_Default
  6
HIDDEN2
 62
     7
370
    13
100
AcDbSpline
210
0.0
220
0.0
230
1.0
 70
     8
 71
     3
 72
     8
 73
     4
 74
     0
 42
0.000000001
 43
0.0000000001
 40
0.0
 40
0.0
 40
0.0
 40
0.0
 40
1.0
 40
1.0
 40
1.0
 40
1.0
 10
87.14881023242789
 20
93.06433494239998
 30
0.0
 10
87.14808498724567
 20
93.05728073773759
 30
0.0
 10
87.14728986292303
 20
93.05101599766617
 30
0.0
 10
87.14550849723979
 20
93.04516217640548
 30
0.0
  0
SPLINE
  5
A7
330
71
100
AcDbEntity
  8
DV1_Default
  6
Continuous
 62
     7
370
    18
100
AcDbSpline
210
0.0
220
0.0
230
1.0
 70
     8
 71
     3
 72
    11
 73
     7
 74
     0
 42
0.000000001
 43
0.0000000001
 40
0.0
 40
0.0
 40
0.0
 40
0.0
 40
0.0758130849250448
 40
0.4069139392062466
 40
0.7187348103493184
 40
1.0
 40
1.0
 40
1.0
 40
1.0
 10
87.14550849723979
 20
93.04516217640548
 30
0.0
 10
87.14496913046241
 20
93.04338974038158
 30
0.0
 10
87.14158887752626
 20
93.0340786870381
 30
0.0
 10
87.12972324204755
 20
93.0190147378964
 30
0.0
 10
87.10789503922946
 20
93.00737574176297
 30
0.0
 10
87.09347793920952
 20
93.00595018904319
 30
0.0
 10
87.08541258672382
 20
93.00537438545888
 30
0.0
  0
ARC
  5
A8
330
71
100
AcDbEntity
  8
DV1_Default
  6
Continuous
 62
     7
370
    18
100
AcDbCircle
 10
86.0780602499
 20
93.6495464987
 30
0.0
 40
0.9050115454462925
100
AcDbArc
 50
283.2679081717
 51
314.8408186664
  0
LINE
  5
A9
330
71
100
AcDbEntity
  8
DV1_Default
  6
Continuous
 62
     7
370
    18
100
AcDbLine
 10
87.1371108263
 20
94.1852837257
 30
0.0
 11
86.9791761633
 21
93.9210538846
 31
0.0
  0
LINE
  5
AA
330
71
100
AcDbEntity
  8
DV1_Default
  6
Continuous
 62
     7
370
    18
100
AcDbLine
 10
85.1399879822
 20
93.9210538847
 30
0.0
 11
84.9820538711
 21
94.1852828024
 31
0.0
  0
LINE
  5
AB
330
71
100
AcDbEntity
  8
DV1_Default
  6
Continuous
 62
     7
370
    18
100
AcDbLine
 10
85.4066373482
 20
93.0053506646
 30
0.0
 11
85.0369034108
 21
93.0053506646
 31
0.0
  0
ARC
  5
AC
330
71
100
AcDbEntity
  8
DV1_Default
  6
Continuous
 62
     7
370
    18
100
AcDbCircle
 10
86.0436571124
 20
93.6487921954
 30
0.0
 40
0.9055586995793694
100
AcDbArc
 50
225.016517863
 51
256.5660613136
  0
LINE
  5
AD
330
71
100
AcDbEntity
  8
DV1_Default
  6
Continuous
 62
     7
370
    18
100
AcDbLine
 10
86.0158792855
 20
92.4556591737
 30
0.0
 11
85.8267127518
 21
92.7721409529
 31
0.0
  0
LINE
  5
AE
330
71
100
AcDbEntity
  8
DV1_Default
  6
Continuous
 62
     7
370
    18
100
AcDbLine
 10
86.2924513937
 20
92.7721409529
 30
0.0
 11
86.1032854119
 21
92.455660097
 31
0.0
  0
ARC
  5
AF
330
71
100
AcDbEntity
  8
DV1_Default
  6
HIDDEN2
 62
     7
370
    13
100
AcDbCircle
 10
86.2244688887
 20
93.6289116777
 30
0.0
 40
0.7595570417304481
100
AcDbArc
 50
353.4310697619
 51
353.495797347
  0
ARC
  5
B0
330
71
100
AcDbEntity
  8
DV1_Default
  6
HIDDEN2
 62
     7
370
    13
100
AcDbCircle
 10
87.0742171289
 20
94.2255500749
 30
0.0
 40
0.0746556423519432
100
AcDbArc
 50
350.6510971018
 51
357.6496232839
  0
ARC
  5
B1
330
71
100
AcDbEntity
  8
DV1_Default
  6
Continuous
 62
     7
370
    18
100
AcDbCircle
 10
87.0742171289
 20
94.2255500749
 30
0.0
 40
0.0746556423519432
100
AcDbArc
 50
326.0116990067
 51
350.6510971018
  0
ARC
  5
B2
330
71
100
AcDbEntity
  8
DV1_Default
  6
Continuous
 62
     7
370
    18
100
AcDbCircle
 10
85.0449470167
 20
94.2255500749
 30
0.0
 40
0.0746556423521735
100
AcDbArc
 50
185.1352386659
 51
213.9883009933
  0
ARC
  5
B3
330
71
100
AcDbEntity
  8
DV1_Default
  6
HIDDEN2
 62
     7
370
    13
100
AcDbCircle
 10
85.0449470167
 20
94.2255500749
 30
0.0
 40
0.0746556423521735
100
AcDbArc
 50
182.3503767162
 51
185.1352386659
  0
SPLINE
  5
B4
330
71
100
AcDbEntity
  8
DV1_Default
  6
Continuous
 62
     7
370
    18
100
AcDbSpline
210
0.0
220
0.0
230
1.0
 70
     8
 71
     3
 72
    11
 73
     7
 74
     0
 42
0.000000001
 43
0.0000000001
 40
0.0
 40
0.0
 40
0.0
 40
0.0
 40
0.2734405838126491
 40
0.5765868108881836
 40
0.8984766651140367
 40
1.0
 40
1.0
 40
1.0
 40
1.0
 10
85.03375155879468
 20
93.00537438545895
 30
0.0
 10
85.02568620630898
 20
93.00595018904326
 30
0.0
 10
85.011269106289
 20
93.00737574176304
 30
0.0
 10
84.98944090347089
 20
93.0190147378965
 30
0.0
 10
84.97710285501454
 20
93.03467843621148
 30
0.0
 10
84.97373610155626
 20
93.04470317136743
 30
0.0
 10
84.97308217784374
 20
93.0471858413191
 30
0.0
  0
SPLINE
  5
B5
330
71
100
AcDbEntity
  8
DV1_Default
  6
HIDDEN2
 62
     7
370
    13
100
AcDbSpline
210
0.0
220
0.0
230
1.0
 70
     8
 71
     3
 72
     8
 73
     4
 74
     0
 42
0.000000001
 43
0.0000000001
 40
0.0
 40
0.0
 40
0.0
 40
0.0
 40
1.0
 40
1.0
 40
1.0
 40
1.0
 10
84.97308217784374
 20
93.0471858413191
 30
0.0
 10
84.97169345488234
 20
93.0524582312041
 30
0.0
 10
84.97099627416046
 20
93.05808692233052
 30
0.0
 10
84.97035391309059
 20
93.06433494240002
 30
0.0
  0
ARC
  5
B6
330
71
100
AcDbEntity
  8
DV1_Default
  6
Continuous
 62
     7
370
    18
100
AcDbCircle
 10
86.0595820728
 20
92.4803903897
 30
0.0
 40
0.0501035997395257
100
AcDbArc
 50
211.4227661158
 51
328.5772338842
  0
LINE
  5
B7
330
71
100
AcDbEntity
  8
DV1_Default
  6
Continuous
 62
     7
370
    18
100
AcDbLine
 10
87.1488125573
 20
94.4041535311
 30
0.0
 11
87.1488125573
 21
94.2229801995
 31
0.0
  0
LINE
  5
B8
330
71
100
AcDbEntity
  8
DV1_Default
  6
Continuous
 62
     7
370
    18
100
AcDbLine
 10
84.9703515882
 20
94.2229801995
 30
0.0
 11
84.9703515882
 21
94.4041535311
 31
0.0
  0
LINE
  5
B9
330
71
100
AcDbEntity
  8
DV1_Default
  6
Continuous
 62
     7
370
    18
100
AcDbLine
 10
84.9703515882
 20
93.063869208
 30
0.0
 11
84.9703515882
 21
93.2450425396
 31
0.0
  0
ELLIPSE
  5
BA
330
71
100
AcDbEntity
  8
DV1_Default
  6
Continuous
 62
     7
370
    18
100
AcDbEllipse
 10
82.7412434163
 20
99.1590614818
 30
0.0
 11
0.2000000000000008
 21
3.957337929572091E-15
 31
0.0
210
0.0
220
0.0
230
1.0
 40
0.9659258263
 41
1.021017612416554
 42
3.202679177410245
  0
LINE
  5
BB
330
71
100
AcDbEntity
  8
DV1_Default
  6
Continuous
 62
     7
370
    18
100
AcDbLine
 10
82.8457431293
 20
99.3237789129
 30
0.0
 11
89.1277590081
 21
95.6053273977
 31
0.0
  0
LINE
  5
BC
330
71
100
AcDbEntity
  8
DV1_Default
  6
Continuous
 62
     7
370
    18
100
AcDbLine
 10
82.5416164566
 20
99.1472678096
 30
0.0
 11
82.9914051374
 21
92.043868673
 31
0.0
  0
LINE
  5
BD
330
71
100
AcDbEntity
  8
DV1_Default
  6
Continuous
 62
     7
370
    18
100
AcDbLine
 10
89.5024999811
 20
88.3390049747
 30
0.0
 11
89.5775476889
 21
88.5019282611
 31
0.0
  0
LINE
  5
BE
330
71
100
AcDbEntity
  8
DV1_Default
  6
Continuous
 62
     7
370
    18
100
AcDbLine
 10
89.5775476889
 20
88.5019282611
 30
0.0
 11
89.1277590081
 21
95.6053273977
 31
0.0
  0
LINE
  5
BF
330
71
100
AcDbEntity
  8
DV1_Default
  6
Continuous
 62
     7
370
    18
100
AcDbLine
 10
89.2734210163
 20
88.3254171578
 30
0.0
 11
82.9914051374
 21
92.043868673
 31
0.0
  0
ELLIPSE
  5
C0
330
71
100
AcDbEntity
  8
DV1_Default
  6
Continuous
 62
     7
370
    18
100
AcDbEllipse
 10
89.3779207292
 20
88.4901345889
 30
0.0
 11
-0.2000000000000014
 21
-5.377642775528102E-14
 31
0.0
210
0.0
220
0.0
230
1.0
 40
0.9659258263
 41
1.021017612416481
 42
3.20267917740889
  0
LINE
  5
C1
330
71
100
AcDbEntity
  8
DV1_Default
  6
Continuous
 62
     7
370
    18
100
AcDbLine
 10
89.4346009087
 20
90.7594506893
 30
0.0
 11
90.3032896357
 21
89.362972321
 31
0.0
  0
LINE
  5
C2
330
71
100
AcDbEntity
  8
DV1_Default
  6
Continuous
 62
     7
370
    18
100
AcDbLine
 10
89.5000558434
 20
90.8676537161
 30
0.0
 11
89.4290251174
 21
90.8475077546
 31
0.0
  0
SPLINE
  5
C3
330
71
100
AcDbEntity
  8
DV1_Default
  6
Continuous
 62
     7
370
    18
100
AcDbSpline
210
0.0
220
0.0
230
1.0
 70
    12
 71
     2
 72
     6
 73
     3
 74
     0
 42
0.000000001
 43
0.0000000001
 40
0.0
 40
0.0
 40
0.0
 40
1.0
 40
1.0
 40
1.0
 10
89.19554399747928
 20
94.53481263276518
 30
0.0
 41
1.0
 10
89.2337109143217
 20
94.50522038541405
 30
0.0
 41
1.0
 10
89.27162894206825
 20
94.47514212784016
 30
0.0
 41
1.0
  0
LINE
  5
C4
330
71
100
AcDbEntity
  8
DV1_Default
  6
Continuous
 62
     7
370
    18
100
AcDbLine
 10
89.6447840618
 20
94.3404377637
 30
0.0
 11
89.1901639823
 21
94.6147346809
 31
0.0
  0
LINE
  5
C5
330
71
100
AcDbEntity
  8
DV1_Default
  6
Continuous
 62
     7
370
    18
100
AcDbLine
 10
89.6447840618
 20
94.2384156157
 30
0.0
 11
89.6447840618
 21
94.3404377637
 31
0.0
  0
ELLIPSE
  5
C6
330
71
100
AcDbEntity
  8
DV1_Default
  6
Continuous
 62
     7
370
    18
100
AcDbEllipse
 10
89.1889721517
 20
88.7162371584
 30
0.0
 11
-1.300000000000001
 21
-1.908195823574488E-14
 31
0.0
210
0.0
220
0.0
230
1.0
 40
0.9659258263
 41
0.541052078424177
 42
3.682644732013949
  0
LINE
  5
C7
330
71
100
AcDbEntity
  8
DV1_Default
  6
Continuous
 62
     7
370
    18
100
AcDbLine
 10
88.0746546677
 20
88.0695019958
 30
0.0
 11
87.1594058302
 21
89.5408290241
 31
0.0
  0
LINE
  5
C8
330
71
100
AcDbEntity
  8
DV1_Default
  6
Continuous
 62
     7
370
    18
100
AcDbLine
 10
87.1581315267
 20
89.541672548
 30
0.0
 11
87.0999874902
 21
89.4746855549
 31
0.0
  0
LINE
  5
C9
330
71
100
AcDbEntity
  8
DV1_Default
  6
Continuous
 62
     7
370
    18
100
AcDbLine
 10
90.3890063653
 20
89.4386030842
 30
0.0
 11
89.5000558434
 21
90.8676537161
 31
0.0
  0
LINE
  5
CA
330
71
100
AcDbEntity
  8
DV1_Default
  6
Continuous
 62
     7
370
    18
100
AcDbLine
 10
89.5000558434
 20
90.8676537161
 30
0.0
 11
89.2716289421
 21
94.4751421278
 31
0.0
  0
LINE
  5
CB
330
71
100
AcDbEntity
  8
DV1_Default
  6
Continuous
 62
     7
370
    18
100
AcDbLine
 10
89.6447840618
 20
94.2384156157
 30
0.0
 11
89.2716289421
 21
94.4751421278
 31
0.0
  0
LINE
  5
CC
330
71
100
AcDbEntity
  8
DV1_Default
  6
Continuous
 62
     7
370
    18
100
AcDbLine
 10
89.6447840618
 20
94.2384156157
 30
0.0
 11
91.1530028398
 21
94.2384156157
 31
0.0
  0
LINE
  5
CD
330
71
100
AcDbEntity
  8
DV1_Default
  6
Continuous
 62
     7
370
    18
100
AcDbLine
 10
83.4052897195
 20
91.661651457
 30
0.0
 11
87.0999874902
 21
89.4746855549
 31
0.0
  0
LINE
  5
CE
330
71
100
AcDbEntity
  8
DV1_Default
  6
Continuous
 62
     7
370
    18
100
AcDbLine
 10
87.0999874902
 20
89.4746855549
 30
0.0
 11
87.9889379382
 21
88.0456350417
 31
0.0
  0
ELLIPSE
  5
CF
330
71
100
AcDbEntity
  8
DV1_Default
  6
Continuous
 62
     7
370
    18
100
AcDbEllipse
 10
89.1889721517
 20
88.7421190629
 30
0.0
 11
-1.399999999999997
 21
-5.204170427930421E-15
 31
0.0
210
0.0
220
0.0
230
1.0
 40
0.9659258263
 41
0.5410520784241664
 42
3.682644732013959
  0
SPLINE
  5
D0
330
71
100
AcDbEntity
  8
DV1_Default
  6
Continuous
 62
     7
370
    18
100
AcDbSpline
210
0.0
220
0.0
230
1.0
 70
     8
 71
     3
 72
    26
 73
    22
 74
     0
 42
0.000000001
 43
0.0000000001
 40
0.0
 40
0.0
 40
0.0
 40
0.0
 40
0.0254250724137548
 40
0.0502249776215863
 40
0.1248325840889298
 40
0.1874533406172849
 40
0.2500202194915065
 40
0.3125203582711161
 40
0.3748196612361773
 40
0.4373248904768038
 40
0.4999511911436574
 40
0.6241960261709036
 40
0.6869694270473022
 40
0.7493920225427119
 40
0.7808544410801906
 40
0.8120904402536343
 40
0.8432226773594442
 40
0.8743998265875356
 40
0.9371706157485237
 40
0.9695756452911923
 40
1.0
 40
1.0
 40
1.0
 40
1.0
 10
91.15300283977079
 20
94.23841561571143
 30
0.0
 10
91.33890908103312
 20
94.23769809951969
 30
0.0
 10
91.70615038737697
 20
94.23628070986248
 30
0.0
 10
92.61393989807144
 20
94.2162430342174
 30
0.0
 10
93.7730118157703
 20
94.15534455187553
 30
0.0
 10
95.09870414855895
 20
93.96571442031659
 30
0.0
 10
96.20505552221184
 20
93.62454039326722
 30
0.0
 10
97.10173444310176
 20
93.04406510398564
 30
0.0
 10
97.71087811587655
 20
92.16710989755624
 30
0.0
 10
97.96660403186401
 20
91.0109495501118
 30
0.0
 10
97.82477554899934
 20
89.26452320586442
 30
0.0
 10
97.01728094326354
 20
87.49747516164662
 30
0.0
 10
95.81937177285191
 20
86.17411864205953
 30
0.0
 10
94.93447634032617
 20
85.5090817109318
 30
0.0
 10
94.17070270239543
 20
85.07863530075238
 30
0.0
 10
93.5725861756008
 20
84.80176202412882
 30
0.0
 10
92.95522857323516
 20
84.5684001849738
 30
0.0
 10
92.10635112827138
 20
84.30873710630465
 30
0.0
 10
91.21858064024643
 20
84.11938929809334
 30
0.0
 10
90.31966979836234
 20
83.98798483485244
 30
0.0
 10
89.86496786642203
 20
83.94375320946087
 30
0.0
 10
89.64478406183848
 20
83.92233459019072
 30
0.0
  0
LINE
  5
D1
330
71
100
AcDbEntity
  8
DV1_Default
  6
Continuous
 62
     7
370
    18
100
AcDbLine
 10
87.1581315267
 20
89.541672548
 30
0.0
 11
83.2928131568
 21
91.8296322136
 31
0.0
  0
LINE
  5
D2
330
71
100
AcDbEntity
  8
DV1_Default
  6
Continuous
 62
     7
370
    18
100
AcDbLine
 10
83.4052897195
 20
91.661651457
 30
0.0
 11
83.2936165319
 21
91.8291566797
 31
0.0
  0
LINE
  5
D3
330
71
100
AcDbEntity
  8
DV1_Default
  6
Continuous
 62
     7
370
    18
100
AcDbLine
 10
83.6903205821
 20
87.1602309671
 30
0.0
 11
83.4052897195
 21
91.661651457
 31
0.0
  0
LINE
  5
D4
330
71
100
AcDbEntity
  8
DV1_Default
  6
Continuous
 62
     7
370
    18
100
AcDbLine
 10
83.6903205821
 20
87.1602309671
 30
0.0
 11
83.5936850881
 21
87.0782630984
 31
0.0
  0
LINE
  5
D5
330
71
100
AcDbEntity
  8
DV1_Default
  6
Continuous
 62
     7
370
    18
100
AcDbLine
 10
88.2848392455
 20
84.4406429853
 30
0.0
 11
83.6903205821
 21
87.1602309671
 31
0.0
  0
LINE
  5
D6
330
71
100
AcDbEntity
  8
DV1_Default
  6
Continuous
 62
     7
370
    18
100
AcDbLine
 10
88.2325844328
 20
84.3324057319
 30
0.0
 11
88.2848379565
 21
84.4406540935
 31
0.0
  0
ARC
  5
D7
330
71
100
AcDbEntity
  8
DV1_Default
  6
Continuous
 62
     7
370
    18
100
AcDbCircle
 10
106.7347242785
 20
115.8019322203
 30
0.0
 40
36.38581453206431
100
AcDbArc
 50
239.5316516095
 51
241.6261510622
  0
LINE
  5
D8
330
71
100
AcDbEntity
  8
DV1_Default
  6
Continuous
 62
     7
370
    18
100
AcDbLine
 10
89.3866956984
 20
83.6767250546
 30
0.0
 11
89.443360433
 21
83.7873068774
 31
0.0
  0
ARC
  5
D9
330
71
100
AcDbEntity
  8
DV1_Default
  6
Continuous
 62
     7
370
    18
100
AcDbCircle
 10
64.6100870935
 20
121.0493730879
 30
0.0
 40
44.77893522524703
100
AcDbArc
 50
303.6814396094
 51
303.9917188477
  0
LINE
  5
DA
330
71
100
AcDbEntity
  8
DV1_Default
  6
Continuous
 62
     7
370
    18
100
AcDbLine
 10
89.6447840618
 20
83.3146233216
 30
0.0
 11
89.6447840618
 21
83.9223345902
 31
0.0
  0
LINE
  5
DB
330
71
100
AcDbEntity
  8
DV1_Default
  6
Continuous
 62
     7
370
    18
100
AcDbLine
 10
83.2928338539
 20
91.8295307245
 30
0.0
 11
83.5936850881
 21
87.0782630984
 31
0.0
  0
LINE
  5
DC
330
71
100
AcDbEntity
  8
DV1_Default
  6
Continuous
 62
     7
370
    18
100
AcDbLine
 10
83.5936850881
 20
87.0782630984
 30
0.0
 11
88.2325847696
 21
84.3324050996
 31
0.0
  0
ARC
  5
DD
330
71
100
AcDbEntity
  8
DV1_Default
  6
Continuous
 62
     7
370
    18
100
AcDbCircle
 10
106.8669012841
 20
115.788436204
 30
0.0
 40
36.56117589062961
100
AcDbArc
 50
239.3578173879
 51
241.4380681903
  0
ELLIPSE
  5
DE
330
71
100
AcDbEntity
  8
DV1_Default
  6
Continuous
 62
     7
370
    18
100
AcDbEllipse
 10
-190.6257539849
 20
248.7350483348
 30
0.0
 11
280.4661782216202
 21
-166.2209259597498
 31
0.0
210
0.0
220
0.0
230
1.0
 40
0.0303891414
 41
0.0594743929076582
 42
0.0776772084128318
  0
ELLIPSE
  5
DF
330
71
100
AcDbEntity
  8
DV1_Default
  6
Continuous
 62
     7
370
    18
100
AcDbEllipse
 10
80.3277069839
 20
88.3522466438
 30
0.0
 11
-9.766874973119085
 21
5.890404107434612
 31
0.0
210
0.0
220
0.0
230
1.0
 40
0.1168798964
 41
2.8995231845275
 42
3.524409885556129
  0
LINE
  5
E0
330
71
100
AcDbEntity
  8
DV1_Default
  6
Continuous
 62
     7
370
    18
100
AcDbLine
 10
89.6399048389
 20
82.3580242543
 30
0.0
 11
89.6447840618
 21
82.3599394322
 31
0.0
  0
LINE
  5
E1
330
71
100
AcDbEntity
  8
DV1_Default
  6
Continuous
 62
     7
370
    18
100
AcDbLine
 10
83.5936850881
 20
87.0782630984
 30
0.0
 11
83.5936850881
 21
84.6660017255
 31
0.0
  0
ARC
  5
E2
330
71
100
AcDbEntity
  8
DV1_Default
  6
Continuous
 62
     7
370
    18
100
AcDbCircle
 10
522.5872392607
 20
117.1177466625
 30
0.0
 40
440.1913860521566
100
AcDbArc
 50
183.2749267436
 51
184.2277892034
  0
ELLIPSE
  5
E3
330
71
100
AcDbEntity
  8
DV1_Default
  6
Continuous
 62
     7
370
    18
100
AcDbEllipse
 10
75.5989639161
 20
91.3522466437
 30
0.0
 11
14.6503124596637
 21
-8.835606161142174
 31
0.0
210
0.0
220
0.0
230
1.0
 40
0.1168798964
 41
-0.9248055491721399
 42
-0.2272591615325474
  0
LINE
  5
E4
330
71
100
AcDbEntity
  8
DV1_Default
  6
Continuous
 62
     7
370
    25
100
AcDbLine
 10
232.5412434155
 20
95.4392217414
 30
0.0
 11
232.5412434155
 21
81.2652715461
 31
0.0
  0
LINE
  5
E5
330
71
100
AcDbEntity
  8
DV1_Default
  6
Continuous
 62
     7
370
    25
100
AcDbLine
 10
232.5412434155
 20
81.2652715461
 30
0.0
 11
231.5412434155
 21
80.2652715461
 31
0.0
  0
LINE
  5
E6
330
71
100
AcDbEntity
  8
DV1_Default
  6
Continuous
 62
     7
370
    25
100
AcDbLine
 10
232.5412434155
 20
95.4392217414
 30
0.0
 11
231.5412434155
 21
96.4392217414
 31
0.0
  0
LINE
  5
E7
330
71
100
AcDbEntity
  8
DV1_Default
  6
Continuous
 62
     7
370
    25
100
AcDbLine
 10
119.6279382985
 20
82.3523846048
 30
0.0
 11
89.8021604126
 21
82.3523846048
 31
0.0
  0
LINE
  5
E8
330
71
100
AcDbEntity
  8
DV1_Default
  6
Continuous
 62
     7
370
    25
100
AcDbLine
 10
119.6282142207
 20
94.3523846048
 30
0.0
 11
89.6249833513
 21
94.3523846048
 31
0.0
  0
LINE
  5
E9
330
71
100
AcDbEntity
  8
DV1_Default
  6
Continuous
 62
     7
370
    25
100
AcDbLine
 10
122.543478482
 20
80.2652715461
 30
0.0
 11
122.543478482
 21
96.4392217414
 31
0.0
  0
LINE
  5
EA
330
71
100
AcDbEntity
  8
DV1_Default
  6
Continuous
 62
     7
370
    25
100
AcDbLine
 10
120.4563654233
 20
82.1727440471
 30
0.0
 11
120.4563654233
 21
94.5318996184
 31
0.0
  0
ARC
  5
EB
330
71
100
AcDbEntity
  8
DV1_Default
  6
HIDDEN2
 62
     7
370
    13
100
AcDbCircle
 10
85.9644172504
 20
93.6351194129
 30
0.0
 40
0.8291164968444183
100
AcDbArc
 50
186.3038332282
 51
186.4061529905
  0
CIRCLE
  5
EC
330
71
100
AcDbEntity
  8
DV1_Default
  6
Continuous
 62
     7
370
    25
100
AcDbCircle
 10
86.0595820728
 20
93.8245980353
 30
0.0
 40
1.565734572747904
  0
ELLIPSE
  5
ED
330
71
100
AcDbEntity
  8
DV1_Default
  6
Continuous
 62
     7
370
    25
100
AcDbEllipse
 10
92.0832761228
 20
92.9737340057
 30
0.0
 11
1.07218610492992
 21
-0.8424319395877691
 31
0.0
210
0.0
220
0.0
230
1.0
 40
0.4829809791
 41
0.0
 42
6.283185307179586
  0
LINE
  5
EE
330
71
100
AcDbEntity
  8
DV1_Default
  6
Continuous
 62
     7
370
     5
100
AcDbLine
 10
233.5412434155
 20
88.3522466437
 30
0.0
 11
78.3459792399
 21
88.3522466437
 31
0.0
  0
LINE
  5
EF
330
71
100
AcDbEntity
  8
DV1_Default
  6
Continuous
 62
     7
370
    25
100
AcDbLine
 10
122.543478482
 20
80.2652715461
 30
0.0
 11
121.0421518609
 21
81.7665981672
 31
0.0
  0
ARC
  5
F0
330
71
100
AcDbEntity
  8
DV1_Default
  6
Continuous
 62
     7
370
    25
100
AcDbCircle
 10
119.6279382985
 20
80.3523846048
 30
0.0
 40
2.0
100
AcDbArc
 50
45.0
 51
90.0
  0
LINE
  5
F1
330
71
100
AcDbEntity
  8
DV1_Default
  6
Continuous
 62
     7
370
    25
100
AcDbLine
 10
122.543478482
 20
96.4392217414
 30
0.0
 11
121.042427783
 21
94.9381710424
 31
0.0
  0
ARC
  5
F2
330
71
100
AcDbEntity
  8
DV1_Default
  6
Continuous
 62
     7
370
    25
100
AcDbCircle
 10
119.6282142207
 20
96.3523846048
 30
0.0
 40
2.0
100
AcDbArc
 50
270.0
 51
315.0
  0
ENDBLK
  5
F4
330
71
100
AcDbEntity
  8
0
100
AcDbBlockEnd
  0
BLOCK
  5
153
330
F5
100
AcDbEntity
  8
0
100
AcDbBlockBegin
  2
SE1
 70
     0
 10
0.0
 20
0.0
 30
0.0
  3
SE1
  1

  0
LINE
  5
F8
330
F5
100
AcDbEntity
  8
DV2_Default
  6
Continuous
 62
     7
370
    18
100
AcDbLine
 10
127.5412434155
 20
143.703487654
 30
0.0
 11
127.5412434155
 21
144.2904627517
 31
0.0
  0
LINE
  5
F9
330
F5
100
AcDbEntity
  8
DV2_Default
  6
Continuous
 62
     7
370
    18
100
AcDbLine
 10
127.5412434155
 20
143.703487654
 30
0.0
 11
231.5412434155
 21
143.703487654
 31
0.0
  0
LINE
  5
FA
330
F5
100
AcDbEntity
  8
DV2_Default
  6
Continuous
 62
     7
370
    18
100
AcDbLine
 10
231.5412434155
 20
128.703487654
 30
0.0
 11
231.5412434155
 21
143.703487654
 31
0.0
  0
LINE
  5
FB
330
F5
100
AcDbEntity
  8
DV2_Default
  6
Continuous
 62
     7
370
    18
100
AcDbLine
 10
125.3928570964
 20
128.703487654
 30
0.0
 11
231.5412434155
 21
128.703487654
 31
0.0
  0
LINE
  5
FC
330
F5
100
AcDbEntity
  8
DV2_Default
  6
Continuous
 62
     7
370
    18
100
AcDbLine
 10
125.4563654233
 20
144.203487654
 30
0.0
 11
125.4563654233
 21
144.2904627517
 31
0.0
  0
LINE
  5
FD
330
F5
100
AcDbEntity
  8
DV2_Default
  6
Continuous
 62
     7
370
    18
100
AcDbLine
 10
231.5412434155
 20
128.703487654
 30
0.0
 11
232.1282182777
 21
128.703487654
 31
0.0
  0
LINE
  5
FE
330
F5
100
AcDbEntity
  8
DV2_Default
  6
Continuous
 62
     7
370
    18
100
AcDbLine
 10
231.5412434155
 20
143.703487654
 30
0.0
 11
232.1282182777
 21
143.703487654
 31
0.0
  0
LINE
  5
FF
330
F5
100
AcDbEntity
  8
DV2_Default
  6
Continuous
 62
     7
370
    18
100
AcDbLine
 10
125.4563654233
 20
144.2904627517
 30
0.0
 11
127.5412434155
 21
144.2904627517
 31
0.0
  0
LINE
  5
100
330
F5
100
AcDbEntity
  8
DV2_Default
  6
Continuous
 62
     7
370
    18
100
AcDbLine
 10
86.7177044018
 20
134.8905910527
 30
0.0
 11
86.7177044018
 21
134.554126294
 31
0.0
  0
LINE
  5
101
330
F5
100
AcDbEntity
  8
DV2_Default
  6
Continuous
 62
     7
370
    18
100
AcDbLine
 10
87.0988125573
 20
134.554126294
 30
0.0
 11
86.7177044018
 21
134.554126294
 31
0.0
  0
ELLIPSE
  5
102
330
F5
100
AcDbEntity
  8
DV2_Default
  6
Continuous
 62
     7
370
    18
100
AcDbEllipse
 10
87.0988125573
 20
134.5670672463
 30
0.0
 11
-0.0499999999999997
 21
2.168404344971009E-16
 31
0.0
210
0.0
220
0.0
230
1.0
 40
0.2588190451
 41
1.570796326794898
 42
3.665191429187665
  0
ELLIPSE
  5
103
330
F5
100
AcDbEntity
  8
DV2_Default
  6
Continuous
 62
     7
370
    18
100
AcDbEllipse
 10
86.0595820728
 20
134.7223586733
 30
0.0
 11
0.9250000000000724
 21
-1.517883041479706E-14
 31
0.0
210
0.0
220
0.0
230
1.0
 40
0.2588190451
 41
4.967979296987061
 42
5.503996214979004
  0
LINE
  5
104
330
F5
100
AcDbEntity
  8
DV2_Default
  6
Continuous
 62
     7
370
    18
100
AcDbLine
 10
86.2934374207
 20
134.9539889475
 30
0.0
 11
86.2934374207
 21
134.4907283992
 31
0.0
  0
LINE
  5
105
330
F5
100
AcDbEntity
  8
DV2_Default
  6
Continuous
 62
     7
370
    18
100
AcDbLine
 10
87.1421138275
 20
134.5735377224
 30
0.0
 11
86.9515597497
 21
134.6589607785
 31
0.0
  0
LINE
  5
106
330
F5
100
AcDbEntity
  8
DV2_Default
  6
Continuous
 62
     7
370
    18
100
AcDbLine
 10
86.9515597497
 20
134.7857565682
 30
0.0
 11
86.9515597497
 21
134.6589607785
 31
0.0
  0
LINE
  5
107
330
F5
100
AcDbEntity
  8
DV2_Default
  6
Continuous
 62
     7
370
    18
100
AcDbLine
 10
86.1028833429
 20
134.4053053431
 30
0.0
 11
86.2934374207
 21
134.4907283992
 31
0.0
  0
ELLIPSE
  5
108
330
F5
100
AcDbEntity
  8
DV2_Default
  6
Continuous
 62
     7
370
    18
100
AcDbEllipse
 10
86.0595820728
 20
134.7223586733
 30
0.0
 11
-0.924999999999882
 21
8.673617379884036E-16
 31
0.0
210
0.0
220
0.0
230
1.0
 40
0.2588190451
 41
2.873584194593779
 42
3.409601112585749
  0
ELLIPSE
  5
109
330
F5
100
AcDbEntity
  8
DV2_Default
  6
Continuous
 62
     7
370
    18
100
AcDbEllipse
 10
86.0595820728
 20
134.4117758192
 30
0.0
 11
0.05000000000000013
 21
0.0
 31
0.0
210
0.0
220
0.0
230
1.0
 40
0.2588190451
 41
3.665191429188248
 42
5.7595865315817
  0
LINE
  5
10A
330
F5
100
AcDbEntity
  8
DV2_Default
  6
Continuous
 62
     7
370
    18
100
AcDbLine
 10
87.1421138275
 20
134.8711796243
 30
0.0
 11
86.9515597497
 21
134.7857565682
 31
0.0
  0
LINE
  5
10B
330
F5
100
AcDbEntity
  8
DV2_Default
  6
Continuous
 62
     7
370
    18
100
AcDbLine
 10
87.0988125573
 20
134.8905910527
 30
0.0
 11
86.7177044018
 21
134.8905910527
 31
0.0
  0
ELLIPSE
  5
10C
330
F5
100
AcDbEntity
  8
DV2_Default
  6
Continuous
 62
     7
370
    18
100
AcDbEllipse
 10
86.0595820728
 20
134.7223586733
 30
0.0
 11
0.9249999999999996
 21
-2.168404344971009E-16
 31
0.0
210
0.0
220
0.0
230
1.0
 40
0.2588190451
 41
0.7791890922006166
 42
1.31520601019254
  0
LINE
  5
10D
330
F5
100
AcDbEntity
  8
DV2_Default
  6
Continuous
 62
     7
370
    18
100
AcDbLine
 10
86.1028833429
 20
135.0394120036
 30
0.0
 11
86.2934374207
 21
134.9539889475
 31
0.0
  0
LINE
  5
10E
330
F5
100
AcDbEntity
  8
DV2_Default
  6
Continuous
 62
     7
370
    18
100
AcDbLine
 10
86.0162808026
 20
135.0394120036
 30
0.0
 11
85.8257267248
 21
134.9539889475
 31
0.0
  0
ELLIPSE
  5
10F
330
F5
100
AcDbEntity
  8
DV2_Default
  6
Continuous
 62
     7
370
    18
100
AcDbEllipse
 10
86.0595820728
 20
134.7223586733
 30
0.0
 11
-0.9249999999999038
 21
-1.929879867024198E-14
 31
0.0
210
0.0
220
0.0
230
1.0
 40
0.2588190451
 41
4.967979296986941
 42
5.503996214978916
  0
LINE
  5
110
330
F5
100
AcDbEntity
  8
DV2_Default
  6
Continuous
 62
     7
370
    18
100
AcDbLine
 10
85.0203515882
 20
134.8905910527
 30
0.0
 11
85.4014597437
 21
134.8905910527
 31
0.0
  0
LINE
  5
111
330
F5
100
AcDbEntity
  8
DV2_Default
  6
Continuous
 62
     7
370
    18
100
AcDbLine
 10
84.977050318
 20
134.8711796243
 30
0.0
 11
85.1676043958
 21
134.7857565682
 31
0.0
  0
ELLIPSE
  5
112
330
F5
100
AcDbEntity
  8
DV2_Default
  6
Continuous
 62
     7
370
    18
100
AcDbEllipse
 10
86.0595820728
 20
134.7223586733
 30
0.0
 11
0.9250000000000317
 21
8.673617379884034E-16
 31
0.0
210
0.0
220
0.0
230
1.0
 40
0.2588190451
 41
2.873584194593828
 42
3.4096011125857
  0
LINE
  5
113
330
F5
100
AcDbEntity
  8
DV2_Default
  6
Continuous
 62
     7
370
    18
100
AcDbLine
 10
85.1676043958
 20
134.7857565682
 30
0.0
 11
85.1676043958
 21
134.6589607785
 31
0.0
  0
LINE
  5
114
330
F5
100
AcDbEntity
  8
DV2_Default
  6
Continuous
 62
     7
370
    18
100
AcDbLine
 10
84.977050318
 20
134.5735377224
 30
0.0
 11
85.1676043958
 21
134.6589607785
 31
0.0
  0
LINE
  5
115
330
F5
100
AcDbEntity
  8
DV2_Default
  6
Continuous
 62
     7
370
    18
100
AcDbLine
 10
85.0203515882
 20
134.554126294
 30
0.0
 11
85.4014597437
 21
134.554126294
 31
0.0
  0
LINE
  5
116
330
F5
100
AcDbEntity
  8
DV2_Default
  6
Continuous
 62
     7
370
    18
100
AcDbLine
 10
85.4014597437
 20
134.8905910527
 30
0.0
 11
85.4014597437
 21
134.554126294
 31
0.0
  0
ELLIPSE
  5
117
330
F5
100
AcDbEntity
  8
DV2_Default
  6
Continuous
 62
     7
370
    18
100
AcDbEllipse
 10
86.0595820728
 20
134.7223586733
 30
0.0
 11
-0.9249999999999975
 21
6.505213034913027E-16
 31
0.0
210
0.0
220
0.0
230
1.0
 40
0.2588190451
 41
0.7791890922005926
 42
1.31520601019254
  0
LINE
  5
118
330
F5
100
AcDbEntity
  8
DV2_Default
  6
Continuous
 62
     7
370
    18
100
AcDbLine
 10
85.8257267248
 20
134.9539889475
 30
0.0
 11
85.8257267248
 21
134.4907283992
 31
0.0
  0
LINE
  5
119
330
F5
100
AcDbEntity
  8
DV2_Default
  6
Continuous
 62
     7
370
    18
100
AcDbLine
 10
86.0162808026
 20
134.4053053431
 30
0.0
 11
85.8257267248
 21
134.4907283992
 31
0.0
  0
ELLIPSE
  5
11A
330
F5
100
AcDbEntity
  8
DV2_Default
  6
Continuous
 62
     7
370
    18
100
AcDbEllipse
 10
87.0988125573
 20
134.8776501004
 30
0.0
 11
-0.0499999999999997
 21
0.0
 31
0.0
210
0.0
220
0.0
230
1.0
 40
0.2588190451
 41
2.617993877991922
 42
4.71238898038469
  0
ELLIPSE
  5
11B
330
F5
100
AcDbEntity
  8
DV2_Default
  6
Continuous
 62
     7
370
    18
100
AcDbEllipse
 10
86.0595820728
 20
135.0329415275
 30
0.0
 11
-0.05000000000000013
 21
-4.336808689942018E-16
 31
0.0
210
0.0
220
0.0
230
1.0
 40
0.2588190451
 41
3.665191429188246
 42
5.759586531581698
  0
ELLIPSE
  5
11C
330
F5
100
AcDbEntity
  8
DV2_Default
  6
Continuous
 62
     7
370
    18
100
AcDbEllipse
 10
85.0203515882
 20
134.8776501004
 30
0.0
 11
0.05000000000000013
 21
0.0
 31
0.0
210
0.0
220
0.0
230
1.0
 40
0.2588190451
 41
1.570796326794897
 42
3.665191429188248
  0
ELLIPSE
  5
11D
330
F5
100
AcDbEntity
  8
DV2_Default
  6
Continuous
 62
     7
370
    18
100
AcDbEllipse
 10
85.0203515882
 20
134.5670672463
 30
0.0
 11
0.0499999999999997
 21
0.0
 31
0.0
210
0.0
220
0.0
230
1.0
 40
0.2588190451
 41
2.617993877991353
 42
4.71238898038469
  0
LINE
  5
11E
330
F5
100
AcDbEntity
  8
DV2_Default
  6
Continuous
 62
     7
370
    18
100
AcDbLine
 10
87.1488125573
 20
134.8776501004
 30
0.0
 11
87.1488125573
 21
134.5670672463
 31
0.0
  0
LINE
  5
11F
330
F5
100
AcDbEntity
  8
DV2_Default
  6
Continuous
 62
     7
370
    18
100
AcDbLine
 10
84.9703515882
 20
134.5670672463
 30
0.0
 11
84.9703515882
 21
134.8776501004
 31
0.0
  0
LINE
  5
120
330
F5
100
AcDbEntity
  8
DV2_Default
  6
Continuous
 62
     7
370
    18
100
AcDbLine
 10
82.5428442535
 20
136.1582601014
 30
0.0
 11
82.5416164566
 21
136.1485637409
 31
0.0
  0
LINE
  5
121
330
F5
100
AcDbEntity
  8
DV2_Default
  6
Continuous
 62
     7
370
    18
100
AcDbLine
 10
82.7412434163
 20
137.7250907565
 30
0.0
 11
82.8457431293
 21
136.1958597485
 31
0.0
  0
ELLIPSE
  5
122
330
F5
100
AcDbEntity
  8
DV2_Default
  6
Continuous
 62
     7
370
    18
100
AcDbEllipse
 10
82.7412434163
 20
136.1517238459
 30
0.0
 11
0.2000000000000007
 21
-1.829591166069289E-16
 31
0.0
210
0.0
220
0.0
230
1.0
 40
0.2588190451
 41
1.021017612416572
 42
3.202679177410257
  0
LINE
  5
123
330
F5
100
AcDbEntity
  8
DV2_Default
  6
Continuous
 62
     7
370
    18
100
AcDbLine
 10
89.1277590081
 20
135.1995036679
 30
0.0
 11
88.8453637566
 21
137.4544906709
 31
0.0
  0
LINE
  5
124
330
F5
100
AcDbEntity
  8
DV2_Default
  6
Continuous
 62
     7
370
    18
100
AcDbLine
 10
82.8441144299
 20
138.4063159087
 30
0.0
 11
88.8453637566
 21
137.4544906709
 31
0.0
  0
LINE
  5
125
330
F5
100
AcDbEntity
  8
DV2_Default
  6
Continuous
 62
     7
370
    18
100
AcDbLine
 10
82.7412434163
 20
137.7250907565
 30
0.0
 11
82.8441144299
 21
138.4063159087
 31
0.0
  0
LINE
  5
126
330
F5
100
AcDbEntity
  8
DV2_Default
  6
Continuous
 62
     7
370
    18
100
AcDbLine
 10
82.8457431293
 20
136.1958597485
 30
0.0
 11
89.1277590081
 21
135.1995036679
 31
0.0
  0
LINE
  5
127
330
F5
100
AcDbEntity
  8
DV2_Default
  6
Continuous
 62
     7
370
    18
100
AcDbLine
 10
82.5416164566
 20
136.1485637409
 30
0.0
 11
82.9914051374
 21
134.2452136788
 31
0.0
  0
LINE
  5
128
330
F5
100
AcDbEntity
  8
DV2_Default
  6
Continuous
 62
     7
370
    18
100
AcDbLine
 10
88.8453637566
 20
137.4544906709
 30
0.0
 11
88.8529849779
 21
137.4222402993
 31
0.0
  0
LINE
  5
129
330
F5
100
AcDbEntity
  8
DV2_Default
  6
Continuous
 62
     7
370
    18
100
AcDbLine
 10
89.5775476889
 20
133.2961536058
 30
0.0
 11
89.1277590081
 21
135.1995036679
 31
0.0
  0
LINE
  5
12A
330
F5
100
AcDbEntity
  8
DV2_Default
  6
Continuous
 62
     7
370
    18
100
AcDbLine
 10
89.2734210163
 20
133.2488575982
 30
0.0
 11
82.9914051374
 21
134.2452136788
 31
0.0
  0
ELLIPSE
  5
12B
330
F5
100
AcDbEntity
  8
DV2_Default
  6
Continuous
 62
     7
370
    18
100
AcDbEllipse
 10
89.3779207292
 20
133.2929935008
 30
0.0
 11
-0.2000000000000014
 21
-4.336808689942018E-16
 31
0.0
210
0.0
220
0.0
230
1.0
 40
0.2588190451
 41
1.02101761241674
 42
3.20267917741031
  0
LINE
  5
12C
330
F5
100
AcDbEntity
  8
DV2_Default
  6
Continuous
 62
     7
370
    18
100
AcDbLine
 10
89.3880925081
 20
134.231305911
 30
0.0
 11
89.3881171921
 21
134.2311211853
 31
0.0
  0
ELLIPSE
  5
12D
330
F5
100
AcDbEntity
  8
DV2_Default
  6
Continuous
 62
     7
370
    18
100
AcDbEllipse
 10
89.1193696635
 20
136.7377731256
 30
0.0
 11
0.8591007865802208
 21
-6.380134495134112
 31
0.0
210
0.0
220
0.0
230
1.0
 40
0.0269867127
 41
4.601268027352186
 42
4.755882281035291
  0
ARC
  5
12E
330
F5
100
AcDbEntity
  8
DV2_Default
  6
Continuous
 62
     7
370
    18
100
AcDbCircle
 10
67.4388782843
 20
133.2398586705
 30
0.0
 40
21.78177583717917
100
AcDbArc
 50
7.1499175131
 51
8.4409467532
  0
LINE
  5
12F
330
F5
100
AcDbEntity
  8
DV2_Default
  6
Continuous
 62
     7
370
    18
100
AcDbLine
 10
89.5000558434
 20
134.137103067
 30
0.0
 11
89.3880442599
 21
134.2313465057
 31
0.0
  0
LINE
  5
130
330
F5
100
AcDbEntity
  8
DV2_Default
  6
Continuous
 62
     7
370
    18
100
AcDbLine
 10
89.3880442599
 20
134.2313465057
 30
0.0
 11
89.1516884558
 21
135.231522485
 31
0.0
  0
SPLINE
  5
131
330
F5
100
AcDbEntity
  8
DV2_Default
  6
Continuous
 62
     7
370
    18
100
AcDbSpline
210
0.0
220
0.0
230
1.0
 70
    12
 71
     2
 72
     6
 73
     3
 74
     0
 42
0.000000001
 43
0.0000000001
 40
0.0
 40
0.0
 40
0.0
 40
1.0
 40
1.0
 40
1.0
 10
89.15168845582623
 20
135.2315224850444
 30
0.0
 41
1.0
 10
89.21196679220307
 20
135.167473803593
 30
0.0
 41
1.0
 10
89.27162894206825
 20
135.1037266736566
 30
0.0
 41
1.0
  0
ELLIPSE
  5
132
330
F5
100
AcDbEntity
  8
DV2_Default
  6
Continuous
 62
     7
370
    18
100
AcDbEllipse
 10
89.1196439705
 20
136.7384276902
 30
0.0
 11
0.860880041360086
 21
-6.393348177367383
 31
0.0
210
0.0
220
0.0
230
1.0
 40
0.0269867127
 41
-1.450945743962525
 42
-1.336494060567016
  0
LINE
  5
133
330
F5
100
AcDbEntity
  8
DV2_Default
  6
Continuous
 62
     7
370
    18
100
AcDbLine
 10
90.3890063653
 20
133.7541901043
 30
0.0
 11
89.5000558434
 21
134.137103067
 31
0.0
  0
LINE
  5
134
330
F5
100
AcDbEntity
  8
DV2_Default
  6
Continuous
 62
     7
370
    18
100
AcDbLine
 10
89.5000558434
 20
134.137103067
 30
0.0
 11
89.2716289421
 21
135.1037266737
 31
0.0
  0
LINE
  5
135
330
F5
100
AcDbEntity
  8
DV2_Default
  6
Continuous
 62
     7
370
    18
100
AcDbLine
 10
89.6447840618
 20
135.0402959959
 30
0.0
 11
89.2716289421
 21
135.1037266737
 31
0.0
  0
LINE
  5
136
330
F5
100
AcDbEntity
  8
DV2_Default
  6
Continuous
 62
     7
370
    18
100
AcDbLine
 10
89.6447840618
 20
135.0402959959
 30
0.0
 11
91.1530028398
 21
135.0402959959
 31
0.0
  0
LINE
  5
137
330
F5
100
AcDbEntity
  8
DV2_Default
  6
Continuous
 62
     7
370
    18
100
AcDbLine
 10
87.7257048219
 20
133.4943323743
 30
0.0
 11
87.9889379382
 21
133.3809454422
 31
0.0
  0
ELLIPSE
  5
138
330
F5
100
AcDbEntity
  8
DV2_Default
  6
Continuous
 62
     7
370
    18
100
AcDbEllipse
 10
89.1889721517
 20
133.5675677732
 30
0.0
 11
-1.399999999999994
 21
4.336808689942018E-16
 31
0.0
210
0.0
220
0.0
230
1.0
 40
0.2588190451
 41
0.5410520784241672
 42
3.68264473201396
  0
SPLINE
  5
139
330
F5
100
AcDbEntity
  8
DV2_Default
  6
Continuous
 62
     7
370
    18
100
AcDbSpline
210
0.0
220
0.0
230
1.0
 70
     8
 71
     3
 72
    26
 73
    22
 74
     0
 42
0.000000001
 43
0.0000000001
 40
0.0
 40
0.0
 40
0.0
 40
0.0
 40
0.0254250724137548
 40
0.0502249776215863
 40
0.1248325840889298
 40
0.1874533406172849
 40
0.2500202194915065
 40
0.3125203582711161
 40
0.3748196612361773
 40
0.4373248904768038
 40
0.4999511911436574
 40
0.6241960261709036
 40
0.6869694270473022
 40
0.7493920225427119
 40
0.7808544410801906
 40
0.8120904402536343
 40
0.8432226773594442
 40
0.8743998265875356
 40
0.9371706157485237
 40
0.9695756452911923
 40
1.0
 40
1.0
 40
1.0
 40
1.0
 10
91.15300283977079
 20
135.0402959959046
 30
0.0
 10
91.33890908103312
 20
135.036506359356
 30
0.0
 10
91.70615038737697
 20
135.0290202681562
 30
0.0
 10
92.61393989807144
 20
134.9312387519317
 30
0.0
 10
93.7730118157703
 20
134.6501337986858
 30
0.0
 10
95.09870414855895
 20
134.0457217073988
 30
0.0
 10
96.20505552221184
 20
133.2882478324799
 30
0.0
 10
97.10173444310176
 20
132.4042671657897
 30
0.0
 10
97.71087811587655
 20
131.5094872046666
 30
0.0
 10
97.96660403186401
 20
130.7649518342445
 30
0.0
 10
97.82477554899934
 20
130.1484135327246
 30
0.0
 10
97.01728094326354
 20
130.1829314595518
 30
0.0
 10
95.81937177285191
 20
130.5862205190388
 30
0.0
 10
94.93447634032617
 20
130.9083971494423
 30
0.0
 10
94.17070270239543
 20
131.1710003055725
 30
0.0
 10
93.5725861756008
 20
131.3633438179845
 30
0.0
 10
92.95522857323516
 20
131.5442471559136
 30
0.0
 10
92.10635112827138
 20
131.7656363387651
 30
0.0
 10
91.21858064024643
 20
131.9490062774951
 30
0.0
 10
90.31966979836234
 20
132.0852762492953
 30
0.0
 10
89.86496786642203
 20
132.1334486272584
 30
0.0
 10
89.64478406183848
 20
132.1567755073763
 30
0.0
  0
LINE
  5
13A
330
F5
100
AcDbEntity
  8
DV2_Default
  6
Continuous
 62
     7
370
    18
100
AcDbLine
 10
83.6903205821
 20
133.1437021354
 30
0.0
 11
83.4470973151
 21
134.172938842
 31
0.0
  0
LINE
  5
13B
330
F5
100
AcDbEntity
  8
DV2_Default
  6
Continuous
 62
     7
370
    18
100
AcDbLine
 10
83.6903205821
 20
133.1437021354
 30
0.0
 11
83.5936850881
 21
133.2252665293
 31
0.0
  0
LINE
  5
13C
330
F5
100
AcDbEntity
  8
DV2_Default
  6
Continuous
 62
     7
370
    18
100
AcDbLine
 10
88.2848392455
 20
132.414990732
 30
0.0
 11
83.6903205821
 21
133.1437021354
 31
0.0
  0
ARC
  5
13D
330
F5
100
AcDbEntity
  8
DV2_Default
  6
Continuous
 62
     7
370
    18
100
AcDbCircle
 10
87.1915846839
 20
125.5105541034
 30
0.0
 40
6.990458269669391
100
AcDbArc
 50
71.2087374237
 51
81.0023552376
  0
ARC
  5
13E
330
F5
100
AcDbEntity
  8
DV2_Default
  6
Continuous
 62
     7
370
    18
100
AcDbCircle
 10
99.8961774632
 20
58.632954806
 30
0.0
 40
74.2350542345345
100
AcDbArc
 50
97.9375519357
 51
98.0945479257
  0
LINE
  5
13F
330
F5
100
AcDbEntity
  8
DV2_Default
  6
Continuous
 62
     7
370
    18
100
AcDbLine
 10
83.3667242231
 20
134.1856863773
 30
0.0
 11
83.5936850881
 21
133.2252665293
 31
0.0
  0
ELLIPSE
  5
140
330
F5
100
AcDbEntity
  8
DV2_Default
  6
Continuous
 62
     7
370
    18
100
AcDbEllipse
 10
83.4476963837
 20
136.3014752019
 30
0.0
 11
-0.1527291729182453
 21
9.648053153153292
 31
0.0
210
0.0
220
0.0
230
1.0
 40
0.058968361
 41
0.419365950048622
 42
1.350185012599272
  0
LINE
  5
141
330
F5
100
AcDbEntity
  8
DV2_Default
  6
Continuous
 62
     7
370
    18
100
AcDbLine
 10
89.6399048389
 20
136.5259215368
 30
0.0
 11
89.6447840618
 21
136.5072215548
 31
0.0
  0
LINE
  5
142
330
F5
100
AcDbEntity
  8
DV2_Default
  6
Continuous
 62
     7
370
    18
100
AcDbLine
 10
83.5936850881
 20
138.2874306181
 30
0.0
 11
83.5936850881
 21
142.2279485339
 31
0.0
  0
SPLINE
  5
143
330
F5
100
AcDbEntity
  8
DV2_Default
  6
Continuous
 62
     7
370
    18
100
AcDbSpline
210
0.0
220
0.0
230
1.0
 70
     8
 71
     3
 72
    21
 73
    17
 74
     0
 42
0.000000001
 43
0.0000000001
 40
0.0
 40
0.0
 40
0.0
 40
0.0
 40
0.0429858960415901
 40
0.0882334297644241
 40
0.1614063006363695
 40
0.2503534501575202
 40
0.3126052014804871
 40
0.3748641270128228
 40
0.4999511374257454
 40
0.6240623451637428
 40
0.7492307319132567
 40
0.8139176090909258
 40
0.8746129982079903
 40
0.9172635046234874
 40
0.9590075967919618
 40
1.0
 40
1.0
 40
1.0
 40
1.0
 10
83.0765439254702
 20
145.1098313201429
 30
0.0
 10
83.18495470184357
 20
145.1360011192069
 30
0.0
 10
83.40748012305592
 20
145.189717601595
 30
0.0
 10
83.82533342602208
 20
145.2156706897891
 30
0.0
 10
84.3744749331689
 20
145.1567434755286
 30
0.0
 10
84.97994255030065
 20
144.9498540818354
 30
0.0
 10
85.56045646841528
 20
144.6331524434746
 30
0.0
 10
86.23768337483017
 20
144.1498509104242
 30
0.0
 10
87.0720608427088
 20
143.3387968037553
 30
0.0
 10
88.01242779969618
 20
142.0506959139099
 30
0.0
 10
88.69999579511494
 20
140.7176817198104
 30
0.0
 10
89.13777096728111
 20
139.5192558364821
 30
0.0
 10
89.37080177189586
 20
138.6618459426263
 30
0.0
 10
89.51741694761726
 20
137.8913398185375
 30
0.0
 10
89.6063780096508
 20
137.2094321015484
 30
0.0
 10
89.62879712422297
 20
136.7523742166869
 30
0.0
 10
89.6399048389015
 20
136.5259215367612
 30
0.0
  0
SPLINE
  5
144
330
F5
100
AcDbEntity
  8
DV2_Default
  6
Continuous
 62
     7
370
    18
100
AcDbSpline
210
0.0
220
0.0
230
1.0
 70
    12
 71
     3
 72
     8
 73
     4
 74
     0
 42
0.000000001
 43
0.0000000001
 40
0.0
 40
0.0
 40
0.0
 40
0.0
 40
1.0
 40
1.0
 40
1.0
 40
1.0
 10
83.59368508812007
 20
142.2279485339401
 30
0.0
 41
1.0
 10
83.48075644425599
 20
143.8631454106045
 30
0.0
 41
0.9422732477720833
 10
83.34826446977613
 20
144.8909854511801
 30
0.0
 41
0.9268739645544232
 10
83.2129006410201
 20
145.1452117625195
 30
0.0
 41
0.9538021503470195
  0
SPLINE
  5
145
330
F5
100
AcDbEntity
  8
DV2_Default
  6
Continuous
 62
     7
370
    18
100
AcDbSpline
210
0.0
220
0.0
230
1.0
 70
    12
 71
     3
 72
     8
 73
     4
 74
     0
 42
0.000000001
 43
0.0000000001
 40
0.0
 40
0.0
 40
0.0
 40
0.0
 40
1.0
 40
1.0
 40
1.0
 40
1.0
 10
83.15156628969278
 20
145.2034876539387
 30
0.0
 41
0.9697746588563089
 10
83.12582267539274
 20
145.2034858686659
 30
0.0
 41
0.9780623740240786
 10
83.10077749169469
 20
145.1718923299807
 30
0.0
 41
0.9881374877386423
 10
83.0765439254702
 20
145.1098313201429
 30
0.0
 41
1.0
  0
ELLIPSE
  5
146
330
F5
100
AcDbEntity
  8
DV2_Default
  6
Continuous
 62
     7
370
    18
100
AcDbEllipse
 10
75.5989639161
 20
136.203487654
 30
0.0
 11
14.55165917007725
 21
-3.483982046316205
 31
0.0
210
0.0
220
0.0
230
1.0
 40
0.5702652253
 41
0.4333278429915399
 42
1.130874230631134
  0
LINE
  5
147
330
F5
100
AcDbEntity
  8
DV2_Default
  6
Continuous
 62
     7
370
    18
100
AcDbLine
 10
82.5413516868
 20
136.1534268764
 30
0.0
 11
82.7412434163
 21
137.7250907565
 31
0.0
  0
LINE
  5
148
330
F5
100
AcDbEntity
  8
DV2_Default
  6
Continuous
 62
     7
370
    18
100
AcDbLine
 10
89.5717187139
 20
133.3426090626
 30
0.0
 11
89.5778124587
 21
133.2946965314
 31
0.0
  0
LINE
  5
149
330
F5
100
AcDbEntity
  8
DV2_Default
  6
Continuous
 62
     7
370
    18
100
AcDbLine
 10
83.1515850433
 20
145.203487654
 30
0.0
 11
83.7541087234
 21
145.203487654
 31
0.0
  0
LINE
  5
14A
330
F5
100
AcDbEntity
  8
DV2_Default
  6
Continuous
 62
     7
370
    25
100
AcDbLine
 10
123.4563654233
 20
130.203487654
 30
0.0
 11
97.3540333508
 21
130.203487654
 31
0.0
  0
LINE
  5
14B
330
F5
100
AcDbEntity
  8
DV2_Default
  6
Continuous
 62
     7
370
    25
100
AcDbLine
 10
123.4563654233
 20
142.203487654
 30
0.0
 11
87.8651391782
 21
142.203487654
 31
0.0
  0
ARC
  5
14C
330
F5
100
AcDbEntity
  8
DV2_Default
  6
Continuous
 62
     7
370
    25
100
AcDbCircle
 10
123.4563654233
 20
144.203487654
 30
0.0
 40
2.0
100
AcDbArc
 50
270.0
 51
0.0
  0
LINE
  5
14D
330
F5
100
AcDbEntity
  8
DV2_Default
  6
Continuous
 62
     7
370
    25
100
AcDbLine
 10
125.4563654233
 20
144.2904627517
 30
0.0
 11
125.4563654233
 21
128.703487654
 31
0.0
  0
ARC
  5
14E
330
F5
100
AcDbEntity
  8
DV2_Default
  6
Continuous
 62
     7
370
    25
100
AcDbCircle
 10
123.4563654233
 20
128.203487654
 30
0.0
 40
2.0
100
AcDbArc
 50
14.4775121859
 51
90.0
  0
LINE
  5
14F
330
F5
100
AcDbEntity
  8
DV2_Default
  6
Continuous
 62
     7
370
    25
100
AcDbLine
 10
123.4563654233
 20
142.203487654
 30
0.0
 11
123.4563654233
 21
130.203487654
 31
0.0
  0
LINE
  5
150
330
F5
100
AcDbEntity
  8
DV2_Default
  6
Continuous
 62
     7
370
    25
100
AcDbLine
 10
232.1282182777
 20
128.703487654
 30
0.0
 11
232.1282182777
 21
143.703487654
 31
0.0
  0
LINE
  5
151
330
F5
100
AcDbEntity
  8
DV2_Default
  6
Continuous
 62
     7
370
     5
100
AcDbLine
 10
233.1282182777
 20
136.203487654
 30
0.0
 11
78.3544512075
 21
136.203487654
 31
0.0
  0
ELLIPSE
  5
152
330
F5
100
AcDbEntity
  8
DV2_Default
  6
Continuous
 62
     7
370
    25
100
AcDbEllipse
 10
86.0595820728
 20
134.7223586733
 30
0.0
 11
1.297466959415607
 21
-0.01028826032806376
 31
0.0
210
0.0
220
0.0
230
1.0
 40
0.289378462
 41
0.0
 42
6.283185307179586
  0
ENDBLK
  5
154
330
F5
100
AcDbEntity
  8
0
100
AcDbBlockEnd
  0
BLOCK
  5
189
330
155
100
AcDbEntity
  8
0
100
AcDbBlockBegin
  2
SE2
 70
     0
 10
0.0
 20
0.0
 30
0.0
  3
SE2
  1

  0
ARC
  5
158
330
155
100
AcDbEntity
  8
DV3_Default
  6
Continuous
 62
     7
370
    18
100
AcDbCircle
 10
49.6115325946
 20
88.3522466437
 30
0.0
 40
8.086975097656246
100
AcDbArc
 50
21.9642786855
 51
84.3873227137
  0
ARC
  5
159
330
155
100
AcDbEntity
  8
DV3_Default
  6
Continuous
 62
     7
370
    18
100
AcDbCircle
 10
49.6115325946
 20
88.3522466437
 30
0.0
 40
8.086975097656246
100
AcDbArc
 50
187.7988164534
 51
338.0357213145
  0
LINE
  5
15A
330
155
100
AcDbEntity
  8
DV3_Default
  6
Continuous
 62
     7
370
    18
100
AcDbLine
 10
57.1115325946
 20
91.3770055151
 30
0.0
 11
57.1115325946
 21
85.3274877723
 31
0.0
  0
LINE
  5
15B
330
155
100
AcDbEntity
  8
DV3_Default
  6
Continuous
 62
     7
370
    18
100
AcDbLine
 10
42.1115325946
 20
86.3850237968
 30
0.0
 11
42.1115325946
 21
85.3274877723
 31
0.0
  0
LINE
  5
15C
330
155
100
AcDbEntity
  8
DV3_Default
  6
Continuous
 62
     7
370
    18
100
AcDbLine
 10
48.0899294922
 20
98.7374790887
 30
0.0
 11
49.6664565077
 21
99.1472678096
 31
0.0
  0
LINE
  5
15D
330
155
100
AcDbEntity
  8
DV3_Default
  6
Continuous
 62
     7
370
    18
100
AcDbLine
 10
49.6664565077
 20
99.1472678096
 30
0.0
 11
49.6115325937
 21
99.3522466471
 31
0.0
  0
LINE
  5
15E
330
155
100
AcDbEntity
  8
DV3_Default
  6
Continuous
 62
     7
370
    18
100
AcDbLine
 10
48.0899294922
 20
98.7374790887
 30
0.0
 11
47.40870434
 21
98.3776997443
 31
0.0
  0
LINE
  5
15F
330
155
100
AcDbEntity
  8
DV3_Default
  6
Continuous
 62
     7
370
    18
100
AcDbLine
 10
47.4729978621
 20
98.137753053
 30
0.0
 11
47.40870434
 21
98.3776997443
 31
0.0
  0
LINE
  5
160
330
155
100
AcDbEntity
  8
DV3_Default
  6
Continuous
 62
     7
370
    18
100
AcDbLine
 10
51.5698065699
 20
92.043868673
 30
0.0
 11
49.2269866397
 21
91.5917778191
 31
0.0
  0
LINE
  5
161
330
155
100
AcDbEntity
  8
DV3_Default
  6
Continuous
 62
     7
370
    18
100
AcDbLine
 10
49.6664565077
 20
99.1472678096
 30
0.0
 11
51.5698065699
 21
92.043868673
 31
0.0
  0
LINE
  5
162
330
155
100
AcDbEntity
  8
DV3_Default
  6
Continuous
 62
     7
370
    18
100
AcDbLine
 10
52.3675582778
 20
88.2938781062
 30
0.0
 11
52.5661626505
 21
88.3254171578
 31
0.0
  0
LINE
  5
163
330
155
100
AcDbEntity
  8
DV3_Default
  6
Continuous
 62
     7
370
    18
100
AcDbLine
 10
52.5661626505
 20
88.3254171578
 30
0.0
 11
51.5698065699
 21
92.043868673
 31
0.0
  0
LINE
  5
164
330
155
100
AcDbEntity
  8
DV3_Default
  6
Continuous
 62
     7
370
    18
100
AcDbLine
 10
52.5661626505
 20
88.3254171578
 30
0.0
 11
52.5737905569
 21
88.2969494236
 31
0.0
  0
LINE
  5
165
330
155
100
AcDbEntity
  8
DV3_Default
  6
Continuous
 62
     7
370
    18
100
AcDbLine
 10
49.2269866397
 20
91.5917778191
 30
0.0
 11
47.4729978621
 21
98.137753053
 31
0.0
  0
LINE
  5
166
330
155
100
AcDbEntity
  8
DV3_Default
  6
HIDDEN2
 62
     7
370
    13
100
AcDbLine
 10
51.6779171816
 20
90.8676537161
 30
0.0
 11
51.583673743
 21
90.8358846328
 31
0.0
  0
LINE
  5
167
330
155
100
AcDbEntity
  8
DV3_Default
  6
HIDDEN2
 62
     7
370
    13
100
AcDbLine
 10
51.9304568259
 20
89.541672548
 30
0.0
 11
52.0511618755
 21
89.4746855549
 31
0.0
  0
LINE
  5
168
330
155
100
AcDbEntity
  8
DV3_Default
  6
HIDDEN2
 62
     7
370
    13
100
AcDbLine
 10
51.4651661282
 20
91.661651457
 30
0.0
 11
51.3729309455
 21
92.0058778449
 31
0.0
  0
ARC
  5
169
330
155
100
AcDbEntity
  8
DV3_Default
  6
Continuous
 62
     7
370
    18
100
AcDbCircle
 10
49.6114988355
 20
88.3522372075
 30
0.0
 40
6.000015802036765
100
AcDbArc
 50
312.4119099914
 51
76.6820034671
  0
LINE
  5
16A
330
155
100
AcDbEntity
  8
DV3_Default
  6
Continuous
 62
     7
370
    18
100
AcDbLine
 10
51.4651661282
 20
91.661651457
 30
0.0
 11
51.3175273001
 21
91.8291566797
 31
0.0
  0
LINE
  5
16B
330
155
100
AcDbEntity
  8
DV3_Default
  6
Continuous
 62
     7
370
    18
100
AcDbLine
 10
52.6713181132
 20
87.1602309671
 30
0.0
 11
51.4651661282
 21
91.661651457
 31
0.0
  0
LINE
  5
16C
330
155
100
AcDbEntity
  8
DV3_Default
  6
Continuous
 62
     7
370
    18
100
AcDbLine
 10
52.6713181132
 20
87.1602309671
 30
0.0
 11
52.5897537194
 21
87.0782630984
 31
0.0
  0
LINE
  5
16D
330
155
100
AcDbEntity
  8
DV3_Default
  6
Continuous
 62
     7
370
    18
100
AcDbLine
 10
53.4000295167
 20
84.4406429853
 30
0.0
 11
52.6713181132
 21
87.1602309671
 31
0.0
  0
LINE
  5
16E
330
155
100
AcDbEntity
  8
DV3_Default
  6
Continuous
 62
     7
370
    18
100
AcDbLine
 10
53.3255086044
 20
84.3324057319
 30
0.0
 11
53.4000385481
 21
84.4406540935
 31
0.0
  0
ARC
  5
16F
330
155
100
AcDbEntity
  8
DV3_Default
  6
Continuous
 62
     7
370
    18
100
AcDbCircle
 10
55.6999336964
 20
85.0599533438
 30
0.0
 40
2.38182684977586
100
AcDbArc
 50
195.0706082921
 51
212.2974862934
  0
LINE
  5
170
330
155
100
AcDbEntity
  8
DV3_Default
  6
Continuous
 62
     7
370
    18
100
AcDbLine
 10
53.6110385816
 20
83.6767250546
 30
0.0
 11
53.6866105432
 21
83.7873068774
 31
0.0
  0
ARC
  5
171
330
155
100
AcDbEntity
  8
DV3_Default
  6
Continuous
 62
     7
370
    18
100
AcDbCircle
 10
74.9436963726
 20
88.3233584756
 30
0.0
 40
21.73567257737352
100
AcDbArc
 50
191.6819796359
 51
192.0456857666
  0
LINE
  5
172
330
155
100
AcDbEntity
  8
DV3_Default
  6
Continuous
 62
     7
370
    18
100
AcDbLine
 10
49.2269866397
 20
91.5917778191
 30
0.0
 11
51.316655396
 21
91.8295307245
 31
0.0
  0
LINE
  5
173
330
155
100
AcDbEntity
  8
DV3_Default
  6
Continuous
 62
     7
370
    18
100
AcDbLine
 10
51.316655396
 20
91.8295307245
 30
0.0
 11
52.5897537194
 21
87.0782630984
 31
0.0
  0
ELLIPSE
  5
174
330
155
100
AcDbEntity
  8
DV3_Default
  6
Continuous
 62
     7
370
    18
100
AcDbEllipse
 10
49.5135450468
 20
88.7250901976
 30
0.0
 11
-9.320471305530127
 21
-2.49741275906376
 31
0.0
210
0.0
220
0.0
230
1.0
 40
0.9981347984
 41
4.664163578154387
 42
5.601552856107203
  0
LINE
  5
175
330
155
100
AcDbEntity
  8
DV3_Default
  6
Continuous
 62
     7
370
    18
100
AcDbLine
 10
52.5897537194
 20
87.0782630984
 30
0.0
 11
53.3255041527
 21
84.3324050996
 31
0.0
  0
ARC
  5
176
330
155
100
AcDbEntity
  8
DV3_Default
  6
Continuous
 62
     7
370
    18
100
AcDbCircle
 10
55.6722313211
 20
84.9643275418
 30
0.0
 40
2.430315983417548
100
AcDbArc
 50
195.0710215552
 51
211.9925298658
  0
ELLIPSE
  5
177
330
155
100
AcDbEntity
  8
DV3_Default
  6
Continuous
 62
     7
370
    18
100
AcDbEllipse
 10
6.6370900435
 20
248.7350483348
 30
0.0
 11
44.49041651171378
 21
-166.0404934406168
 31
0.0
210
0.0
220
0.0
230
1.0
 40
0.2588190254
 41
0.0414659280696323
 42
0.0596687435748054
  0
ARC
  5
178
330
155
100
AcDbEntity
  8
DV3_Default
  6
Continuous
 62
     7
370
    18
100
AcDbCircle
 10
49.6115325946
 20
88.3522466437
 30
0.0
 40
6.000000000000095
100
AcDbArc
 50
267.0983146786
 51
302.9016853214
  0
LINE
  5
179
330
155
100
AcDbEntity
  8
DV3_Default
  6
Continuous
 62
     7
370
    18
100
AcDbLine
 10
49.2890987119
 20
82.3580242543
 30
0.0
 11
49.3077986939
 21
82.3599394322
 31
0.0
  0
LINE
  5
17A
330
155
100
AcDbEntity
  8
DV3_Default
  6
Continuous
 62
     7
370
    18
100
AcDbLine
 10
52.5897537194
 20
87.0782630984
 30
0.0
 11
43.5870717147
 21
84.6660017255
 31
0.0
  0
ARC
  5
17B
330
155
100
AcDbEntity
  8
DV3_Default
  6
Continuous
 62
     7
370
    18
100
AcDbCircle
 10
49.6115325946
 20
91.3522466437
 30
0.0
 40
9.000000000000023
100
AcDbArc
 50
171.7270140273
 51
227.980418767
  0
ARC
  5
17C
330
155
100
AcDbEntity
  8
DV3_Default
  6
Continuous
 62
     7
370
    18
100
AcDbCircle
 10
49.6115325946
 20
91.3522466437
 30
0.0
 40
8.999999999999904
100
AcDbArc
 50
227.980418767
 51
267.9468827933
  0
LINE
  5
17D
330
155
100
AcDbEntity
  8
DV3_Default
  6
Continuous
 62
     7
370
    18
100
AcDbLine
 10
48.0899294922
 20
98.7374790887
 30
0.0
 11
49.6115325937
 21
99.3522466471
 31
0.0
  0
LINE
  5
17E
330
155
100
AcDbEntity
  8
DV3_Default
  6
Continuous
 62
     7
370
    18
100
AcDbLine
 10
52.5737905569
 20
88.2969494236
 30
0.0
 11
52.374249595
 21
88.2689057703
 31
0.0
  0
LINE
  5
17F
330
155
100
AcDbEntity
  8
DV3_Default
  6
HIDDEN2
 62
     7
370
    13
100
AcDbLine
 10
52.6097991386
 20
87.3898229061
 30
0.0
 11
52.4873246514
 21
87.4605335842
 31
0.0
  0
LINE
  5
180
330
155
100
AcDbEntity
  8
DV3_Default
  6
HIDDEN2
 62
     7
370
    13
100
AcDbLine
 10
51.3173753824
 20
91.8297236443
 30
0.0
 11
51.2752268738
 21
91.9870240198
 31
0.0
  0
CIRCLE
  5
182
330
155
100
AcDbEntity
  8
DV3_Default
  6
CENTER2
 62
     7
370
     9
100
AcDbCircle
 10
49.6115325937
 20
89.6022466471
 30
0.0
 40
9.75
  0
LINE
  5
183
330
155
100
AcDbEntity
  8
DV3_Default
  6
Continuous
 62
     7
370
     5
100
AcDbLine
 10
51.1115326068
 20
89.6022466471
 30
0.0
 11
48.1115325807
 21
89.6022466471
 31
0.0
  0
LINE
  5
184
330
155
100
AcDbEntity
  8
DV3_Default
  6
Continuous
 62
     7
370
     5
100
AcDbLine
 10
49.6115325937
 20
88.102246634
 30
0.0
 11
49.6115325937
 21
91.1022466601
 31
0.0
  0
LINE
  5
185
330
155
100
AcDbEntity
  8
DV3_Default
  6
Continuous
 62
     7
370
     5
100
AcDbLine
 10
52.6115326198
 20
89.6022466471
 30
0.0
 11
60.3615325937
 21
89.6022466471
 31
0.0
  0
LINE
  5
186
330
155
100
AcDbEntity
  8
DV3_Default
  6
Continuous
 62
     7
370
     5
100
AcDbLine
 10
49.6115325937
 20
86.602246621
 30
0.0
 11
49.6115325937
 21
78.8522466471
 31
0.0
  0
LINE
  5
187
330
155
100
AcDbEntity
  8
DV3_Default
  6
Continuous
 62
     7
370
     5
100
AcDbLine
 10
46.6115325677
 20
89.6022466471
 30
0.0
 11
38.8615325937
 21
89.6022466471
 31
0.0
  0
LINE
  5
188
330
155
100
AcDbEntity
  8
DV3_Default
  6
Continuous
 62
     7
370
     5
100
AcDbLine
 10
49.6115325937
 20
92.6022466732
 30
0.0
 11
49.6115325937
 21
100.3522466471
 31
0.0
  0
ENDBLK
  5
18A
330
155
100
AcDbEntity
  8
0
100
AcDbBlockEnd
  0
BLOCK
  5
18D
330
18C
100
AcDbEntity
  8
0
100
AcDbBlockBegin
  2
_OBLIQUE
 70
     0
 10
0.0
 20
0.0
 30
0.0
  3
_OBLIQUE
  1

  0
LINE
  5
18F
330
18C
100
AcDbEntity
  8
0
  6
ByBlock
 62
     0
370
    -2
100
AcDbLine
 10
-0.5
 20
-0.5
 30
0.0
 11
0.5
 21
0.5
 31
0.0
  0
ENDBLK
  5
18E
330
18C
100
AcDbEntity
  8
0
100
AcDbBlockEnd
  0
BLOCK
  5
191
330
190
100
AcDbEntity
  8
0
100
AcDbBlockBegin
  2
_DOT
 70
     0
 10
0.0
 20
0.0
 30
0.0
  3
_DOT
  1

  0
POLYLINE
  5
193
330
190
100
AcDbEntity
  8
0
  6
ByBlock
 62
     0
100
AcDb2dPolyline
 66
     1
 10
0.0
 20
0.0
 30
0.0
 70
     1
 40
0.5
 41
0.5
  0
VERTEX
  5
195
330
193
100
AcDbEntity
  8
0
  6
ByBlock
 62
     0
100
AcDbVertex
100
AcDb2dVertex
 10
-0.25
 20
0.0
 30
0.0
 42
1.0
  0
VERTEX
  5
196
330
193
100
AcDbEntity
  8
0
  6
ByBlock
 62
     0
100
AcDbVertex
100
AcDb2dVertex
 10
0.25
 20
0.0
 30
0.0
 42
1.0
  0
SEQEND
  5
197
330
193
100
AcDbEntity
  8
0
  6
ByBlock
 62
     0
  0
LINE
  5
194
330
190
100
AcDbEntity
  8
0
  6
ByBlock
 62
     0
370
    -2
100
AcDbLine
 10
-0.5
 20
0.0
 30
0.0
 11
-1.0
 21
0.0
 31
0.0
  0
ENDBLK
  5
192
330
190
100
AcDbEntity
  8
0
100
AcDbBlockEnd
  0
BLOCK
  5
19B
330
198
100
AcDbEntity
  8
0
100
AcDbBlockBegin
  2
_SE_FILLED
 70
     0
 10
0.0
 20
0.0
 30
0.0
  3
_SE_FILLED
  1

  0
SOLID
  5
199
330
198
100
AcDbEntity
  8
0
 62
     0
100
AcDbTrace
 10
0.0
 20
0.0
 30
0.0
 11
-1.0
 21
-0.1665
 31
0.0
 12
-1.0
 22
0.1665
 32
0.0
 13
0.0
 23
0.0
 33
0.0
  0
LINE
  5
19A
330
198
100
AcDbEntity
  8
0
 62
     0
100
AcDbLine
 10
0.0
 20
0.0
 30
0.0
 11
-1.0
 21
0.0
 31
0.0
  0
ENDBLK
  5
19C
330
198
100
AcDbEntity
  8
0
100
AcDbBlockEnd
  0
BLOCK
  5
1A9
330
1A1
100
AcDbEntity
  8
0
100
AcDbBlockBegin
  2
DMBLK43
 70
     0
 10
0.0
 20
0.0
 30
0.0
  3
DMBLK43
  1

  0
HATCH
  5
1A2
330
1A1
100
AcDbEntity
  8
Default
  6
Continuous
 62
     7
370
     5
100
AcDbHatch
 10
0.0
 20
0.0
 30
0.0
210
0.0
220
0.0
230
1.0
  2
SOLID
 70
     1
 71
     0
 91
        1
 92
        1
 93
        3
 72
     1
 10
241.9592272050736
 20
83.26527157216886
 11
240.9592271963813
 21
83.26527157216886
 72
     1
 10
240.9592271963813
 20
83.26527157216886
 11
241.4592272007275
 21
80.26527154609182
 72
     1
 10
241.4592272007275
 20
80.26527154609182
 11
241.9592272050736
 21
83.26527157216886
 97
        0
 75
     0
 76
     1
 98
        0
  0
HATCH
  5
1A3
330
1A1
100
AcDbEntity
  8
Default
  6
Continuous
 62
     7
370
     5
100
AcDbHatch
 10
0.0
 20
0.0
 30
0.0
210
0.0
220
0.0
230
1.0
  2
SOLID
 70
     1
 71
     0
 91
        1
 92
        1
 93
        3
 72
     1
 10
241.9592272050736
 20
93.4392209851704
 11
241.4592272007275
 21
96.43922101124743
 72
     1
 10
241.4592272007275
 20
96.43922101124743
 11
240.9592271963813
 21
93.4392209851704
 72
     1
 10
240.9592271963813
 20
93.4392209851704
 11
241.9592272050736
 21
93.4392209851704
 97
        0
 75
     0
 76
     1
 98
        0
  0
LINE
  5
1A4
330
1A1
100
AcDbEntity
  8
Default
  6
Continuous
 62
     7
370
     5
100
AcDbLine
 10
233.0412434285
 20
80.2652715461
 30
0.0
 11
242.9592272138
 21
80.2652715461
 31
0.0
  0
LINE
  5
1A5
330
1A1
100
AcDbEntity
  8
Default
  6
Continuous
 62
     7
370
     5
100
AcDbLine
 10
233.0412434285
 20
96.4392217414
 30
0.0
 11
242.9592272138
 21
96.4392217414
 31
0.0
  0
LINE
  5
1A6
330
1A1
100
AcDbEntity
  8
Default
  6
Continuous
 62
     7
370
     5
100
AcDbLine
 10
241.4592272007
 20
80.2652715461
 30
0.0
 11
241.4592272007
 21
96.4392210112
 31
0.0
  0
TEXT
  5
1A7
330
1A1
100
AcDbEntity
  8
Default
  6
Continuous
 62
     7
370
     5
100
AcDbText
 10
240.7092272007
 20
88.2399465075
 30
0.0
 40
3.0
  1
16
 50
90.0
  7
SEACAD_Arial
 11
237.7092272007
 21
88.2399465075
 31
0.0
100
AcDbText
 73
     3
  0
TEXT
  5
1A8
330
1A1
100
AcDbEntity
  8
Default
  6
Continuous
 62
     7
370
     5
100
AcDbText
 10
240.7092272007
 20
83.7688938759
 30
0.0
 40
3.0
  1
O
 50
90.0
  7
SEACAD_Solid_Edge_ANSI1_Symbols
 11
237.7092272007
 21
83.7688938759
 31
0.0
100
AcDbText
 73
     3
  0
ENDBLK
  5
1AA
330
1A1
100
AcDbEntity
  8
0
100
AcDbBlockEnd
  0
BLOCK
  5
1B4
330
1AD
100
AcDbEntity
  8
0
100
AcDbBlockBegin
  2
DMBLK44
 70
     0
 10
0.0
 20
0.0
 30
0.0
  3
DMBLK44
  1

  0
HATCH
  5
1AE
330
1AD
100
AcDbEntity
  8
Default
  6
Continuous
 62
     7
370
     5
100
AcDbHatch
 10
0.0
 20
0.0
 30
0.0
210
0.0
220
0.0
230
1.0
  2
SOLID
 70
     1
 71
     0
 91
        1
 92
        1
 93
        3
 72
     1
 10
117.4563653972084
 20
72.2307471181399
 11
120.4563654232854
 21
72.73074712248608
 72
     1
 10
120.4563654232854
 20
72.73074712248608
 11
117.4563653972084
 21
73.23074712683226
 72
     1
 10
117.4563653972084
 20
73.23074712683226
 11
117.4563653972084
 21
72.2307471181399
 97
        0
 75
     0
 76
     1
 98
        0
  0
HATCH
  5
1AF
330
1AD
100
AcDbEntity
  8
Default
  6
Continuous
 62
     7
370
     5
100
AcDbHatch
 10
0.0
 20
0.0
 30
0.0
210
0.0
220
0.0
230
1.0
  2
SOLID
 70
     1
 71
     0
 91
        1
 92
        1
 93
        3
 72
     1
 10
85.5412436854178
 20
72.2307471181399
 11
85.5412436854178
 21
73.23074712683226
 72
     1
 10
85.5412436854178
 20
73.23074712683226
 11
82.54124365934076
 21
72.73074712248608
 72
     1
 10
82.54124365934076
 20
72.73074712248608
 11
85.5412436854178
 21
72.2307471181399
 97
        0
 75
     0
 76
     1
 98
        0
  0
LINE
  5
1B0
330
1AD
100
AcDbEntity
  8
Default
  6
Continuous
 62
     7
370
     5
100
AcDbLine
 10
120.4563654233
 20
80.672744034
 30
0.0
 11
120.4563654233
 21
71.2307471094
 31
0.0
  0
LINE
  5
1B1
330
1AD
100
AcDbEntity
  8
Default
  6
Continuous
 62
     7
370
     5
100
AcDbLine
 10
82.5412434163
 20
97.6590614688
 30
0.0
 11
82.5412434163
 21
71.2307471094
 31
0.0
  0
LINE
  5
1B2
330
1AD
100
AcDbEntity
  8
Default
  6
Continuous
 62
     7
370
     5
100
AcDbLine
 10
120.4563654233
 20
72.7307471225
 30
0.0
 11
82.5412436593
 21
72.7307471225
 31
0.0
  0
TEXT
  5
1B3
330
1AD
100
AcDbEntity
  8
Default
  6
Continuous
 62
     7
370
     5
100
AcDbText
 10
98.6259784544
 20
73.4807471225
 30
0.0
 40
3.0
  1
36
  7
SEACAD_Arial
 11
98.6259784544
 21
76.4807471225
 31
0.0
100
AcDbText
 73
     3
  0
ENDBLK
  5
1B5
330
1AD
100
AcDbEntity
  8
0
100
AcDbBlockEnd
  0
BLOCK
  5
1BE
330
1B7
100
AcDbEntity
  8
0
100
AcDbBlockBegin
  2
DMBLK45
 70
     0
 10
0.0
 20
0.0
 30
0.0
  3
DMBLK45
  1

  0
HATCH
  5
1B8
330
1B7
100
AcDbEntity
  8
Default
  6
Continuous
 62
     7
370
     5
100
AcDbHatch
 10
0.0
 20
0.0
 30
0.0
210
0.0
220
0.0
230
1.0
  2
SOLID
 70
     1
 71
     0
 91
        1
 92
        1
 93
        3
 72
     1
 10
229.5412433893788
 20
64.10404665497063
 11
232.5412434154558
 21
64.60404665931681
 72
     1
 10
232.5412434154558
 20
64.60404665931681
 11
229.5412433893788
 21
65.10404666366298
 72
     1
 10
229.5412433893788
 20
65.10404666366298
 11
229.5412433893788
 21
64.10404665497063
 97
        0
 75
     0
 76
     1
 98
        0
  0
HATCH
  5
1B9
330
1B7
100
AcDbEntity
  8
Default
  6
Continuous
 62
     7
370
     5
100
AcDbHatch
 10
0.0
 20
0.0
 30
0.0
210
0.0
220
0.0
230
1.0
  2
SOLID
 70
     1
 71
     0
 91
        1
 92
        1
 93
        3
 72
     1
 10
85.54123748106838
 20
64.10404665497063
 11
85.54123748106838
 21
65.10404666366298
 72
     1
 10
85.54123748106838
 20
65.10404666366298
 11
82.54123745499135
 21
64.60404665931681
 72
     1
 10
82.54123745499135
 20
64.60404665931681
 11
85.54123748106838
 21
64.10404665497063
 97
        0
 75
     0
 76
     1
 98
        0
  0
LINE
  5
1BA
330
1B7
100
AcDbEntity
  8
Default
  6
Continuous
 62
     7
370
     5
100
AcDbLine
 10
232.5412434155
 20
79.7652715331
 30
0.0
 11
232.5412434155
 21
63.1040466463
 31
0.0
  0
LINE
  5
1BB
330
1B7
100
AcDbEntity
  8
Default
  6
Continuous
 62
     7
370
     5
100
AcDbLine
 10
82.5412434163
 20
97.6590614688
 30
0.0
 11
82.5412434163
 21
63.1040466463
 31
0.0
  0
LINE
  5
1BC
330
1B7
100
AcDbEntity
  8
Default
  6
Continuous
 62
     7
370
     5
100
AcDbLine
 10
232.5412434155
 20
64.6040466593
 30
0.0
 11
82.541237455
 21
64.6040466593
 31
0.0
  0
TEXT
  5
1BD
330
1B7
100
AcDbEntity
  8
Default
  6
Continuous
 62
     7
370
     5
100
AcDbText
 10
159.5433021547
 20
65.3540466593
 30
0.0
 40
3.0
  1
150
  7
SEACAD_Arial
 11
159.5433021547
 21
68.3540466593
 31
0.0
100
AcDbText
 73
     3
  0
ENDBLK
  5
1BF
330
1B7
100
AcDbEntity
  8
0
100
AcDbBlockEnd
  0
BLOCK
  5
1C8
330
1C1
100
AcDbEntity
  8
0
100
AcDbBlockBegin
  2
DMBLK46
 70
     0
 10
0.0
 20
0.0
 30
0.0
  3
DMBLK46
  1

  0
HATCH
  5
1C2
330
1C1
100
AcDbEntity
  8
Default
  6
Continuous
 62
     7
370
     5
100
AcDbHatch
 10
0.0
 20
0.0
 30
0.0
210
0.0
220
0.0
230
1.0
  2
SOLID
 70
     1
 71
     0
 91
        1
 92
        1
 93
        3
 72
     1
 10
73.79290762868328
 20
91.35224666982509
 11
74.29290763302946
 21
88.35224664374806
 72
     1
 10
74.29290763302946
 20
88.35224664374806
 11
74.79290763737563
 21
91.35224666982509
 72
     1
 10
74.79290763737563
 20
91.35224666982509
 11
73.79290762868328
 21
91.35224666982509
 97
        0
 75
     0
 76
     1
 98
        0
  0
HATCH
  5
1C3
330
1C1
100
AcDbEntity
  8
Default
  6
Continuous
 62
     7
370
     5
100
AcDbHatch
 10
0.0
 20
0.0
 30
0.0
210
0.0
220
0.0
230
1.0
  2
SOLID
 70
     1
 71
     0
 91
        1
 92
        1
 93
        3
 72
     1
 10
73.79290762868328
 20
96.35224655806638
 11
74.79290763737563
 21
96.35224655806638
 72
     1
 10
74.79290763737563
 20
96.35224655806638
 11
74.29290763302946
 21
99.35224658414342
 72
     1
 10
74.29290763302946
 20
99.35224658414342
 11
73.79290762868328
 21
96.35224655806638
 97
        0
 75
     0
 76
     1
 98
        0
  0
LINE
  5
1C4
330
1C1
100
AcDbEntity
  8
Default
  6
Continuous
 62
     7
370
     5
100
AcDbLine
 10
76.8459792269
 20
88.3522466437
 30
0.0
 11
72.79290762
 21
88.3522466437
 31
0.0
  0
LINE
  5
1C5
330
1C1
100
AcDbEntity
  8
Default
  6
Continuous
 62
     7
370
     5
100
AcDbLine
 10
81.2412434033
 20
99.3522466471
 30
0.0
 11
72.79290762
 21
99.3522466471
 31
0.0
  0
LINE
  5
1C6
330
1C1
100
AcDbEntity
  8
Default
  6
Continuous
 62
     7
370
     5
100
AcDbLine
 10
74.292907633
 20
88.3522466437
 30
0.0
 11
74.292907633
 21
99.3522465841
 31
0.0
  0
TEXT
  5
1C7
330
1C1
100
AcDbEntity
  8
Default
  6
Continuous
 62
     7
370
     5
100
AcDbText
 10
73.542907633
 20
91.504420527
 30
0.0
 40
3.0
  1
11
 50
90.0
  7
SEACAD_Arial
 11
70.542907633
 21
91.504420527
 31
0.0
100
AcDbText
 73
     3
  0
ENDBLK
  5
1C9
330
1C1
100
AcDbEntity
  8
0
100
AcDbBlockEnd
  0
BLOCK
  5
1D1
330
1CB
100
AcDbEntity
  8
0
100
AcDbBlockBegin
  2
DMBLK47
 70
     0
 10
0.0
 20
0.0
 30
0.0
  3
DMBLK47
  1

  0
HATCH
  5
1CC
330
1CB
100
AcDbEntity
  8
Default
  6
Continuous
 62
     7
370
     5
100
AcDbHatch
 10
0.0
 20
0.0
 30
0.0
210
0.0
220
0.0
230
1.0
  2
SOLID
 70
     1
 71
     0
 91
        1
 92
        1
 93
        3
 72
     1
 10
109.0591643157337
 20
91.35238457873929
 11
108.5591643113875
 21
94.35238460481632
 72
     1
 10
108.5591643113875
 20
94.35238460481632
 11
108.0591643070413
 21
91.35238457873929
 72
     1
 10
108.0591643070413
 20
91.35238457873929
 11
109.0591643157337
 21
91.35238457873929
 97
        0
 75
     0
 76
     1
 98
        0
  0
HATCH
  5
1CD
330
1CB
100
AcDbEntity
  8
Default
  6
Continuous
 62
     7
370
     5
100
AcDbHatch
 10
0.0
 20
0.0
 30
0.0
210
0.0
220
0.0
230
1.0
  2
SOLID
 70
     1
 71
     0
 91
        1
 92
        1
 93
        3
 72
     1
 10
109.0591643157337
 20
102.3522466731627
 11
108.0591643070413
 21
102.3522466731627
 72
     1
 10
108.0591643070413
 20
102.3522466731627
 11
108.5591643113875
 21
99.35224664708568
 72
     1
 10
108.5591643113875
 20
99.35224664708568
 11
109.0591643157337
 21
102.3522466731627
 97
        0
 75
     0
 76
     1
 98
        0
  0
LINE
  5
1CE
330
1CB
100
AcDbEntity
  8
Default
  6
Continuous
 62
     7
370
     5
100
AcDbLine
 10
84.2412434294
 20
99.3522466471
 30
0.0
 11
110.0591643244
 21
99.3522466471
 31
0.0
  0
LINE
  5
1CF
330
1CB
100
AcDbEntity
  8
Default
  6
Continuous
 62
     7
370
     5
100
AcDbLine
 10
108.5591643114
 20
88.3523845527
 30
0.0
 11
108.5591643114
 21
108.0210260528
 31
0.0
  0
TEXT
  5
1D0
330
1CB
100
AcDbEntity
  8
Default
  6
Continuous
 62
     7
370
     5
100
AcDbText
 10
107.8091643114
 20
104.6231998685
 30
0.0
 40
3.0
  1
5
 50
90.0
  7
SEACAD_Arial
 11
104.8091643114
 21
104.6231998685
 31
0.0
100
AcDbText
 73
     3
  0
ENDBLK
  5
1D2
330
1CB
100
AcDbEntity
  8
0
100
AcDbBlockEnd
  0
BLOCK
  5
1DC
330
1D4
100
AcDbEntity
  8
0
100
AcDbBlockBegin
  2
DMBLK48
 70
     0
 10
0.0
 20
0.0
 30
0.0
  3
DMBLK48
  1

  0
HATCH
  5
1D5
330
1D4
100
AcDbEntity
  8
Default
  6
Continuous
 62
     7
370
     5
100
AcDbHatch
 10
0.0
 20
0.0
 30
0.0
210
0.0
220
0.0
230
1.0
  2
SOLID
 70
     1
 71
     0
 91
        1
 92
        1
 93
        3
 72
     1
 10
56.36153256766593
 20
105.5040319133609
 11
56.36153256766593
 21
104.5040319046686
 72
     1
 10
56.36153256766593
 20
104.5040319046686
 11
59.36153259374296
 21
105.0040319090147
 72
     1
 10
59.36153259374296
 20
105.0040319090147
 11
56.36153256766593
 21
105.5040319133609
 97
        0
 75
     0
 76
     1
 98
        0
  0
HATCH
  5
1D6
330
1D4
100
AcDbEntity
  8
Default
  6
Continuous
 62
     7
370
     5
100
AcDbHatch
 10
0.0
 20
0.0
 30
0.0
210
0.0
220
0.0
230
1.0
  2
SOLID
 70
     1
 71
     0
 91
        1
 92
        1
 93
        3
 72
     1
 10
42.86153221748864
 20
105.5040319133609
 11
39.86153219141161
 21
105.0040319090147
 72
     1
 10
39.86153219141161
 20
105.0040319090147
 11
42.86153221748864
 21
104.5040319046686
 72
     1
 10
42.86153221748864
 20
104.5040319046686
 11
42.86153221748864
 21
105.5040319133609
 97
        0
 75
     0
 76
     1
 98
        0
  0
LINE
  5
1D7
330
1D4
100
AcDbEntity
  8
Default
  6
Continuous
 62
     7
370
     5
100
AcDbLine
 10
59.3615325937
 20
91.1022466601
 30
0.0
 11
59.3615325937
 21
106.5040319221
 31
0.0
  0
LINE
  5
1D8
330
1D4
100
AcDbEntity
  8
Default
  6
Continuous
 62
     7
370
     5
100
AcDbLine
 10
39.8615325937
 20
91.1022466601
 30
0.0
 11
39.8615325937
 21
106.5040319221
 31
0.0
  0
LINE
  5
1D9
330
1D4
100
AcDbEntity
  8
Default
  6
Continuous
 62
     7
370
     5
100
AcDbLine
 10
59.3615325937
 20
105.004031909
 30
0.0
 11
39.8615321914
 21
105.004031909
 31
0.0
  0
TEXT
  5
1DA
330
1D4
100
AcDbEntity
  8
Default
  6
Continuous
 62
     7
370
     5
100
AcDbText
 10
43.2673104246
 20
105.754031909
 30
0.0
 40
3.0
  1
O
  7
SEACAD_Solid_Edge_ANSI1_Symbols
 11
43.2673104246
 21
108.754031909
 31
0.0
100
AcDbText
 73
     3
  0
TEXT
  5
1DB
330
1D4
100
AcDbEntity
  8
Default
  6
Continuous
 62
     7
370
     5
100
AcDbText
 10
47.7383630562
 20
105.754031909
 30
0.0
 40
3.0
  1
19.5
  7
SEACAD_Arial
 11
47.7383630562
 21
108.754031909
 31
0.0
100
AcDbText
 73
     3
  0
ENDBLK
  5
1DD
330
1D4
100
AcDbEntity
  8
0
100
AcDbBlockEnd
  0
ENDSEC
  0
SECTION
  2
ENTITIES
  0
MTEXT
  5
6F
330
1F
100
AcDbEntity
  8
Default
100
AcDbMText
 10
156.2288610878
 20
33.2186318439
 30
0.0
 40
5.0
 41
73.0543588261
 46
7.8260969565
 71
     5
 72
     1
  1
{\fArial|b0||i0||c0|p34;\C7;\H5.;\W1.;AH1216M SDUCL 07}
 73
     1
 44
1.0
1001
ACAD
1000
ACAD_MTEXT_DEFINED_HEIGHT_BEGIN
1070
    46
1040
7.8260969565
1000
ACAD_MTEXT_DEFINED_HEIGHT_END
  0
ELLIPSE
  5
70
330
1F
100
AcDbEntity
  8
Default
  6
Continuous
 62
     7
370
    25
100
AcDbEllipse
 10
92.1592214187
 20
134.2730695007
 30
0.0
 11
0.8215500342869941
 21
-0.1867159168834248
 31
0.0
210
0.0
220
0.0
230
1.0
 40
0.3710496088
 41
0.0
 42
6.283185307179586
  0
INSERT
  5
72
330
1F
100
AcDbEntity
  8
Default
100
AcDbBlockReference
  2
SE
 10
0.0
 20
0.0
 30
0.0
  0
INSERT
  5
F6
330
1F
100
AcDbEntity
  8
Default
100
AcDbBlockReference
  2
SE1
 10
0.0
 20
0.0
 30
0.0
  0
INSERT
  5
156
330
1F
100
AcDbEntity
  8
Default
100
AcDbBlockReference
  2
SE2
 10
0.0
 20
0.0
 30
0.0
  0
DIMENSION
  5
19F
330
1F
100
AcDbEntity
  8
Default
  6
Continuous
 62
     7
370
     5
100
AcDbDimension
  2
DMBLK43
 10
241.4592272007
 20
80.2652715461
 30
0.0
 11
241.4592272007
 21
88.3522462787
 31
0.0
 70
   161
  1
\A1;%%C <>
 71
     5
 42
-1.0
 73
     0
 74
     0
 75
     0
  3
Precise
100
AcDbAlignedDimension
 13
231.5412434155
 23
80.2652715461
 33
0.0
 14
231.5412434155
 24
96.4392217414
 34
0.0
  0
DIMENSION
  5
1AC
330
1F
100
AcDbEntity
  8
Default
  6
Continuous
 62
     7
370
     5
100
AcDbDimension
  2
DMBLK44
 10
82.5412434163
 20
72.7307471225
 30
0.0
 11
101.4988045413
 21
72.7307471225
 31
0.0
 70
   160
  1
\A1;36 {}
 71
     5
 42
-1.0
 73
     0
 74
     0
 75
     0
  3
Precise
100
AcDbAlignedDimension
 13
120.4563654233
 23
82.1727440471
 33
0.0
 14
82.5412434163
 24
99.1590614818
 34
0.0
100
AcDbRotatedDimension
1001
ACAD_DSTYLE_DIMINSPECT
1070
   393
1070
     1
1070
   394
1070
     1
1070
   395
1000
Round
  0
DIMENSION
  5
1B6
330
1F
100
AcDbEntity
  8
Default
  6
Continuous
 62
     7
370
     5
100
AcDbDimension
  2
DMBLK45
 10
82.5412434163
 20
64.6040466593
 30
0.0
 11
163.0650412851
 21
64.6040466593
 31
0.0
 70
   160
  1
\A1;<>
 71
     5
 42
-1.0
 73
     0
 74
     0
 75
     0
  3
Precise
100
AcDbAlignedDimension
 13
232.5412434155
 23
81.2652715461
 33
0.0
 14
82.5412434163
 24
99.1590614818
 34
0.0
100
AcDbRotatedDimension
1001
ACAD
1000
DSTYLE
1002
{
1070
   271
1070
     4
1070
     0
1002
}
  0
DIMENSION
  5
1C0
330
1F
100
AcDbEntity
  8
Default
  6
Continuous
 62
     7
370
     5
100
AcDbDimension
  2
DMBLK46
 10
74.292907633
 20
99.3522466471
 30
0.0
 11
74.292907633
 21
93.8522466139
 31
0.0
 70
   160
  1
\A1;<>
 71
     5
 42
-1.0
 73
     0
 74
     0
 75
     0
  3
Precise
100
AcDbAlignedDimension
 13
78.3459792399
 23
88.3522466437
 33
0.0
 14
82.7412434163
 24
99.3522466471
 34
0.0
 50
90.0
100
AcDbRotatedDimension
1001
ACAD
1000
DSTYLE
1002
{
1070
   271
1070
     4
1070
     0
1002
}
  0
DIMENSION
  5
1CA
330
1F
100
AcDbEntity
  8
Default
  6
Continuous
 62
     7
370
     5
100
AcDbDimension
  2
DMBLK47
 10
108.5591643114
 20
99.3522466471
 30
0.0
 11
108.5591643114
 21
103.5731998685
 31
0.0
 70
   160
  1
\A1;<>
 71
     5
 42
-1.0
 73
     0
 74
     0
 75
     0
  3
Precise
100
AcDbAlignedDimension
 13
89.6249833513
 23
94.3523846048
 33
0.0
 14
82.7412434163
 24
99.3522466471
 34
0.0
 50
90.0
100
AcDbRotatedDimension
1001
ACAD
1000
DSTYLE
1002
{
1070
   271
1070
     2
1070
     0
1002
}
  0
DIMENSION
  5
1D3
330
1F
100
AcDbEntity
  8
Default
  6
Continuous
 62
     7
370
     5
100
AcDbDimension
  2
DMBLK48
 10
39.8615312473
 20
105.0040310566
 30
0.0
 11
49.6115323926
 21
105.004031909
 31
0.0
 70
   161
  1
\A1;%%c<>
 71
     5
 42
-1.0
 73
     0
 74
     0
 75
     0
  3
Precise
100
AcDbAlignedDimension
 13
59.3615325937
 23
89.6022474995
 33
0.0
 14
39.8615325937
 24
89.6022457947
 34
0.0
1001
ACAD
1000
DSTYLE
1002
{
1070
   271
1070
     4
1070
   283
1070
     1
1070
     0
1002
}
  0
ENDSEC
  0
SECTION
  2
OBJECTS
  0
DICTIONARY
  5
C
330
0
100
AcDbDictionary
281
     1
  3
ACAD_DETAILVIEWSTYLE
350
219
  3
ACAD_GROUP
350
D
  3
ACAD_LAYOUT
350
1A
  3
ACAD_MATERIAL
350
43
  3
ACAD_MLEADERSTYLE
350
6B
  3
ACAD_MLINESTYLE
350
17
  3
ACAD_PLOTSETTINGS
350
19
  3
ACAD_PLOTSTYLENAME
350
E
  3
ACAD_SCALELIST
350
47
  3
ACAD_SECTIONVIEWSTYLE
350
21A
  3
ACAD_TABLESTYLE
350
69
  3
ACAD_VISUALSTYLE
350
2A
  3
ACDB_RECOMPOSE_DATA
350
216
  3
AcDbVariableDictionary
350
1DE
  0
SUN
  5
6D
330
29
100
AcDbSun
 90
        1
290
     0
 63
     7
421
 16777215
 40
1.0
291
     1
 91
  2455826
 92
 54000000
292
     0
 70
     2
 71
   256
280
     1
  0
DICTIONARY
  5
219
102
{ACAD_REACTORS
330
C
102
}
330
C
100
AcDbDictionary
281
     1
  0
DICTIONARY
  5
D
102
{ACAD_REACTORS
330
C
102
}
330
C
100
AcDbDictionary
281
     1
  0
DICTIONARY
  5
1A
102
{ACAD_REACTORS
330
C
102
}
330
C
100
AcDbDictionary
281
     1
  3
Layout1
350
1E
  3
Model
350
22
  0
DICTIONARY
  5
43
102
{ACAD_REACTORS
330
C
102
}
330
C
100
AcDbDictionary
281
     1
  3
ByBlock
350
45
  3
ByLayer
350
44
  3
Global
350
46
  0
DICTIONARY
  5
6B
102
{ACAD_REACTORS
330
C
102
}
330
C
100
AcDbDictionary
281
     1
  3
Standard
350
6C
  0
DICTIONARY
  5
17
102
{ACAD_REACTORS
330
C
102
}
330
C
100
AcDbDictionary
281
     1
  3
Standard
350
18
  0
DICTIONARY
  5
19
102
{ACAD_REACTORS
330
C
102
}
330
C
100
AcDbDictionary
281
     1
  0
ACDBDICTIONARYWDFLT
  5
E
102
{ACAD_REACTORS
330
C
102
}
330
C
100
AcDbDictionary
281
     1
  3
Normal
350
F
100
AcDbDictionaryWithDefault
340
F
  0
DICTIONARY
  5
47
102
{ACAD_REACTORS
330
C
102
}
330
C
100
AcDbDictionary
281
     1
  3
A0
350
48
  3
A1
350
49
  3
A2
350
4A
  3
A3
350
4B
  3
A4
350
4C
  3
A5
350
4D
  3
A6
350
4E
  3
A7
350
4F
  3
A8
350
50
  3
A9
350
51
  3
B0
350
52
  3
B1
350
53
  3
B2
350
54
  3
B3
350
55
  3
B4
350
56
  3
B5
350
57
  3
B6
350
58
  3
B7
350
59
  3
B8
350
5A
  3
B9
350
5B
  3
C0
350
5C
  3
C1
350
5D
  3
C2
350
5E
  3
C3
350
5F
  3
C4
350
60
  3
C5
350
61
  3
C6
350
62
  3
C7
350
63
  3
C8
350
64
  3
C9
350
65
  3
D0
350
66
  3
D1
350
67
  3
D2
350
68
  0
DICTIONARY
  5
21A
102
{ACAD_REACTORS
330
C
102
}
330
C
100
AcDbDictionary
281
     1
  0
DICTIONARY
  5
69
102
{ACAD_REACTORS
330
C
102
}
330
C
100
AcDbDictionary
281
     1
  3
Standard
350
6A
  0
DICTIONARY
  5
2A
102
{ACAD_REACTORS
330
C
102
}
330
C
100
AcDbDictionary
281
     1
  3
2dWireframe
350
2F
  3
Basic
350
32
  3
Brighten
350
36
  3
ColorChange
350
3A
  3
Conceptual
350
34
  3
Dim
350
35
  3
EdgeColorOff
350
3D
  3
Facepattern
350
39
  3
Flat
350
2B
  3
FlatWithEdges
350
2C
  3
Gouraud
350
2D
  3
GouraudWithEdges
350
2E
  3
Hidden
350
31
  3
JitterOff
350
3B
  3
Linepattern
350
38
  3
OverhangOff
350
3C
  3
Realistic
350
33
  3
Shaded
350
42
  3
Shaded with edges
350
41
  3
Shades of Gray
350
3E
  3
Sketchy
350
3F
  3
Thicken
350
37
  3
Wireframe
350
30
  3
X-Ray
350
40
  0
XRECORD
  5
216
102
{ACAD_REACTORS
330
C
102
}
330
C
100
AcDbXrecord
280
     1
 90
        1
330
6A
  0
DICTIONARY
  5
1DE
102
{ACAD_REACTORS
330
C
102
}
330
C
100
AcDbDictionary
281
     1
  3
CANNOSCALE
350
1DF
  3
CMLEADERSTYLE
350
218
  3
CTABLESTYLE
350
217
  3
SECTIONTHICKNESSINC
350
21B
  3
XCLIPFRAME
350
1E0
  0
LAYOUT
  5
1E
102
{ACAD_REACTORS
330
1A
102
}
330
1A
100
AcDbPlotSettings
  1

  2
none_device
  4

  6

 40
0.0
 41
0.0
 42
0.0
 43
0.0
 44
0.0
 45
0.0
 46
0.0
 47
0.0
 48
0.0
 49
0.0
140
0.0
141
0.0
142
1.0
143
1.0
 70
   688
 72
     1
 73
     0
 74
     5
  7

 75
    16
 76
     0
 77
     2
 78
   300
147
1.0
148
0.0
149
0.0
100
AcDbLayout
  1
Layout1
 70
     1
 71
     1
 10
0.0
 20
0.0
 11
297.0
 21
210.0
 12
0.0
 22
0.0
 32
0.0
 14
0.0
 24
0.0
 34
0.0
 15
297.0
 25
210.0
 35
0.0
146
0.0
 13
0.0
 23
0.0
 33
0.0
 16
1.0
 26
0.0
 36
0.0
 17
0.0
 27
1.0
 37
0.0
 76
     0
330
1B
  0
LAYOUT
  5
22
102
{ACAD_REACTORS
330
1A
102
}
330
1A
100
AcDbPlotSettings
  1

  2
none_device
  4
Letter_(8.50_x_11.00_Inches)
  6

 40
6.35
 41
6.35
 42
6.35000508
 43
6.35000508
 44
215.9
 45
279.4
 46
0.0
 47
0.0
 48
0.0
 49
0.0
140
0.0
141
0.0
142
1.0
143
1.0
 70
  1712
 72
     1
 73
     0
 74
     0
  7

 75
     0
 76
     0
 77
     2
 78
   300
147
1.0
148
0.0
149
0.0
100
AcDbLayout
  1
Model
 70
     1
 71
     0
 10
0.0
 20
0.0
 11
297.0
 21
210.0
 12
0.0
 22
0.0
 32
0.0
 14
0.0
 24
0.0
 34
0.0
 15
297.0
 25
210.0
 35
0.0
146
0.0
 13
0.0
 23
0.0
 33
0.0
 16
1.0
 26
0.0
 36
0.0
 17
0.0
 27
1.0
 37
0.0
 76
     0
330
1F
331
29
  0
MATERIAL
  5
45
102
{ACAD_REACTORS
330
43
102
}
330
43
100
AcDbMaterial
  1
ByBlock
 72
     1
 94
      127
  0
MATERIAL
  5
44
102
{ACAD_REACTORS
330
43
102
}
330
43
100
AcDbMaterial
  1
ByLayer
 72
     1
 94
      127
  0
MATERIAL
  5
46
102
{ACAD_REACTORS
330
43
102
}
330
43
100
AcDbMaterial
  1
Global
 72
     1
 94
      127
  0
MLEADERSTYLE
  5
6C
102
{ACAD_REACTORS
330
6B
102
}
102
{ACAD_XDICTIONARY
360
214
102
}
330
6B
100
AcDbMLeaderStyle
170
     2
171
     1
172
     0
 90
        2
 40
0.0
 41
0.0
173
     1
 91
-1056964608
340
14
 92
       -2
290
     1
 42
2.0
291
     1
 43
8.0
  3
Standard
341
0
 44
4.0
300

342
11
174
     1
178
     6
175
     1
176
     0
 93
-1056964608
 45
4.0
292
     0
297
     0
 46
4.0
343
0
 94
-1056964608
 47
1.0
 49
1.0
140
1.0
293
     1
141
0.0
294
     1
177
     0
142
1.0
295
     0
296
     0
143
3.75
1001
ACAD_MLEADERVER
1070
     2
  0
MLINESTYLE
  5
18
102
{ACAD_REACTORS
330
17
102
}
330
17
100
AcDbMlineStyle
  2
Standard
 70
     0
  3

 62
   256
 51
90.0
 52
90.0
 71
     2
 49
0.5
 62
   256
  6
BYLAYER
 49
-0.5
 62
   256
  6
BYLAYER
  0
ACDBPLACEHOLDER
  5
F
102
{ACAD_REACTORS
330
E
102
}
330
E
  0
SCALE
  5
48
102
{ACAD_REACTORS
330
47
102
}
330
47
100
AcDbScale
 70
     0
300
1:1
140
1.0
141
1.0
290
     1
  0
SCALE
  5
49
102
{ACAD_REACTORS
330
47
102
}
330
47
100
AcDbScale
 70
     0
300
1:2
140
1.0
141
2.0
290
     0
  0
SCALE
  5
4A
102
{ACAD_REACTORS
330
47
102
}
330
47
100
AcDbScale
 70
     0
300
1:4
140
1.0
141
4.0
290
     0
  0
SCALE
  5
4B
102
{ACAD_REACTORS
330
47
102
}
330
47
100
AcDbScale
 70
     0
300
1:5
140
1.0
141
5.0
290
     0
  0
SCALE
  5
4C
102
{ACAD_REACTORS
330
47
102
}
330
47
100
AcDbScale
 70
     0
300
1:8
140
1.0
141
8.0
290
     0
  0
SCALE
  5
4D
102
{ACAD_REACTORS
330
47
102
}
330
47
100
AcDbScale
 70
     0
300
1:10
140
1.0
141
10.0
290
     0
  0
SCALE
  5
4E
102
{ACAD_REACTORS
330
47
102
}
330
47
100
AcDbScale
 70
     0
300
1:16
140
1.0
141
16.0
290
     0
  0
SCALE
  5
4F
102
{ACAD_REACTORS
330
47
102
}
330
47
100
AcDbScale
 70
     0
300
1:20
140
1.0
141
20.0
290
     0
  0
SCALE
  5
50
102
{ACAD_REACTORS
330
47
102
}
330
47
100
AcDbScale
 70
     0
300
1:30
140
1.0
141
30.0
290
     0
  0
SCALE
  5
51
102
{ACAD_REACTORS
330
47
102
}
330
47
100
AcDbScale
 70
     0
300
1:40
140
1.0
141
40.0
290
     0
  0
SCALE
  5
52
102
{ACAD_REACTORS
330
47
102
}
330
47
100
AcDbScale
 70
     0
300
1:50
140
1.0
141
50.0
290
     0
  0
SCALE
  5
53
102
{ACAD_REACTORS
330
47
102
}
330
47
100
AcDbScale
 70
     0
300
1:100
140
1.0
141
100.0
290
     0
  0
SCALE
  5
54
102
{ACAD_REACTORS
330
47
102
}
330
47
100
AcDbScale
 70
     0
300
2:1
140
2.0
141
1.0
290
     0
  0
SCALE
  5
55
102
{ACAD_REACTORS
330
47
102
}
330
47
100
AcDbScale
 70
     0
300
4:1
140
4.0
141
1.0
290
     0
  0
SCALE
  5
56
102
{ACAD_REACTORS
330
47
102
}
330
47
100
AcDbScale
 70
     0
300
8:1
140
8.0
141
1.0
290
     0
  0
SCALE
  5
57
102
{ACAD_REACTORS
330
47
102
}
330
47
100
AcDbScale
 70
     0
300
10:1
140
10.0
141
1.0
290
     0
  0
SCALE
  5
58
102
{ACAD_REACTORS
330
47
102
}
330
47
100
AcDbScale
 70
     0
300
100:1
140
100.0
141
1.0
290
     0
  0
SCALE
  5
59
102
{ACAD_REACTORS
330
47
102
}
330
47
100
AcDbScale
 70
     0
300
1/128" = 1'-0"
140
0.0078125
141
12.0
290
     0
  0
SCALE
  5
5A
102
{ACAD_REACTORS
330
47
102
}
330
47
100
AcDbScale
 70
     0
300
1/64" = 1'-0"
140
0.015625
141
12.0
290
     0
  0
SCALE
  5
5B
102
{ACAD_REACTORS
330
47
102
}
330
47
100
AcDbScale
 70
     0
300
1/32" = 1'-0"
140
0.03125
141
12.0
290
     0
  0
SCALE
  5
5C
102
{ACAD_REACTORS
330
47
102
}
330
47
100
AcDbScale
 70
     0
300
1/16" = 1'-0"
140
0.0625
141
12.0
290
     0
  0
SCALE
  5
5D
102
{ACAD_REACTORS
330
47
102
}
330
47
100
AcDbScale
 70
     0
300
3/32" = 1'-0"
140
0.09375
141
12.0
290
     0
  0
SCALE
  5
5E
102
{ACAD_REACTORS
330
47
102
}
330
47
100
AcDbScale
 70
     0
300
1/8" = 1'-0"
140
0.125
141
12.0
290
     0
  0
SCALE
  5
5F
102
{ACAD_REACTORS
330
47
102
}
330
47
100
AcDbScale
 70
     0
300
3/16" = 1'-0"
140
0.1875
141
12.0
290
     0
  0
SCALE
  5
60
102
{ACAD_REACTORS
330
47
102
}
330
47
100
AcDbScale
 70
     0
300
1/4" = 1'-0"
140
0.25
141
12.0
290
     0
  0
SCALE
  5
61
102
{ACAD_REACTORS
330
47
102
}
330
47
100
AcDbScale
 70
     0
300
3/8" = 1'-0"
140
0.375
141
12.0
290
     0
  0
SCALE
  5
62
102
{ACAD_REACTORS
330
47
102
}
330
47
100
AcDbScale
 70
     0
300
1/2" = 1'-0"
140
0.5
141
12.0
290
     0
  0
SCALE
  5
63
102
{ACAD_REACTORS
330
47
102
}
330
47
100
AcDbScale
 70
     0
300
3/4" = 1'-0"
140
0.75
141
12.0
290
     0
  0
SCALE
  5
64
102
{ACAD_REACTORS
330
47
102
}
330
47
100
AcDbScale
 70
     0
300
1" = 1'-0"
140
1.0
141
12.0
290
     0
  0
SCALE
  5
65
102
{ACAD_REACTORS
330
47
102
}
330
47
100
AcDbScale
 70
     0
300
1-1/2" = 1'-0"
140
1.5
141
12.0
290
     0
  0
SCALE
  5
66
102
{ACAD_REACTORS
330
47
102
}
330
47
100
AcDbScale
 70
     0
300
3" = 1'-0"
140
3.0
141
12.0
290
     0
  0
SCALE
  5
67
102
{ACAD_REACTORS
330
47
102
}
330
47
100
AcDbScale
 70
     0
300
6" = 1'-0"
140
6.0
141
12.0
290
     0
  0
SCALE
  5
68
102
{ACAD_REACTORS
330
47
102
}
330
47
100
AcDbScale
 70
     0
300
1'-0" = 1'-0"
140
12.0
141
12.0
290
     0
  0
TABLESTYLE
  5
6A
102
{ACAD_REACTORS
330
69
102
}
102
{ACAD_XDICTIONARY
360
211
102
}
330
69
100
AcDbTableStyle
  3
Standard
 70
     0
 71
     0
 40
0.06
 41
0.06
280
     0
281
     0
  7
Standard
140
4.5
170
     2
 62
     0
 63
   257
283
     0
 90
        4
 91
        0
  1

274
    -2
284
     1
 64
     0
275
    -2
285
     1
 65
     0
276
    -2
286
     1
 66
     0
277
    -2
287
     1
 67
     0
278
    -2
288
     1
 68
     0
279
    -2
289
     1
 69
     0
  7
Standard
140
6.0
170
     5
 62
     0
 63
   257
283
     0
 90
        4
 91
        0
  1

274
    -2
284
     1
 64
     0
275
    -2
285
     1
 65
     0
276
    -2
286
     1
 66
     0
277
    -2
287
     1
 67
     0
278
    -2
288
     1
 68
     0
279
    -2
289
     1
 69
     0
  7
Standard
140
4.5
170
     5
 62
     0
 63
   257
283
     0
 90
        4
 91
        0
  1

274
    -2
284
     1
 64
     0
275
    -2
285
     1
 65
     0
276
    -2
286
     1
 66
     0
277
    -2
287
     1
 67
     0
278
    -2
288
     1
 68
     0
279
    -2
289
     1
 69
     0
  0
VISUALSTYLE
  5
2F
102
{ACAD_REACTORS
330
2A
102
}
102
{ACAD_XDICTIONARY
360
1E9
102
}
330
2A
100
AcDbVisualStyle
  2
2dWireframe
 70
     4
 71
     0
 72
     2
 73
     0
 90
        0
 40
0.6
 41
30.0
 62
     5
 63
     7
421
 16777215
 74
     1
 91
        4
 64
     7
 65
   257
 75
     1
175
     1
 42
1.0
 92
        0
 66
   257
 43
1.0
 76
     1
 77
     6
 78
     2
 67
     7
 79
     5
170
     0
171
     0
290
     0
174
     0
 93
        1
 44
0.0
173
     0
291
     0
 45
0.0
  0
VISUALSTYLE
  5
32
102
{ACAD_REACTORS
330
2A
102
}
102
{ACAD_XDICTIONARY
360
1EF
102
}
330
2A
100
AcDbVisualStyle
  2
Basic
 70
     7
 71
     1
 72
     0
 73
     1
 90
        0
 40
0.6
 41
30.0
 62
     5
 63
     7
421
 16777215
 74
     0
 91
        4
 64
     7
 65
   257
 75
     1
175
     1
 42
1.0
 92
        8
 66
     7
 43
1.0
 76
     1
 77
     6
 78
     2
 67
     7
 79
     5
170
     0
171
     0
290
     0
174
     0
 93
        1
 44
0.0
173
     0
291
     1
 45
0.0
  0
VISUALSTYLE
  5
36
102
{ACAD_REACTORS
330
2A
102
}
102
{ACAD_XDICTIONARY
360
1F7
102
}
330
2A
100
AcDbVisualStyle
  2
Brighten
 70
    12
 71
     2
 72
     2
 73
     0
 90
        0
 40
0.6
 41
30.0
 62
     5
 63
     7
421
 16777215
 74
     1
 91
        4
 64
     7
 65
   257
 75
     1
175
     1
 42
1.0
 92
        8
 66
     7
 43
1.0
 76
     1
 77
     6
 78
     2
 67
     7
 79
     5
170
     0
171
     0
290
     0
174
     0
 93
        1
 44
50.0
173
     0
291
     1
 45
0.0
  0
VISUALSTYLE
  5
3A
102
{ACAD_REACTORS
330
2A
102
}
102
{ACAD_XDICTIONARY
360
1FF
102
}
330
2A
100
AcDbVisualStyle
  2
ColorChange
 70
    16
 71
     2
 72
     2
 73
     3
 90
        0
 40
0.6
 41
30.0
 62
     5
 63
     8
421
  8421504
 74
     1
 91
        4
 64
     7
 65
   257
 75
     1
175
     1
 42
1.0
 92
        8
 66
     8
424
  8421504
 43
1.0
 76
     1
 77
     6
 78
     2
 67
     7
 79
     5
170
     0
171
     0
290
     0
174
     0
 93
        1
 44
0.0
173
     0
291
     1
 45
0.0
  0
VISUALSTYLE
  5
34
102
{ACAD_REACTORS
330
2A
102
}
102
{ACAD_XDICTIONARY
360
1F3
102
}
330
2A
100
AcDbVisualStyle
  2
Conceptual
 70
     9
 71
     3
 72
     2
 73
     0
 90
        0
 40
0.6
 41
30.0
 62
     5
 63
     7
421
 16777215
 74
     2
 91
        2
 64
     7
 65
   257
 75
     1
175
     1
 42
179.0
 92
        8
 66
     7
 43
1.0
 76
     1
 77
     6
 78
     2
 67
     7
 79
     3
170
     0
171
     0
290
     0
174
     0
 93
        1
 44
0.0
173
     0
291
     0
 45
0.0
  0
VISUALSTYLE
  5
35
102
{ACAD_REACTORS
330
2A
102
}
102
{ACAD_XDICTIONARY
360
1F5
102
}
330
2A
100
AcDbVisualStyle
  2
Dim
 70
    11
 71
     2
 72
     2
 73
     0
 90
        0
 40
0.6
 41
30.0
 62
     5
 63
     7
421
 16777215
 74
     1
 91
        4
 64
     7
 65
   257
 75
     1
175
     1
 42
1.0
 92
        8
 66
     7
 43
1.0
 76
     1
 77
     6
 78
     2
 67
     7
 79
     5
170
     0
171
     0
290
     0
174
     0
 93
        1
 44
-50.0
173
     0
291
     1
 45
0.0
  0
VISUALSTYLE
  5
3D
102
{ACAD_REACTORS
330
2A
102
}
102
{ACAD_XDICTIONARY
360
205
102
}
330
2A
100
AcDbVisualStyle
  2
EdgeColorOff
 70
    22
 71
     2
 72
     2
 73
     0
 90
        0
 40
0.6
 41
30.0
 62
     5
 63
     7
421
 16777215
 74
     1
 91
        4
 64
     7
 65
   257
 75
     1
175
     1
 42
1.0
 92
        8
 66
     7
 43
1.0
 76
     1
 77
     6
 78
     2
 67
     7
 79
     5
170
     0
171
     0
290
     0
174
     0
 93
        1
 44
0.0
173
     0
291
     1
 45
0.0
  0
VISUALSTYLE
  5
39
102
{ACAD_REACTORS
330
2A
102
}
102
{ACAD_XDICTIONARY
360
1FD
102
}
330
2A
100
AcDbVisualStyle
  2
Facepattern
 70
    15
 71
     2
 72
     2
 73
     0
 90
        0
 40
0.6
 41
30.0
 62
     5
 63
     7
421
 16777215
 74
     1
 91
        4
 64
     7
 65
   257
 75
     1
175
     1
 42
1.0
 92
        8
 66
     7
 43
1.0
 76
     1
 77
     6
 78
     2
 67
     7
 79
     5
170
     0
171
     0
290
     0
174
     0
 93
        1
 44
0.0
173
     0
291
     1
 45
0.0
  0
VISUALSTYLE
  5
2B
102
{ACAD_REACTORS
330
2A
102
}
102
{ACAD_XDICTIONARY
360
1E1
102
}
330
2A
100
AcDbVisualStyle
  2
Flat
 70
     0
 71
     2
 72
     1
 73
     1
 90
        2
 40
0.6
 41
30.0
 62
     5
 63
     7
421
 16777215
 74
     0
 91
        0
 64
     7
 65
   257
 75
     1
175
     1
 42
1.0
 92
        8
 66
     7
 43
1.0
 76
     1
 77
     6
 78
     2
 67
     7
 79
     5
170
     0
171
     0
290
     0
174
     0
 93
       13
 44
0.0
173
     0
291
     1
 45
0.0
  0
VISUALSTYLE
  5
2C
102
{ACAD_REACTORS
330
2A
102
}
102
{ACAD_XDICTIONARY
360
1E3
102
}
330
2A
100
AcDbVisualStyle
  2
FlatWithEdges
 70
     1
 71
     2
 72
     1
 73
     1
 90
        2
 40
0.6
 41
30.0
 62
     5
 63
     7
421
 16777215
 74
     1
 91
        0
 64
     7
 65
   257
 75
     1
175
     1
 42
1.0
 92
        0
 66
   257
 43
1.0
 76
     1
 77
     6
 78
     2
 67
     7
 79
     5
170
     0
171
     0
290
     0
174
     0
 93
       13
 44
0.0
173
     0
291
     1
 45
0.0
  0
VISUALSTYLE
  5
2D
102
{ACAD_REACTORS
330
2A
102
}
102
{ACAD_XDICTIONARY
360
1E5
102
}
330
2A
100
AcDbVisualStyle
  2
Gouraud
 70
     2
 71
     2
 72
     2
 73
     1
 90
        2
 40
0.6
 41
30.0
 62
     5
 63
     7
421
 16777215
 74
     0
 91
        0
 64
     7
 65
   257
 75
     1
175
     1
 42
1.0
 92
        0
 66
     7
 43
1.0
 76
     1
 77
     6
 78
     2
 67
     7
 79
     5
170
     0
171
     0
290
     0
174
     0
 93
       13
 44
0.0
173
     0
291
     1
 45
0.0
  0
VISUALSTYLE
  5
2E
102
{ACAD_REACTORS
330
2A
102
}
102
{ACAD_XDICTIONARY
360
1E7
102
}
330
2A
100
AcDbVisualStyle
  2
GouraudWithEdges
 70
     3
 71
     2
 72
     2
 73
     1
 90
        2
 40
0.6
 41
30.0
 62
     5
 63
     7
421
 16777215
 74
     1
 91
        0
 64
     7
 65
   257
 75
     1
175
     1
 42
1.0
 92
        0
 66
   257
 43
1.0
 76
     1
 77
     6
 78
     2
 67
     7
 79
     5
170
     0
171
     0
290
     0
174
     0
 93
       13
 44
0.0
173
     0
291
     1
 45
0.0
  0
VISUALSTYLE
  5
31
102
{ACAD_REACTORS
330
2A
102
}
102
{ACAD_XDICTIONARY
360
1ED
102
}
330
2A
100
AcDbVisualStyle
  2
Hidden
 70
     6
 71
     1
 72
     2
 73
     2
 90
        0
 40
0.6
 41
30.0
 62
     5
 63
     7
421
 16777215
 74
     2
 91
        2
 64
     7
 65
   257
 75
     2
175
     1
 42
40.0
 92
        0
 66
   257
 43
1.0
 76
     1
 77
     6
 78
     2
 67
     7
 79
     3
170
     0
171
     0
290
     0
174
     0
 93
        1
 44
0.0
173
     0
291
     0
 45
0.0
  0
VISUALSTYLE
  5
3B
102
{ACAD_REACTORS
330
2A
102
}
102
{ACAD_XDICTIONARY
360
201
102
}
330
2A
100
AcDbVisualStyle
  2
JitterOff
 70
    20
 71
     2
 72
     2
 73
     0
 90
        0
 40
0.6
 41
30.0
 62
     5
 63
     7
421
 16777215
 74
     1
 91
        4
 64
     7
 65
   257
 75
     1
175
     1
 42
1.0
 92
       10
 66
     7
 43
1.0
 76
     1
 77
     6
 78
     2
 67
     7
 79
     5
170
     0
171
     0
290
     0
174
     0
 93
        1
 44
0.0
173
     0
291
     1
 45
0.0
  0
VISUALSTYLE
  5
38
102
{ACAD_REACTORS
330
2A
102
}
102
{ACAD_XDICTIONARY
360
1FB
102
}
330
2A
100
AcDbVisualStyle
  2
Linepattern
 70
    14
 71
     2
 72
     2
 73
     0
 90
        0
 40
0.6
 41
30.0
 62
     5
 63
     7
421
 16777215
 74
     1
 91
        4
 64
     7
 65
   257
 75
     7
175
     7
 42
1.0
 92
        8
 66
     7
 43
1.0
 76
     1
 77
     6
 78
     2
 67
     7
 79
     5
170
     0
171
     0
290
     0
174
     0
 93
        1
 44
0.0
173
     0
291
     1
 45
0.0
  0
VISUALSTYLE
  5
3C
102
{ACAD_REACTORS
330
2A
102
}
102
{ACAD_XDICTIONARY
360
203
102
}
330
2A
100
AcDbVisualStyle
  2
OverhangOff
 70
    21
 71
     2
 72
     2
 73
     0
 90
        0
 40
0.6
 41
30.0
 62
     5
 63
     7
421
 16777215
 74
     1
 91
        4
 64
     7
 65
   257
 75
     1
175
     1
 42
1.0
 92
        9
 66
     7
 43
1.0
 76
     1
 77
     6
 78
     2
 67
     7
 79
     5
170
     0
171
     0
290
     0
174
     0
 93
        1
 44
0.0
173
     0
291
     1
 45
0.0
  0
VISUALSTYLE
  5
33
102
{ACAD_REACTORS
330
2A
102
}
102
{ACAD_XDICTIONARY
360
1F1
102
}
330
2A
100
AcDbVisualStyle
  2
Realistic
 70
     8
 71
     2
 72
     3
 73
     0
 90
        2
 40
0.6
 41
30.0
 62
     5
 63
     7
421
 16777215
 74
     0
 91
        0
 64
     7
 65
   257
 75
     1
175
     1
 42
1.0
 92
        8
 66
   257
 43
1.0
 76
     1
 77
     6
 78
     2
 67
     7
 79
     3
170
     0
171
     0
290
     0
174
     0
 93
       13
 44
0.0
173
     0
291
     0
 45
0.0
  0
VISUALSTYLE
  5
42
102
{ACAD_REACTORS
330
2A
102
}
102
{ACAD_XDICTIONARY
360
20F
102
}
330
2A
100
AcDbVisualStyle
  2
Shaded
 70
    27
 71
     2
 72
     2
 73
     1
 90
        2
 40
0.6
 41
30.0
 62
     5
 63
     7
421
 16777215
 74
     0
 91
        4
 64
     7
 65
   257
 75
     1
175
     1
 42
1.0
 92
        8
 66
   257
 43
1.0
 76
     1
 77
     6
 78
     2
 67
     8
425
  7895160
 79
     3
170
     0
171
     0
290
     0
174
     0
 93
        5
 44
0.0
173
     0
291
     0
 45
0.0
  0
VISUALSTYLE
  5
41
102
{ACAD_REACTORS
330
2A
102
}
102
{ACAD_XDICTIONARY
360
20D
102
}
330
2A
100
AcDbVisualStyle
  2
Shaded with edges
 70
    26
 71
     2
 72
     2
 73
     1
 90
        2
 40
0.6
 41
30.0
 62
     5
 63
     7
421
 16777215
 74
     1
 91
       10
 64
     7
 65
   257
 75
     2
175
     1
 42
1.0
 92
        8
 66
   257
 43
1.0
 76
     1
 77
     6
 78
     2
 67
     7
 79
     3
170
     0
171
     0
290
     0
174
     0
 93
        5
 44
0.0
173
     0
291
     0
 45
0.0
  0
VISUALSTYLE
  5
3E
102
{ACAD_REACTORS
330
2A
102
}
102
{ACAD_XDICTIONARY
360
207
102
}
330
2A
100
AcDbVisualStyle
  2
Shades of Gray
 70
    23
 71
     2
 72
     2
 73
     3
 90
        0
 40
0.6
 41
30.0
 62
     5
 63
     7
421
 16777215
 74
     2
 91
        2
 64
     7
 65
     7
 75
     1
175
     1
 42
40.0
 92
        8
 66
     7
 43
1.0
 76
     1
 77
     6
 78
     2
 67
     7
 79
     3
170
     0
171
     0
290
     0
174
     0
 93
        1
 44
0.0
173
     0
291
     0
 45
0.0
  0
VISUALSTYLE
  5
3F
102
{ACAD_REACTORS
330
2A
102
}
102
{ACAD_XDICTIONARY
360
209
102
}
330
2A
100
AcDbVisualStyle
  2
Sketchy
 70
    24
 71
     1
 72
     2
 73
     2
 90
        0
 40
0.6
 41
30.0
 62
     5
 63
     7
421
 16777215
 74
     2
 91
        2
 64
     7
 65
     7
 75
     1
175
     1
 42
40.0
 92
       11
 66
     7
 43
1.0
 76
     1
 77
     6
 78
     2
 67
     7
 79
     6
170
     0
171
     0
290
     0
174
     0
 93
        1
 44
0.0
173
     0
291
     0
 45
0.0
  0
VISUALSTYLE
  5
37
102
{ACAD_REACTORS
330
2A
102
}
102
{ACAD_XDICTIONARY
360
1F9
102
}
330
2A
100
AcDbVisualStyle
  2
Thicken
 70
    13
 71
     2
 72
     2
 73
     0
 90
        0
 40
0.6
 41
30.0
 62
     5
 63
     7
421
 16777215
 74
     1
 91
        4
 64
     7
 65
   257
 75
     1
175
     1
 42
1.0
 92
       12
 66
     7
 43
1.0
 76
     1
 77
     6
 78
     2
 67
     7
 79
     5
170
     0
171
     0
290
     0
174
     0
 93
        1
 44
0.0
173
     0
291
     1
 45
0.0
  0
VISUALSTYLE
  5
30
102
{ACAD_REACTORS
330
2A
102
}
102
{ACAD_XDICTIONARY
360
1EB
102
}
330
2A
100
AcDbVisualStyle
  2
Wireframe
 70
     5
 71
     0
 72
     2
 73
     0
 90
        0
 40
0.6
 41
30.0
 62
     5
 63
     7
421
 16777215
 74
     1
 91
        4
 64
     7
 65
   257
 75
     1
175
     1
 42
1.0
 92
        0
 66
   257
 43
1.0
 76
     1
 77
     6
 78
     2
 67
     7
 79
     3
170
     0
171
     0
290
     0
174
     0
 93
        1
 44
0.0
173
     0
291
     0
 45
0.0
  0
VISUALSTYLE
  5
40
102
{ACAD_REACTORS
330
2A
102
}
102
{ACAD_XDICTIONARY
360
20B
102
}
330
2A
100
AcDbVisualStyle
  2
X-Ray
 70
    25
 71
     2
 72
     2
 73
     1
 90
        1
 40
0.5
 41
30.0
 62
     5
 63
     7
421
 16777215
 74
     1
 91
        0
 64
     7
 65
   257
 75
     1
175
     1
 42
1.0
 92
        8
 66
     7
 43
1.0
 76
     1
 77
     6
 78
     2
 67
     7
 79
     3
170
     0
171
     0
290
     0
174
     0
 93
       13
 44
0.0
173
     0
291
     0
 45
0.0
  0
DICTIONARYVAR
  5
1DF
102
{ACAD_REACTORS
330
1DE
102
}
330
1DE
100
DictionaryVariables
280
     0
  1
1:1
  0
DICTIONARYVAR
  5
218
102
{ACAD_REACTORS
330
1DE
102
}
330
1DE
100
DictionaryVariables
280
     0
  1
Standard
  0
DICTIONARYVAR
  5
217
102
{ACAD_REACTORS
330
1DE
102
}
330
1DE
100
DictionaryVariables
280
     0
  1
Standard
  0
DICTIONARYVAR
  5
21B
102
{ACAD_REACTORS
330
1DE
102
}
330
1DE
100
DictionaryVariables
280
     0
  1
6.000000
  0
DICTIONARYVAR
  5
1E0
102
{ACAD_REACTORS
330
1DE
102
}
330
1DE
100
DictionaryVariables
280
     0
  1
2
  0
DICTIONARY
  5
214
330
6C
100
AcDbDictionary
280
     1
281
     1
  3
ACAD_XREC_ROUNDTRIP
360
215
  0
DICTIONARY
  5
211
330
6A
100
AcDbDictionary
280
     1
281
     1
  3
ACAD_ROUNDTRIP_2008_TABLESTYLE_CELLSTYLEMAP
360
212
  0
DICTIONARY
  5
1E9
330
2F
100
AcDbDictionary
280
     1
281
     1
  3
ACAD_XREC_ROUNDTRIP
360
1EA
  0
DICTIONARY
  5
1EF
330
32
100
AcDbDictionary
280
     1
281
     1
  3
ACAD_XREC_ROUNDTRIP
360
1F0
  0
DICTIONARY
  5
1F7
330
36
100
AcDbDictionary
280
     1
281
     1
  3
ACAD_XREC_ROUNDTRIP
360
1F8
  0
DICTIONARY
  5
1FF
330
3A
100
AcDbDictionary
280
     1
281
     1
  3
ACAD_XREC_ROUNDTRIP
360
200
  0
DICTIONARY
  5
1F3
330
34
100
AcDbDictionary
280
     1
281
     1
  3
ACAD_XREC_ROUNDTRIP
360
1F4
  0
DICTIONARY
  5
1F5
330
35
100
AcDbDictionary
280
     1
281
     1
  3
ACAD_XREC_ROUNDTRIP
360
1F6
  0
DICTIONARY
  5
205
330
3D
100
AcDbDictionary
280
     1
281
     1
  3
ACAD_XREC_ROUNDTRIP
360
206
  0
DICTIONARY
  5
1FD
330
39
100
AcDbDictionary
280
     1
281
     1
  3
ACAD_XREC_ROUNDTRIP
360
1FE
  0
DICTIONARY
  5
1E1
330
2B
100
AcDbDictionary
280
     1
281
     1
  3
ACAD_XREC_ROUNDTRIP
360
1E2
  0
DICTIONARY
  5
1E3
330
2C
100
AcDbDictionary
280
     1
281
     1
  3
ACAD_XREC_ROUNDTRIP
360
1E4
  0
DICTIONARY
  5
1E5
330
2D
100
AcDbDictionary
280
     1
281
     1
  3
ACAD_XREC_ROUNDTRIP
360
1E6
  0
DICTIONARY
  5
1E7
330
2E
100
AcDbDictionary
280
     1
281
     1
  3
ACAD_XREC_ROUNDTRIP
360
1E8
  0
DICTIONARY
  5
1ED
330
31
100
AcDbDictionary
280
     1
281
     1
  3
ACAD_XREC_ROUNDTRIP
360
1EE
  0
DICTIONARY
  5
201
330
3B
100
AcDbDictionary
280
     1
281
     1
  3
ACAD_XREC_ROUNDTRIP
360
202
  0
DICTIONARY
  5
1FB
330
38
100
AcDbDictionary
280
     1
281
     1
  3
ACAD_XREC_ROUNDTRIP
360
1FC
  0
DICTIONARY
  5
203
330
3C
100
AcDbDictionary
280
     1
281
     1
  3
ACAD_XREC_ROUNDTRIP
360
204
  0
DICTIONARY
  5
1F1
330
33
100
AcDbDictionary
280
     1
281
     1
  3
ACAD_XREC_ROUNDTRIP
360
1F2
  0
DICTIONARY
  5
20F
330
42
100
AcDbDictionary
280
     1
281
     1
  3
ACAD_XREC_ROUNDTRIP
360
210
  0
DICTIONARY
  5
20D
330
41
100
AcDbDictionary
280
     1
281
     1
  3
ACAD_XREC_ROUNDTRIP
360
20E
  0
DICTIONARY
  5
207
330
3E
100
AcDbDictionary
280
     1
281
     1
  3
ACAD_XREC_ROUNDTRIP
360
208
  0
DICTIONARY
  5
209
330
3F
100
AcDbDictionary
280
     1
281
     1
  3
ACAD_XREC_ROUNDTRIP
360
20A
  0
DICTIONARY
  5
1F9
330
37
100
AcDbDictionary
280
     1
281
     1
  3
ACAD_XREC_ROUNDTRIP
360
1FA
  0
DICTIONARY
  5
1EB
330
30
100
AcDbDictionary
280
     1
281
     1
  3
ACAD_XREC_ROUNDTRIP
360
1EC
  0
DICTIONARY
  5
20B
330
40
100
AcDbDictionary
280
     1
281
     1
  3
ACAD_XREC_ROUNDTRIP
360
20C
  0
XRECORD
  5
215
102
{ACAD_REACTORS
330
214
102
}
330
214
100
AcDbXrecord
280
     1
102
ACAD_ROUNDTRIP_2010_MLEADER_STYLE
  0
CELLSTYLEMAP
  5
212
102
{ACAD_REACTORS
330
211
102
}
330
211
100
AcDbCellStyleMap
 90
        3
300
CELLSTYLE
  1
TABLEFORMAT_BEGIN
 90
        5
170
     1
 91
        0
 92
    32768
 62
   257
 93
        1
300
CONTENTFORMAT
  1
CONTENTFORMAT_BEGIN
 90
        0
 91
        0
 92
        4
 93
        0
300

 40
0.0
140
1.0
 94
        5
 62
     0
340
11
144
6.0
309
CONTENTFORMAT_END
171
     1
301
MARGIN
  1
CELLMARGIN_BEGIN
 40
1.5
 40
1.5
 40
1.5
 40
1.5
 40
1.5
 40
1.5
309
CELLMARGIN_END
 94
        6
 95
        1
302
GRIDFORMAT
  1
GRIDFORMAT_BEGIN
 90
        0
 91
        1
 62
     0
 92
       -2
340
14
 93
        0
 40
0.045
309
GRIDFORMAT_END
 95
        2
302
GRIDFORMAT
  1
GRIDFORMAT_BEGIN
 90
        0
 91
        1
 62
     0
 92
       -2
340
14
 93
        0
 40
0.045
309
GRIDFORMAT_END
 95
        4
302
GRIDFORMAT
  1
GRIDFORMAT_BEGIN
 90
        0
 91
        1
 62
     0
 92
       -2
340
14
 93
        0
 40
0.045
309
GRIDFORMAT_END
 95
        8
302
GRIDFORMAT
  1
GRIDFORMAT_BEGIN
 90
        0
 91
        1
 62
     0
 92
       -2
340
14
 93
        0
 40
0.045
309
GRIDFORMAT_END
 95
       16
302
GRIDFORMAT
  1
GRIDFORMAT_BEGIN
 90
        0
 91
        1
 62
     0
 92
       -2
340
14
 93
        0
 40
0.045
309
GRIDFORMAT_END
 95
       32
302
GRIDFORMAT
  1
GRIDFORMAT_BEGIN
 90
        0
 91
        1
 62
     0
 92
       -2
340
14
 93
        0
 40
0.045
309
GRIDFORMAT_END
309
TABLEFORMAT_END
  1
CELLSTYLE_BEGIN
 90
        1
 91
        1
300
_TITLE
309
CELLSTYLE_END
300
CELLSTYLE
  1
TABLEFORMAT_BEGIN
 90
        5
170
     1
 91
        0
 92
        0
 62
   257
 93
        1
300
CONTENTFORMAT
  1
CONTENTFORMAT_BEGIN
 90
        0
 91
        0
 92
        4
 93
        0
300

 40
0.0
140
1.0
 94
        5
 62
     0
340
11
144
4.5
309
CONTENTFORMAT_END
171
     1
301
MARGIN
  1
CELLMARGIN_BEGIN
 40
1.5
 40
1.5
 40
1.5
 40
1.5
 40
1.5
 40
1.5
309
CELLMARGIN_END
 94
        6
 95
        1
302
GRIDFORMAT
  1
GRIDFORMAT_BEGIN
 90
        0
 91
        1
 62
     0
 92
       -2
340
14
 93
        0
 40
0.045
309
GRIDFORMAT_END
 95
        2
302
GRIDFORMAT
  1
GRIDFORMAT_BEGIN
 90
        0
 91
        1
 62
     0
 92
       -2
340
14
 93
        0
 40
0.045
309
GRIDFORMAT_END
 95
        4
302
GRIDFORMAT
  1
GRIDFORMAT_BEGIN
 90
        0
 91
        1
 62
     0
 92
       -2
340
14
 93
        0
 40
0.045
309
GRIDFORMAT_END
 95
        8
302
GRIDFORMAT
  1
GRIDFORMAT_BEGIN
 90
        0
 91
        1
 62
     0
 92
       -2
340
14
 93
        0
 40
0.045
309
GRIDFORMAT_END
 95
       16
302
GRIDFORMAT
  1
GRIDFORMAT_BEGIN
 90
        0
 91
        1
 62
     0
 92
       -2
340
14
 93
        0
 40
0.045
309
GRIDFORMAT_END
 95
       32
302
GRIDFORMAT
  1
GRIDFORMAT_BEGIN
 90
        0
 91
        1
 62
     0
 92
       -2
340
14
 93
        0
 40
0.045
309
GRIDFORMAT_END
309
TABLEFORMAT_END
  1
CELLSTYLE_BEGIN
 90
        2
 91
        1
300
_HEADER
309
CELLSTYLE_END
300
CELLSTYLE
  1
TABLEFORMAT_BEGIN
 90
        5
170
     1
 91
        0
 92
        0
 62
   257
 93
        1
300
CONTENTFORMAT
  1
CONTENTFORMAT_BEGIN
 90
        0
 91
        0
 92
        4
 93
        0
300

 40
0.0
140
1.0
 94
        2
 62
     0
340
11
144
4.5
309
CONTENTFORMAT_END
171
     1
301
MARGIN
  1
CELLMARGIN_BEGIN
 40
1.5
 40
1.5
 40
1.5
 40
1.5
 40
1.5
 40
1.5
309
CELLMARGIN_END
 94
        6
 95
        1
302
GRIDFORMAT
  1
GRIDFORMAT_BEGIN
 90
        0
 91
        1
 62
     0
 92
       -2
340
14
 93
        0
 40
0.045
309
GRIDFORMAT_END
 95
        2
302
GRIDFORMAT
  1
GRIDFORMAT_BEGIN
 90
        0
 91
        1
 62
     0
 92
       -2
340
14
 93
        0
 40
0.045
309
GRIDFORMAT_END
 95
        4
302
GRIDFORMAT
  1
GRIDFORMAT_BEGIN
 90
        0
 91
        1
 62
     0
 92
       -2
340
14
 93
        0
 40
0.045
309
GRIDFORMAT_END
 95
        8
302
GRIDFORMAT
  1
GRIDFORMAT_BEGIN
 90
        0
 91
        1
 62
     0
 92
       -2
340
14
 93
        0
 40
0.045
309
GRIDFORMAT_END
 95
       16
302
GRIDFORMAT
  1
GRIDFORMAT_BEGIN
 90
        0
 91
        1
 62
     0
 92
       -2
340
14
 93
        0
 40
0.045
309
GRIDFORMAT_END
 95
       32
302
GRIDFORMAT
  1
GRIDFORMAT_BEGIN
 90
        0
 91
        1
 62
     0
 92
       -2
340
14
 93
        0
 40
0.045
309
GRIDFORMAT_END
309
TABLEFORMAT_END
  1
CELLSTYLE_BEGIN
 90
        3
 91
        2
300
_DATA
309
CELLSTYLE_END
  0
XRECORD
  5
1EA
102
{ACAD_REACTORS
330
1E9
102
}
330
1E9
100
AcDbXrecord
280
     1
102
RTVSPropertyOp0
 70
     1
102
RTVSPropertyOp1
 70
     1
102
RTVSPropertyOp2
 70
     1
102
RTVSPropertyOp3
 70
     1
102
RTVSPropertyOp4
 70
     1
102
RTVSPropertyOp5
 70
     1
102
RTVSPropertyOp6
 70
     1
102
RTVSPropertyOp7
 70
     1
102
RTVSPropertyOp8
 70
     1
102
RTVSPropertyOp9
 70
     1
102
RTVSPropertyOp10
 70
     1
102
RTVSPropertyOp11
 70
     1
102
RTVSPropertyOp12
 70
     1
102
RTVSPropertyOp13
 70
     1
102
RTVSPropertyOp14
 70
     1
102
RTVSPropertyOp15
 70
     1
102
RTVSPropertyOp16
 70
     1
102
RTVSPropertyOp17
 70
     1
102
RTVSPropertyOp18
 70
     1
102
RTVSPropertyOp19
 70
     1
102
RTVSPropertyOp20
 70
     1
102
RTVSPropertyOp21
 70
     1
102
RTVSPropertyOp22
 70
     1
102
RTVSPropertyOp23
 70
     1
102
RTVSPropertyOp24
 70
     1
102
RTVSPropertyOp25
 70
     1
102
RTVSPropertyOp26
 70
     1
102
RTVSPropertyOp27
 70
     1
102
RTVSPropertyOp28
 70
     1
102
RTVSPropertyOp29
 70
     1
102
RTVSPropertyOp30
 70
     1
102
RTVSPropertyOp31
 70
     1
102
RTVSPropertyOp32
 70
     1
102
RTVSPropertyOp33
 70
     1
102
RTVSPropertyOp34
 70
     1
102
RTVSPropertyOp35
 70
     1
102
RTVSPropertyOp36
 70
     1
102
RTVSPropertyOp37
 70
     1
102
RTVSPropertyOp38
 70
     1
102
RTVSPropertyOp39
 70
     1
102
RTVSPropertyOp40
 70
     1
102
RTVSPropertyOp41
 70
     1
102
RTVSPropertyOp42
 70
     1
102
RTVSPropertyOp43
 70
     1
102
RTVSPropertyOp44
 70
     1
102
RTVSPropertyOp45
 70
     1
102
RTVSPropertyOp46
 70
     1
102
RTVSPropertyOp47
 70
     1
102
RTVSPropertyOp48
 70
     1
102
RTVSPropertyOp49
 70
     1
102
RTVSPropertyOp50
 70
     1
102
RTVSPropertyOp51
 70
     0
102
RTVSPropertyOp52
 70
     0
102
RTVSPropertyOp53
 70
     1
102
RTVSPropertyOp54
 70
     1
102
RTVSPropertyOp55
 70
     1
102
RTVSPropertyOp56
 70
     1
102
RTVSPropertyOp57
 70
     1
102
RTVSPost2010Prop28
280
     1
102
RTVSPost2010PropOp28
 70
     1
102
RTVSPost2010Prop29
280
     1
102
RTVSPost2010PropOp29
 70
     1
102
RTVSPost2010Prop30
280
     0
102
RTVSPost2010PropOp30
 70
     1
102
RTVSPost2010Prop31
280
     0
102
RTVSPost2010PropOp31
 70
     1
102
RTVSPost2010Prop32
280
     0
102
RTVSPost2010PropOp32
 70
     1
102
RTVSPost2010Prop33
280
     0
102
RTVSPost2010PropOp33
 70
     1
102
RTVSPost2010Prop34
280
     0
102
RTVSPost2010PropOp34
 70
     1
102
RTVSPost2010Prop35
280
     0
102
RTVSPost2010PropOp35
 70
     1
102
RTVSPost2010Prop36
280
     0
102
RTVSPost2010PropOp36
 70
     1
102
RTVSPost2010Prop37
 90
       50
102
RTVSPost2010PropOp37
 70
     1
102
RTVSPost2010Prop38
140
0.0
102
RTVSPost2010PropOp38
 70
     1
102
RTVSPost2010Prop39
140
1.0
102
RTVSPost2010PropOp39
 70
     1
102
RTVSPost2010Prop40
 90
        0
102
RTVSPost2010PropOp40
 70
     1
102
RTVSPost2010Prop41ColorIndex
 90
       18
102
RTVSPost2010Prop41ColorRGB
 90
        0
102
RTVSPost2010PropOp41
 70
     1
102
RTVSPost2010Prop42
 90
       50
102
RTVSPost2010PropOp42
 70
     1
102
RTVSPost2010Prop43
 90
        3
102
RTVSPost2010PropOp43
 70
     1
102
RTVSPost2010Prop44ColorIndex
 90
        5
102
RTVSPost2010Prop44ColorRGB
 90
      255
102
RTVSPost2010PropOp44
 70
     1
102
RTVSPost2010Prop45
280
     0
102
RTVSPost2010PropOp45
 70
     1
102
RTVSPost2010Prop46
 90
       50
102
RTVSPost2010PropOp46
 70
     1
102
RTVSPost2010Prop47
 90
       50
102
RTVSPost2010PropOp47
 70
     1
102
RTVSPost2010Prop48
 90
       50
102
RTVSPost2010PropOp48
 70
     1
102
RTVSPost2010Prop49
280
     0
102
RTVSPost2010PropOp49
 70
     1
102
RTVSPost2010Prop50
 90
       50
102
RTVSPost2010PropOp50
 70
     1
102
RTVSPost2010Prop51ColorIndex
 90
      256
102
RTVSPost2010Prop51ColorRGB
 90
-16777216
102
RTVSPost2010PropOp51
 70
     0
102
RTVSPost2010Prop52
140
1.0
102
RTVSPost2010PropOp52
 70
     0
102
RTVSPost2010Prop53
 90
        2
102
RTVSPost2010PropOp53
 70
     1
102
RTVSPost2010Prop54
  1
strokes_ogs.tif
102
RTVSPost2010PropOp54
 70
     1
102
RTVSPost2010Prop55
280
     0
102
RTVSPost2010PropOp55
 70
     1
102
RTVSPost2010Prop56
140
1.0
102
RTVSPost2010PropOp56
 70
     1
102
RTVSPost2010Prop57
140
1.0
102
RTVSPost2010PropOp57
 70
     1
  0
XRECORD
  5
1F0
102
{ACAD_REACTORS
330
1EF
102
}
330
1EF
100
AcDbXrecord
280
     1
102
RTVSPropertyOp0
 70
     1
102
RTVSPropertyOp1
 70
     1
102
RTVSPropertyOp2
 70
     1
102
RTVSPropertyOp3
 70
     1
102
RTVSPropertyOp4
 70
     1
102
RTVSPropertyOp5
 70
     1
102
RTVSPropertyOp6
 70
     1
102
RTVSPropertyOp7
 70
     1
102
RTVSPropertyOp8
 70
     1
102
RTVSPropertyOp9
 70
     1
102
RTVSPropertyOp10
 70
     1
102
RTVSPropertyOp11
 70
     1
102
RTVSPropertyOp12
 70
     1
102
RTVSPropertyOp13
 70
     1
102
RTVSPropertyOp14
 70
     1
102
RTVSPropertyOp15
 70
     1
102
RTVSPropertyOp16
 70
     1
102
RTVSPropertyOp17
 70
     1
102
RTVSPropertyOp18
 70
     1
102
RTVSPropertyOp19
 70
     1
102
RTVSPropertyOp20
 70
     1
102
RTVSPropertyOp21
 70
     1
102
RTVSPropertyOp22
 70
     1
102
RTVSPropertyOp23
 70
     1
102
RTVSPropertyOp24
 70
     1
102
RTVSPropertyOp25
 70
     1
102
RTVSPropertyOp26
 70
     1
102
RTVSPropertyOp27
 70
     1
102
RTVSPropertyOp28
 70
     1
102
RTVSPropertyOp29
 70
     1
102
RTVSPropertyOp30
 70
     1
102
RTVSPropertyOp31
 70
     1
102
RTVSPropertyOp32
 70
     1
102
RTVSPropertyOp33
 70
     1
102
RTVSPropertyOp34
 70
     1
102
RTVSPropertyOp35
 70
     1
102
RTVSPropertyOp36
 70
     1
102
RTVSPropertyOp37
 70
     1
102
RTVSPropertyOp38
 70
     1
102
RTVSPropertyOp39
 70
     1
102
RTVSPropertyOp40
 70
     1
102
RTVSPropertyOp41
 70
     1
102
RTVSPropertyOp42
 70
     1
102
RTVSPropertyOp43
 70
     1
102
RTVSPropertyOp44
 70
     1
102
RTVSPropertyOp45
 70
     1
102
RTVSPropertyOp46
 70
     1
102
RTVSPropertyOp47
 70
     1
102
RTVSPropertyOp48
 70
     1
102
RTVSPropertyOp49
 70
     1
102
RTVSPropertyOp50
 70
     1
102
RTVSPropertyOp51
 70
     0
102
RTVSPropertyOp52
 70
     0
102
RTVSPropertyOp53
 70
     1
102
RTVSPropertyOp54
 70
     1
102
RTVSPropertyOp55
 70
     1
102
RTVSPropertyOp56
 70
     1
102
RTVSPropertyOp57
 70
     1
102
RTVSPost2010Prop28
280
     0
102
RTVSPost2010PropOp28
 70
     1
102
RTVSPost2010Prop29
280
     1
102
RTVSPost2010PropOp29
 70
     1
102
RTVSPost2010Prop30
280
     1
102
RTVSPost2010PropOp30
 70
     1
102
RTVSPost2010Prop31
280
     0
102
RTVSPost2010PropOp31
 70
     1
102
RTVSPost2010Prop32
280
     0
102
RTVSPost2010PropOp32
 70
     1
102
RTVSPost2010Prop33
280
     0
102
RTVSPost2010PropOp33
 70
     1
102
RTVSPost2010Prop34
280
     0
102
RTVSPost2010PropOp34
 70
     1
102
RTVSPost2010Prop35
280
     0
102
RTVSPost2010PropOp35
 70
     1
102
RTVSPost2010Prop36
280
     0
102
RTVSPost2010PropOp36
 70
     1
102
RTVSPost2010Prop37
 90
       50
102
RTVSPost2010PropOp37
 70
     1
102
RTVSPost2010Prop38
140
0.0
102
RTVSPost2010PropOp38
 70
     1
102
RTVSPost2010Prop39
140
1.0
102
RTVSPost2010PropOp39
 70
     1
102
RTVSPost2010Prop40
 90
        0
102
RTVSPost2010PropOp40
 70
     1
102
RTVSPost2010Prop41ColorIndex
 90
       18
102
RTVSPost2010Prop41ColorRGB
 90
        0
102
RTVSPost2010PropOp41
 70
     1
102
RTVSPost2010Prop42
 90
       50
102
RTVSPost2010PropOp42
 70
     1
102
RTVSPost2010Prop43
 90
        3
102
RTVSPost2010PropOp43
 70
     1
102
RTVSPost2010Prop44ColorIndex
 90
        5
102
RTVSPost2010Prop44ColorRGB
 90
      255
102
RTVSPost2010PropOp44
 70
     1
102
RTVSPost2010Prop45
280
     0
102
RTVSPost2010PropOp45
 70
     1
102
RTVSPost2010Prop46
 90
       50
102
RTVSPost2010PropOp46
 70
     1
102
RTVSPost2010Prop47
 90
       50
102
RTVSPost2010PropOp47
 70
     1
102
RTVSPost2010Prop48
 90
       50
102
RTVSPost2010PropOp48
 70
     1
102
RTVSPost2010Prop49
280
     0
102
RTVSPost2010PropOp49
 70
     1
102
RTVSPost2010Prop50
 90
       50
102
RTVSPost2010PropOp50
 70
     1
102
RTVSPost2010Prop51ColorIndex
 90
      256
102
RTVSPost2010Prop51ColorRGB
 90
-16777216
102
RTVSPost2010PropOp51
 70
     0
102
RTVSPost2010Prop52
140
1.0
102
RTVSPost2010PropOp52
 70
     0
102
RTVSPost2010Prop53
 90
        2
102
RTVSPost2010PropOp53
 70
     1
102
RTVSPost2010Prop54
  1
strokes_ogs.tif
102
RTVSPost2010PropOp54
 70
     1
102
RTVSPost2010Prop55
280
     0
102
RTVSPost2010PropOp55
 70
     1
102
RTVSPost2010Prop56
140
1.0
102
RTVSPost2010PropOp56
 70
     1
102
RTVSPost2010Prop57
140
1.0
102
RTVSPost2010PropOp57
 70
     1
  0
XRECORD
  5
1F8
102
{ACAD_REACTORS
330
1F7
102
}
330
1F7
100
AcDbXrecord
280
     1
102
RTVSPropertyOp0
 70
     1
102
RTVSPropertyOp1
 70
     1
102
RTVSPropertyOp2
 70
     1
102
RTVSPropertyOp3
 70
     1
102
RTVSPropertyOp4
 70
     1
102
RTVSPropertyOp5
 70
     1
102
RTVSPropertyOp6
 70
     1
102
RTVSPropertyOp7
 70
     1
102
RTVSPropertyOp8
 70
     1
102
RTVSPropertyOp9
 70
     1
102
RTVSPropertyOp10
 70
     1
102
RTVSPropertyOp11
 70
     1
102
RTVSPropertyOp12
 70
     1
102
RTVSPropertyOp13
 70
     1
102
RTVSPropertyOp14
 70
     1
102
RTVSPropertyOp15
 70
     1
102
RTVSPropertyOp16
 70
     1
102
RTVSPropertyOp17
 70
     1
102
RTVSPropertyOp18
 70
     1
102
RTVSPropertyOp19
 70
     1
102
RTVSPropertyOp20
 70
     1
102
RTVSPropertyOp21
 70
     1
102
RTVSPropertyOp22
 70
     1
102
RTVSPropertyOp23
 70
     1
102
RTVSPropertyOp24
 70
     1
102
RTVSPropertyOp25
 70
     1
102
RTVSPropertyOp26
 70
     1
102
RTVSPropertyOp27
 70
     1
102
RTVSPropertyOp28
 70
     1
102
RTVSPropertyOp29
 70
     1
102
RTVSPropertyOp30
 70
     1
102
RTVSPropertyOp31
 70
     1
102
RTVSPropertyOp32
 70
     1
102
RTVSPropertyOp33
 70
     1
102
RTVSPropertyOp34
 70
     1
102
RTVSPropertyOp35
 70
     1
102
RTVSPropertyOp36
 70
     1
102
RTVSPropertyOp37
 70
     1
102
RTVSPropertyOp38
 70
     1
102
RTVSPropertyOp39
 70
     1
102
RTVSPropertyOp40
 70
     1
102
RTVSPropertyOp41
 70
     1
102
RTVSPropertyOp42
 70
     1
102
RTVSPropertyOp43
 70
     1
102
RTVSPropertyOp44
 70
     1
102
RTVSPropertyOp45
 70
     1
102
RTVSPropertyOp46
 70
     1
102
RTVSPropertyOp47
 70
     1
102
RTVSPropertyOp48
 70
     1
102
RTVSPropertyOp49
 70
     1
102
RTVSPropertyOp50
 70
     1
102
RTVSPropertyOp51
 70
     0
102
RTVSPropertyOp52
 70
     0
102
RTVSPropertyOp53
 70
     1
102
RTVSPropertyOp54
 70
     1
102
RTVSPropertyOp55
 70
     1
102
RTVSPropertyOp56
 70
     1
102
RTVSPropertyOp57
 70
     1
102
RTVSPost2010Prop28
280
     0
102
RTVSPost2010PropOp28
 70
     1
102
RTVSPost2010Prop29
280
     1
102
RTVSPost2010PropOp29
 70
     1
102
RTVSPost2010Prop30
280
     1
102
RTVSPost2010PropOp30
 70
     1
102
RTVSPost2010Prop31
280
     0
102
RTVSPost2010PropOp31
 70
     1
102
RTVSPost2010Prop32
280
     0
102
RTVSPost2010PropOp32
 70
     1
102
RTVSPost2010Prop33
280
     0
102
RTVSPost2010PropOp33
 70
     1
102
RTVSPost2010Prop34
280
     0
102
RTVSPost2010PropOp34
 70
     1
102
RTVSPost2010Prop35
280
     0
102
RTVSPost2010PropOp35
 70
     1
102
RTVSPost2010Prop36
280
     0
102
RTVSPost2010PropOp36
 70
     1
102
RTVSPost2010Prop37
 90
       50
102
RTVSPost2010PropOp37
 70
     1
102
RTVSPost2010Prop38
140
0.0
102
RTVSPost2010PropOp38
 70
     1
102
RTVSPost2010Prop39
140
1.0
102
RTVSPost2010PropOp39
 70
     1
102
RTVSPost2010Prop40
 90
        0
102
RTVSPost2010PropOp40
 70
     1
102
RTVSPost2010Prop41ColorIndex
 90
       18
102
RTVSPost2010Prop41ColorRGB
 90
        0
102
RTVSPost2010PropOp41
 70
     1
102
RTVSPost2010Prop42
 90
       50
102
RTVSPost2010PropOp42
 70
     1
102
RTVSPost2010Prop43
 90
        3
102
RTVSPost2010PropOp43
 70
     1
102
RTVSPost2010Prop44ColorIndex
 90
        5
102
RTVSPost2010Prop44ColorRGB
 90
      255
102
RTVSPost2010PropOp44
 70
     1
102
RTVSPost2010Prop45
280
     0
102
RTVSPost2010PropOp45
 70
     1
102
RTVSPost2010Prop46
 90
       50
102
RTVSPost2010PropOp46
 70
     1
102
RTVSPost2010Prop47
 90
       50
102
RTVSPost2010PropOp47
 70
     1
102
RTVSPost2010Prop48
 90
       50
102
RTVSPost2010PropOp48
 70
     1
102
RTVSPost2010Prop49
280
     0
102
RTVSPost2010PropOp49
 70
     1
102
RTVSPost2010Prop50
 90
       50
102
RTVSPost2010PropOp50
 70
     1
102
RTVSPost2010Prop51ColorIndex
 90
      256
102
RTVSPost2010Prop51ColorRGB
 90
-16777216
102
RTVSPost2010PropOp51
 70
     0
102
RTVSPost2010Prop52
140
1.0
102
RTVSPost2010PropOp52
 70
     0
102
RTVSPost2010Prop53
 90
        2
102
RTVSPost2010PropOp53
 70
     1
102
RTVSPost2010Prop54
  1
strokes_ogs.tif
102
RTVSPost2010PropOp54
 70
     1
102
RTVSPost2010Prop55
280
     0
102
RTVSPost2010PropOp55
 70
     1
102
RTVSPost2010Prop56
140
1.0
102
RTVSPost2010PropOp56
 70
     1
102
RTVSPost2010Prop57
140
1.0
102
RTVSPost2010PropOp57
 70
     1
  0
XRECORD
  5
200
102
{ACAD_REACTORS
330
1FF
102
}
330
1FF
100
AcDbXrecord
280
     1
102
RTVSPropertyOp0
 70
     1
102
RTVSPropertyOp1
 70
     1
102
RTVSPropertyOp2
 70
     1
102
RTVSPropertyOp3
 70
     1
102
RTVSPropertyOp4
 70
     1
102
RTVSPropertyOp5
 70
     1
102
RTVSPropertyOp6
 70
     1
102
RTVSPropertyOp7
 70
     1
102
RTVSPropertyOp8
 70
     1
102
RTVSPropertyOp9
 70
     1
102
RTVSPropertyOp10
 70
     1
102
RTVSPropertyOp11
 70
     1
102
RTVSPropertyOp12
 70
     1
102
RTVSPropertyOp13
 70
     1
102
RTVSPropertyOp14
 70
     1
102
RTVSPropertyOp15
 70
     1
102
RTVSPropertyOp16
 70
     1
102
RTVSPropertyOp17
 70
     1
102
RTVSPropertyOp18
 70
     1
102
RTVSPropertyOp19
 70
     1
102
RTVSPropertyOp20
 70
     1
102
RTVSPropertyOp21
 70
     1
102
RTVSPropertyOp22
 70
     1
102
RTVSPropertyOp23
 70
     1
102
RTVSPropertyOp24
 70
     1
102
RTVSPropertyOp25
 70
     1
102
RTVSPropertyOp26
 70
     1
102
RTVSPropertyOp27
 70
     1
102
RTVSPropertyOp28
 70
     1
102
RTVSPropertyOp29
 70
     1
102
RTVSPropertyOp30
 70
     1
102
RTVSPropertyOp31
 70
     1
102
RTVSPropertyOp32
 70
     1
102
RTVSPropertyOp33
 70
     1
102
RTVSPropertyOp34
 70
     1
102
RTVSPropertyOp35
 70
     1
102
RTVSPropertyOp36
 70
     1
102
RTVSPropertyOp37
 70
     1
102
RTVSPropertyOp38
 70
     1
102
RTVSPropertyOp39
 70
     1
102
RTVSPropertyOp40
 70
     1
102
RTVSPropertyOp41
 70
     1
102
RTVSPropertyOp42
 70
     1
102
RTVSPropertyOp43
 70
     1
102
RTVSPropertyOp44
 70
     1
102
RTVSPropertyOp45
 70
     1
102
RTVSPropertyOp46
 70
     1
102
RTVSPropertyOp47
 70
     1
102
RTVSPropertyOp48
 70
     1
102
RTVSPropertyOp49
 70
     1
102
RTVSPropertyOp50
 70
     1
102
RTVSPropertyOp51
 70
     0
102
RTVSPropertyOp52
 70
     0
102
RTVSPropertyOp53
 70
     1
102
RTVSPropertyOp54
 70
     1
102
RTVSPropertyOp55
 70
     1
102
RTVSPropertyOp56
 70
     1
102
RTVSPropertyOp57
 70
     1
102
RTVSPost2010Prop28
280
     0
102
RTVSPost2010PropOp28
 70
     1
102
RTVSPost2010Prop29
280
     1
102
RTVSPost2010PropOp29
 70
     1
102
RTVSPost2010Prop30
280
     1
102
RTVSPost2010PropOp30
 70
     1
102
RTVSPost2010Prop31
280
     0
102
RTVSPost2010PropOp31
 70
     1
102
RTVSPost2010Prop32
280
     0
102
RTVSPost2010PropOp32
 70
     1
102
RTVSPost2010Prop33
280
     0
102
RTVSPost2010PropOp33
 70
     1
102
RTVSPost2010Prop34
280
     0
102
RTVSPost2010PropOp34
 70
     1
102
RTVSPost2010Prop35
280
     0
102
RTVSPost2010PropOp35
 70
     1
102
RTVSPost2010Prop36
280
     0
102
RTVSPost2010PropOp36
 70
     1
102
RTVSPost2010Prop37
 90
       50
102
RTVSPost2010PropOp37
 70
     1
102
RTVSPost2010Prop38
140
0.0
102
RTVSPost2010PropOp38
 70
     1
102
RTVSPost2010Prop39
140
1.0
102
RTVSPost2010PropOp39
 70
     1
102
RTVSPost2010Prop40
 90
        0
102
RTVSPost2010PropOp40
 70
     1
102
RTVSPost2010Prop41ColorIndex
 90
       18
102
RTVSPost2010Prop41ColorRGB
 90
        0
102
RTVSPost2010PropOp41
 70
     1
102
RTVSPost2010Prop42
 90
       50
102
RTVSPost2010PropOp42
 70
     1
102
RTVSPost2010Prop43
 90
        3
102
RTVSPost2010PropOp43
 70
     1
102
RTVSPost2010Prop44ColorIndex
 90
        5
102
RTVSPost2010Prop44ColorRGB
 90
      255
102
RTVSPost2010PropOp44
 70
     1
102
RTVSPost2010Prop45
280
     0
102
RTVSPost2010PropOp45
 70
     1
102
RTVSPost2010Prop46
 90
       50
102
RTVSPost2010PropOp46
 70
     1
102
RTVSPost2010Prop47
 90
       50
102
RTVSPost2010PropOp47
 70
     1
102
RTVSPost2010Prop48
 90
       50
102
RTVSPost2010PropOp48
 70
     1
102
RTVSPost2010Prop49
280
     0
102
RTVSPost2010PropOp49
 70
     1
102
RTVSPost2010Prop50
 90
       50
102
RTVSPost2010PropOp50
 70
     1
102
RTVSPost2010Prop51ColorIndex
 90
      256
102
RTVSPost2010Prop51ColorRGB
 90
-16777216
102
RTVSPost2010PropOp51
 70
     0
102
RTVSPost2010Prop52
140
1.0
102
RTVSPost2010PropOp52
 70
     0
102
RTVSPost2010Prop53
 90
        2
102
RTVSPost2010PropOp53
 70
     1
102
RTVSPost2010Prop54
  1
strokes_ogs.tif
102
RTVSPost2010PropOp54
 70
     1
102
RTVSPost2010Prop55
280
     0
102
RTVSPost2010PropOp55
 70
     1
102
RTVSPost2010Prop56
140
1.0
102
RTVSPost2010PropOp56
 70
     1
102
RTVSPost2010Prop57
140
1.0
102
RTVSPost2010PropOp57
 70
     1
  0
XRECORD
  5
1F4
102
{ACAD_REACTORS
330
1F3
102
}
330
1F3
100
AcDbXrecord
280
     1
102
RTVSPropertyOp0
 70
     1
102
RTVSPropertyOp1
 70
     1
102
RTVSPropertyOp2
 70
     1
102
RTVSPropertyOp3
 70
     1
102
RTVSPropertyOp4
 70
     1
102
RTVSPropertyOp5
 70
     1
102
RTVSPropertyOp6
 70
     1
102
RTVSPropertyOp7
 70
     1
102
RTVSPropertyOp8
 70
     1
102
RTVSPropertyOp9
 70
     1
102
RTVSPropertyOp10
 70
     1
102
RTVSPropertyOp11
 70
     1
102
RTVSPropertyOp12
 70
     1
102
RTVSPropertyOp13
 70
     1
102
RTVSPropertyOp14
 70
     1
102
RTVSPropertyOp15
 70
     1
102
RTVSPropertyOp16
 70
     1
102
RTVSPropertyOp17
 70
     1
102
RTVSPropertyOp18
 70
     1
102
RTVSPropertyOp19
 70
     1
102
RTVSPropertyOp20
 70
     1
102
RTVSPropertyOp21
 70
     1
102
RTVSPropertyOp22
 70
     1
102
RTVSPropertyOp23
 70
     1
102
RTVSPropertyOp24
 70
     1
102
RTVSPropertyOp25
 70
     1
102
RTVSPropertyOp26
 70
     1
102
RTVSPropertyOp27
 70
     1
102
RTVSPropertyOp28
 70
     1
102
RTVSPropertyOp29
 70
     1
102
RTVSPropertyOp30
 70
     1
102
RTVSPropertyOp31
 70
     1
102
RTVSPropertyOp32
 70
     1
102
RTVSPropertyOp33
 70
     1
102
RTVSPropertyOp34
 70
     1
102
RTVSPropertyOp35
 70
     1
102
RTVSPropertyOp36
 70
     1
102
RTVSPropertyOp37
 70
     1
102
RTVSPropertyOp38
 70
     1
102
RTVSPropertyOp39
 70
     1
102
RTVSPropertyOp40
 70
     1
102
RTVSPropertyOp41
 70
     1
102
RTVSPropertyOp42
 70
     1
102
RTVSPropertyOp43
 70
     1
102
RTVSPropertyOp44
 70
     1
102
RTVSPropertyOp45
 70
     1
102
RTVSPropertyOp46
 70
     1
102
RTVSPropertyOp47
 70
     1
102
RTVSPropertyOp48
 70
     1
102
RTVSPropertyOp49
 70
     1
102
RTVSPropertyOp50
 70
     1
102
RTVSPropertyOp51
 70
     0
102
RTVSPropertyOp52
 70
     0
102
RTVSPropertyOp53
 70
     1
102
RTVSPropertyOp54
 70
     1
102
RTVSPropertyOp55
 70
     1
102
RTVSPropertyOp56
 70
     1
102
RTVSPropertyOp57
 70
     1
102
RTVSPost2010Prop28
280
     0
102
RTVSPost2010PropOp28
 70
     1
102
RTVSPost2010Prop29
280
     1
102
RTVSPost2010PropOp29
 70
     1
102
RTVSPost2010Prop30
280
     1
102
RTVSPost2010PropOp30
 70
     1
102
RTVSPost2010Prop31
280
     0
102
RTVSPost2010PropOp31
 70
     1
102
RTVSPost2010Prop32
280
     0
102
RTVSPost2010PropOp32
 70
     1
102
RTVSPost2010Prop33
280
     0
102
RTVSPost2010PropOp33
 70
     1
102
RTVSPost2010Prop34
280
     0
102
RTVSPost2010PropOp34
 70
     1
102
RTVSPost2010Prop35
280
     0
102
RTVSPost2010PropOp35
 70
     1
102
RTVSPost2010Prop36
280
     0
102
RTVSPost2010PropOp36
 70
     1
102
RTVSPost2010Prop37
 90
       50
102
RTVSPost2010PropOp37
 70
     1
102
RTVSPost2010Prop38
140
0.0
102
RTVSPost2010PropOp38
 70
     1
102
RTVSPost2010Prop39
140
1.0
102
RTVSPost2010PropOp39
 70
     1
102
RTVSPost2010Prop40
 90
        0
102
RTVSPost2010PropOp40
 70
     1
102
RTVSPost2010Prop41ColorIndex
 90
       18
102
RTVSPost2010Prop41ColorRGB
 90
        0
102
RTVSPost2010PropOp41
 70
     1
102
RTVSPost2010Prop42
 90
       50
102
RTVSPost2010PropOp42
 70
     1
102
RTVSPost2010Prop43
 90
        3
102
RTVSPost2010PropOp43
 70
     1
102
RTVSPost2010Prop44ColorIndex
 90
        5
102
RTVSPost2010Prop44ColorRGB
 90
      255
102
RTVSPost2010PropOp44
 70
     1
102
RTVSPost2010Prop45
280
     0
102
RTVSPost2010PropOp45
 70
     1
102
RTVSPost2010Prop46
 90
       50
102
RTVSPost2010PropOp46
 70
     1
102
RTVSPost2010Prop47
 90
       50
102
RTVSPost2010PropOp47
 70
     1
102
RTVSPost2010Prop48
 90
       50
102
RTVSPost2010PropOp48
 70
     1
102
RTVSPost2010Prop49
280
     0
102
RTVSPost2010PropOp49
 70
     1
102
RTVSPost2010Prop50
 90
       50
102
RTVSPost2010PropOp50
 70
     1
102
RTVSPost2010Prop51ColorIndex
 90
      256
102
RTVSPost2010Prop51ColorRGB
 90
-16777216
102
RTVSPost2010PropOp51
 70
     0
102
RTVSPost2010Prop52
140
1.0
102
RTVSPost2010PropOp52
 70
     0
102
RTVSPost2010Prop53
 90
        2
102
RTVSPost2010PropOp53
 70
     1
102
RTVSPost2010Prop54
  1
strokes_ogs.tif
102
RTVSPost2010PropOp54
 70
     1
102
RTVSPost2010Prop55
280
     0
102
RTVSPost2010PropOp55
 70
     1
102
RTVSPost2010Prop56
140
1.0
102
RTVSPost2010PropOp56
 70
     1
102
RTVSPost2010Prop57
140
1.0
102
RTVSPost2010PropOp57
 70
     1
  0
XRECORD
  5
1F6
102
{ACAD_REACTORS
330
1F5
102
}
330
1F5
100
AcDbXrecord
280
     1
102
RTVSPropertyOp0
 70
     1
102
RTVSPropertyOp1
 70
     1
102
RTVSPropertyOp2
 70
     1
102
RTVSPropertyOp3
 70
     1
102
RTVSPropertyOp4
 70
     1
102
RTVSPropertyOp5
 70
     1
102
RTVSPropertyOp6
 70
     1
102
RTVSPropertyOp7
 70
     1
102
RTVSPropertyOp8
 70
     1
102
RTVSPropertyOp9
 70
     1
102
RTVSPropertyOp10
 70
     1
102
RTVSPropertyOp11
 70
     1
102
RTVSPropertyOp12
 70
     1
102
RTVSPropertyOp13
 70
     1
102
RTVSPropertyOp14
 70
     1
102
RTVSPropertyOp15
 70
     1
102
RTVSPropertyOp16
 70
     1
102
RTVSPropertyOp17
 70
     1
102
RTVSPropertyOp18
 70
     1
102
RTVSPropertyOp19
 70
     1
102
RTVSPropertyOp20
 70
     1
102
RTVSPropertyOp21
 70
     1
102
RTVSPropertyOp22
 70
     1
102
RTVSPropertyOp23
 70
     1
102
RTVSPropertyOp24
 70
     1
102
RTVSPropertyOp25
 70
     1
102
RTVSPropertyOp26
 70
     1
102
RTVSPropertyOp27
 70
     1
102
RTVSPropertyOp28
 70
     1
102
RTVSPropertyOp29
 70
     1
102
RTVSPropertyOp30
 70
     1
102
RTVSPropertyOp31
 70
     1
102
RTVSPropertyOp32
 70
     1
102
RTVSPropertyOp33
 70
     1
102
RTVSPropertyOp34
 70
     1
102
RTVSPropertyOp35
 70
     1
102
RTVSPropertyOp36
 70
     1
102
RTVSPropertyOp37
 70
     1
102
RTVSPropertyOp38
 70
     1
102
RTVSPropertyOp39
 70
     1
102
RTVSPropertyOp40
 70
     1
102
RTVSPropertyOp41
 70
     1
102
RTVSPropertyOp42
 70
     1
102
RTVSPropertyOp43
 70
     1
102
RTVSPropertyOp44
 70
     1
102
RTVSPropertyOp45
 70
     1
102
RTVSPropertyOp46
 70
     1
102
RTVSPropertyOp47
 70
     1
102
RTVSPropertyOp48
 70
     1
102
RTVSPropertyOp49
 70
     1
102
RTVSPropertyOp50
 70
     1
102
RTVSPropertyOp51
 70
     0
102
RTVSPropertyOp52
 70
     0
102
RTVSPropertyOp53
 70
     1
102
RTVSPropertyOp54
 70
     1
102
RTVSPropertyOp55
 70
     1
102
RTVSPropertyOp56
 70
     1
102
RTVSPropertyOp57
 70
     1
102
RTVSPost2010Prop28
280
     0
102
RTVSPost2010PropOp28
 70
     1
102
RTVSPost2010Prop29
280
     1
102
RTVSPost2010PropOp29
 70
     1
102
RTVSPost2010Prop30
280
     1
102
RTVSPost2010PropOp30
 70
     1
102
RTVSPost2010Prop31
280
     0
102
RTVSPost2010PropOp31
 70
     1
102
RTVSPost2010Prop32
280
     0
102
RTVSPost2010PropOp32
 70
     1
102
RTVSPost2010Prop33
280
     0
102
RTVSPost2010PropOp33
 70
     1
102
RTVSPost2010Prop34
280
     0
102
RTVSPost2010PropOp34
 70
     1
102
RTVSPost2010Prop35
280
     0
102
RTVSPost2010PropOp35
 70
     1
102
RTVSPost2010Prop36
280
     0
102
RTVSPost2010PropOp36
 70
     1
102
RTVSPost2010Prop37
 90
       50
102
RTVSPost2010PropOp37
 70
     1
102
RTVSPost2010Prop38
140
0.0
102
RTVSPost2010PropOp38
 70
     1
102
RTVSPost2010Prop39
140
1.0
102
RTVSPost2010PropOp39
 70
     1
102
RTVSPost2010Prop40
 90
        0
102
RTVSPost2010PropOp40
 70
     1
102
RTVSPost2010Prop41ColorIndex
 90
       18
102
RTVSPost2010Prop41ColorRGB
 90
        0
102
RTVSPost2010PropOp41
 70
     1
102
RTVSPost2010Prop42
 90
       50
102
RTVSPost2010PropOp42
 70
     1
102
RTVSPost2010Prop43
 90
        3
102
RTVSPost2010PropOp43
 70
     1
102
RTVSPost2010Prop44ColorIndex
 90
        5
102
RTVSPost2010Prop44ColorRGB
 90
      255
102
RTVSPost2010PropOp44
 70
     1
102
RTVSPost2010Prop45
280
     0
102
RTVSPost2010PropOp45
 70
     1
102
RTVSPost2010Prop46
 90
       50
102
RTVSPost2010PropOp46
 70
     1
102
RTVSPost2010Prop47
 90
       50
102
RTVSPost2010PropOp47
 70
     1
102
RTVSPost2010Prop48
 90
       50
102
RTVSPost2010PropOp48
 70
     1
102
RTVSPost2010Prop49
280
     0
102
RTVSPost2010PropOp49
 70
     1
102
RTVSPost2010Prop50
 90
       50
102
RTVSPost2010PropOp50
 70
     1
102
RTVSPost2010Prop51ColorIndex
 90
      256
102
RTVSPost2010Prop51ColorRGB
 90
-16777216
102
RTVSPost2010PropOp51
 70
     0
102
RTVSPost2010Prop52
140
1.0
102
RTVSPost2010PropOp52
 70
     0
102
RTVSPost2010Prop53
 90
        2
102
RTVSPost2010PropOp53
 70
     1
102
RTVSPost2010Prop54
  1
strokes_ogs.tif
102
RTVSPost2010PropOp54
 70
     1
102
RTVSPost2010Prop55
280
     0
102
RTVSPost2010PropOp55
 70
     1
102
RTVSPost2010Prop56
140
1.0
102
RTVSPost2010PropOp56
 70
     1
102
RTVSPost2010Prop57
140
1.0
102
RTVSPost2010PropOp57
 70
     1
  0
XRECORD
  5
206
102
{ACAD_REACTORS
330
205
102
}
330
205
100
AcDbXrecord
280
     1
102
RTVSPropertyOp0
 70
     0
102
RTVSPropertyOp1
 70
     0
102
RTVSPropertyOp2
 70
     0
102
RTVSPropertyOp3
 70
     0
102
RTVSPropertyOp4
 70
     0
102
RTVSPropertyOp5
 70
     0
102
RTVSPropertyOp6
 70
     0
102
RTVSPropertyOp7
 70
     0
102
RTVSPropertyOp8
 70
     0
102
RTVSPropertyOp9
 70
     0
102
RTVSPropertyOp10
 70
     0
102
RTVSPropertyOp11
 70
     0
102
RTVSPropertyOp12
 70
     0
102
RTVSPropertyOp13
 70
     0
102
RTVSPropertyOp14
 70
     2
102
RTVSPropertyOp15
 70
     0
102
RTVSPropertyOp16
 70
     0
102
RTVSPropertyOp17
 70
     0
102
RTVSPropertyOp18
 70
     0
102
RTVSPropertyOp19
 70
     0
102
RTVSPropertyOp20
 70
     0
102
RTVSPropertyOp21
 70
     0
102
RTVSPropertyOp22
 70
     0
102
RTVSPropertyOp23
 70
     0
102
RTVSPropertyOp24
 70
     0
102
RTVSPropertyOp25
 70
     0
102
RTVSPropertyOp26
 70
     0
102
RTVSPropertyOp27
 70
     0
102
RTVSPropertyOp28
 70
     0
102
RTVSPropertyOp29
 70
     0
102
RTVSPropertyOp30
 70
     0
102
RTVSPropertyOp31
 70
     0
102
RTVSPropertyOp32
 70
     0
102
RTVSPropertyOp33
 70
     0
102
RTVSPropertyOp34
 70
     0
102
RTVSPropertyOp35
 70
     0
102
RTVSPropertyOp36
 70
     0
102
RTVSPropertyOp37
 70
     0
102
RTVSPropertyOp38
 70
     0
102
RTVSPropertyOp39
 70
     0
102
RTVSPropertyOp40
 70
     0
102
RTVSPropertyOp41
 70
     0
102
RTVSPropertyOp42
 70
     0
102
RTVSPropertyOp43
 70
     0
102
RTVSPropertyOp44
 70
     0
102
RTVSPropertyOp45
 70
     0
102
RTVSPropertyOp46
 70
     0
102
RTVSPropertyOp47
 70
     0
102
RTVSPropertyOp48
 70
     0
102
RTVSPropertyOp49
 70
     0
102
RTVSPropertyOp50
 70
     0
102
RTVSPropertyOp51
 70
     0
102
RTVSPropertyOp52
 70
     0
102
RTVSPropertyOp53
 70
     0
102
RTVSPropertyOp54
 70
     0
102
RTVSPropertyOp55
 70
     0
102
RTVSPropertyOp56
 70
     0
102
RTVSPropertyOp57
 70
     0
102
RTVSPost2010Prop28
280
     0
102
RTVSPost2010PropOp28
 70
     0
102
RTVSPost2010Prop29
280
     1
102
RTVSPost2010PropOp29
 70
     0
102
RTVSPost2010Prop30
280
     1
102
RTVSPost2010PropOp30
 70
     0
102
RTVSPost2010Prop31
280
     0
102
RTVSPost2010PropOp31
 70
     0
102
RTVSPost2010Prop32
280
     0
102
RTVSPost2010PropOp32
 70
     0
102
RTVSPost2010Prop33
280
     0
102
RTVSPost2010PropOp33
 70
     0
102
RTVSPost2010Prop34
280
     0
102
RTVSPost2010PropOp34
 70
     0
102
RTVSPost2010Prop35
280
     0
102
RTVSPost2010PropOp35
 70
     0
102
RTVSPost2010Prop36
280
     0
102
RTVSPost2010PropOp36
 70
     0
102
RTVSPost2010Prop37
 90
       50
102
RTVSPost2010PropOp37
 70
     0
102
RTVSPost2010Prop38
140
0.0
102
RTVSPost2010PropOp38
 70
     0
102
RTVSPost2010Prop39
140
1.0
102
RTVSPost2010PropOp39
 70
     0
102
RTVSPost2010Prop40
 90
        0
102
RTVSPost2010PropOp40
 70
     0
102
RTVSPost2010Prop41ColorIndex
 90
       18
102
RTVSPost2010Prop41ColorRGB
 90
        0
102
RTVSPost2010PropOp41
 70
     0
102
RTVSPost2010Prop42
 90
       50
102
RTVSPost2010PropOp42
 70
     0
102
RTVSPost2010Prop43
 90
        3
102
RTVSPost2010PropOp43
 70
     0
102
RTVSPost2010Prop44ColorIndex
 90
        5
102
RTVSPost2010Prop44ColorRGB
 90
      255
102
RTVSPost2010PropOp44
 70
     0
102
RTVSPost2010Prop45
280
     0
102
RTVSPost2010PropOp45
 70
     0
102
RTVSPost2010Prop46
 90
       50
102
RTVSPost2010PropOp46
 70
     0
102
RTVSPost2010Prop47
 90
       50
102
RTVSPost2010PropOp47
 70
     0
102
RTVSPost2010Prop48
 90
       50
102
RTVSPost2010PropOp48
 70
     0
102
RTVSPost2010Prop49
280
     0
102
RTVSPost2010PropOp49
 70
     0
102
RTVSPost2010Prop50
 90
       50
102
RTVSPost2010PropOp50
 70
     0
102
RTVSPost2010Prop51ColorIndex
 90
      256
102
RTVSPost2010Prop51ColorRGB
 90
-16777216
102
RTVSPost2010PropOp51
 70
     0
102
RTVSPost2010Prop52
140
1.0
102
RTVSPost2010PropOp52
 70
     0
102
RTVSPost2010Prop53
 90
        2
102
RTVSPost2010PropOp53
 70
     0
102
RTVSPost2010Prop54
  1
strokes_ogs.tif
102
RTVSPost2010PropOp54
 70
     0
102
RTVSPost2010Prop55
280
     0
102
RTVSPost2010PropOp55
 70
     0
102
RTVSPost2010Prop56
140
1.0
102
RTVSPost2010PropOp56
 70
     0
102
RTVSPost2010Prop57
140
1.0
102
RTVSPost2010PropOp57
 70
     0
  0
XRECORD
  5
1FE
102
{ACAD_REACTORS
330
1FD
102
}
330
1FD
100
AcDbXrecord
280
     1
102
RTVSPropertyOp0
 70
     1
102
RTVSPropertyOp1
 70
     1
102
RTVSPropertyOp2
 70
     1
102
RTVSPropertyOp3
 70
     1
102
RTVSPropertyOp4
 70
     1
102
RTVSPropertyOp5
 70
     1
102
RTVSPropertyOp6
 70
     1
102
RTVSPropertyOp7
 70
     1
102
RTVSPropertyOp8
 70
     1
102
RTVSPropertyOp9
 70
     1
102
RTVSPropertyOp10
 70
     1
102
RTVSPropertyOp11
 70
     1
102
RTVSPropertyOp12
 70
     1
102
RTVSPropertyOp13
 70
     1
102
RTVSPropertyOp14
 70
     1
102
RTVSPropertyOp15
 70
     1
102
RTVSPropertyOp16
 70
     1
102
RTVSPropertyOp17
 70
     1
102
RTVSPropertyOp18
 70
     1
102
RTVSPropertyOp19
 70
     1
102
RTVSPropertyOp20
 70
     1
102
RTVSPropertyOp21
 70
     1
102
RTVSPropertyOp22
 70
     1
102
RTVSPropertyOp23
 70
     1
102
RTVSPropertyOp24
 70
     1
102
RTVSPropertyOp25
 70
     1
102
RTVSPropertyOp26
 70
     1
102
RTVSPropertyOp27
 70
     1
102
RTVSPropertyOp28
 70
     1
102
RTVSPropertyOp29
 70
     1
102
RTVSPropertyOp30
 70
     1
102
RTVSPropertyOp31
 70
     1
102
RTVSPropertyOp32
 70
     1
102
RTVSPropertyOp33
 70
     1
102
RTVSPropertyOp34
 70
     1
102
RTVSPropertyOp35
 70
     1
102
RTVSPropertyOp36
 70
     1
102
RTVSPropertyOp37
 70
     1
102
RTVSPropertyOp38
 70
     1
102
RTVSPropertyOp39
 70
     1
102
RTVSPropertyOp40
 70
     1
102
RTVSPropertyOp41
 70
     1
102
RTVSPropertyOp42
 70
     1
102
RTVSPropertyOp43
 70
     1
102
RTVSPropertyOp44
 70
     1
102
RTVSPropertyOp45
 70
     1
102
RTVSPropertyOp46
 70
     1
102
RTVSPropertyOp47
 70
     1
102
RTVSPropertyOp48
 70
     1
102
RTVSPropertyOp49
 70
     1
102
RTVSPropertyOp50
 70
     1
102
RTVSPropertyOp51
 70
     0
102
RTVSPropertyOp52
 70
     0
102
RTVSPropertyOp53
 70
     1
102
RTVSPropertyOp54
 70
     1
102
RTVSPropertyOp55
 70
     1
102
RTVSPropertyOp56
 70
     1
102
RTVSPropertyOp57
 70
     1
102
RTVSPost2010Prop28
280
     0
102
RTVSPost2010PropOp28
 70
     1
102
RTVSPost2010Prop29
280
     1
102
RTVSPost2010PropOp29
 70
     1
102
RTVSPost2010Prop30
280
     1
102
RTVSPost2010PropOp30
 70
     1
102
RTVSPost2010Prop31
280
     0
102
RTVSPost2010PropOp31
 70
     1
102
RTVSPost2010Prop32
280
     0
102
RTVSPost2010PropOp32
 70
     1
102
RTVSPost2010Prop33
280
     0
102
RTVSPost2010PropOp33
 70
     1
102
RTVSPost2010Prop34
280
     0
102
RTVSPost2010PropOp34
 70
     1
102
RTVSPost2010Prop35
280
     0
102
RTVSPost2010PropOp35
 70
     1
102
RTVSPost2010Prop36
280
     0
102
RTVSPost2010PropOp36
 70
     1
102
RTVSPost2010Prop37
 90
       50
102
RTVSPost2010PropOp37
 70
     1
102
RTVSPost2010Prop38
140
0.0
102
RTVSPost2010PropOp38
 70
     1
102
RTVSPost2010Prop39
140
1.0
102
RTVSPost2010PropOp39
 70
     1
102
RTVSPost2010Prop40
 90
        0
102
RTVSPost2010PropOp40
 70
     1
102
RTVSPost2010Prop41ColorIndex
 90
       18
102
RTVSPost2010Prop41ColorRGB
 90
        0
102
RTVSPost2010PropOp41
 70
     1
102
RTVSPost2010Prop42
 90
       50
102
RTVSPost2010PropOp42
 70
     1
102
RTVSPost2010Prop43
 90
        3
102
RTVSPost2010PropOp43
 70
     1
102
RTVSPost2010Prop44ColorIndex
 90
        5
102
RTVSPost2010Prop44ColorRGB
 90
      255
102
RTVSPost2010PropOp44
 70
     1
102
RTVSPost2010Prop45
280
     0
102
RTVSPost2010PropOp45
 70
     1
102
RTVSPost2010Prop46
 90
       50
102
RTVSPost2010PropOp46
 70
     1
102
RTVSPost2010Prop47
 90
       50
102
RTVSPost2010PropOp47
 70
     1
102
RTVSPost2010Prop48
 90
       50
102
RTVSPost2010PropOp48
 70
     1
102
RTVSPost2010Prop49
280
     0
102
RTVSPost2010PropOp49
 70
     1
102
RTVSPost2010Prop50
 90
       50
102
RTVSPost2010PropOp50
 70
     1
102
RTVSPost2010Prop51ColorIndex
 90
      256
102
RTVSPost2010Prop51ColorRGB
 90
-16777216
102
RTVSPost2010PropOp51
 70
     0
102
RTVSPost2010Prop52
140
1.0
102
RTVSPost2010PropOp52
 70
     0
102
RTVSPost2010Prop53
 90
        2
102
RTVSPost2010PropOp53
 70
     1
102
RTVSPost2010Prop54
  1
strokes_ogs.tif
102
RTVSPost2010PropOp54
 70
     1
102
RTVSPost2010Prop55
280
     0
102
RTVSPost2010PropOp55
 70
     1
102
RTVSPost2010Prop56
140
1.0
102
RTVSPost2010PropOp56
 70
     1
102
RTVSPost2010Prop57
140
1.0
102
RTVSPost2010PropOp57
 70
     1
  0
XRECORD
  5
1E2
102
{ACAD_REACTORS
330
1E1
102
}
330
1E1
100
AcDbXrecord
280
     1
102
RTVSPropertyOp0
 70
     1
102
RTVSPropertyOp1
 70
     1
102
RTVSPropertyOp2
 70
     1
102
RTVSPropertyOp3
 70
     1
102
RTVSPropertyOp4
 70
     1
102
RTVSPropertyOp5
 70
     1
102
RTVSPropertyOp6
 70
     1
102
RTVSPropertyOp7
 70
     1
102
RTVSPropertyOp8
 70
     1
102
RTVSPropertyOp9
 70
     1
102
RTVSPropertyOp10
 70
     1
102
RTVSPropertyOp11
 70
     1
102
RTVSPropertyOp12
 70
     1
102
RTVSPropertyOp13
 70
     1
102
RTVSPropertyOp14
 70
     1
102
RTVSPropertyOp15
 70
     1
102
RTVSPropertyOp16
 70
     1
102
RTVSPropertyOp17
 70
     1
102
RTVSPropertyOp18
 70
     1
102
RTVSPropertyOp19
 70
     1
102
RTVSPropertyOp20
 70
     1
102
RTVSPropertyOp21
 70
     1
102
RTVSPropertyOp22
 70
     1
102
RTVSPropertyOp23
 70
     1
102
RTVSPropertyOp24
 70
     1
102
RTVSPropertyOp25
 70
     1
102
RTVSPropertyOp26
 70
     1
102
RTVSPropertyOp27
 70
     1
102
RTVSPropertyOp28
 70
     1
102
RTVSPropertyOp29
 70
     1
102
RTVSPropertyOp30
 70
     1
102
RTVSPropertyOp31
 70
     1
102
RTVSPropertyOp32
 70
     1
102
RTVSPropertyOp33
 70
     1
102
RTVSPropertyOp34
 70
     1
102
RTVSPropertyOp35
 70
     1
102
RTVSPropertyOp36
 70
     1
102
RTVSPropertyOp37
 70
     1
102
RTVSPropertyOp38
 70
     1
102
RTVSPropertyOp39
 70
     1
102
RTVSPropertyOp40
 70
     1
102
RTVSPropertyOp41
 70
     1
102
RTVSPropertyOp42
 70
     1
102
RTVSPropertyOp43
 70
     1
102
RTVSPropertyOp44
 70
     1
102
RTVSPropertyOp45
 70
     1
102
RTVSPropertyOp46
 70
     1
102
RTVSPropertyOp47
 70
     1
102
RTVSPropertyOp48
 70
     1
102
RTVSPropertyOp49
 70
     1
102
RTVSPropertyOp50
 70
     1
102
RTVSPropertyOp51
 70
     0
102
RTVSPropertyOp52
 70
     0
102
RTVSPropertyOp53
 70
     1
102
RTVSPropertyOp54
 70
     1
102
RTVSPropertyOp55
 70
     1
102
RTVSPropertyOp56
 70
     1
102
RTVSPropertyOp57
 70
     1
102
RTVSPost2010Prop28
280
     0
102
RTVSPost2010PropOp28
 70
     1
102
RTVSPost2010Prop29
280
     1
102
RTVSPost2010PropOp29
 70
     1
102
RTVSPost2010Prop30
280
     1
102
RTVSPost2010PropOp30
 70
     1
102
RTVSPost2010Prop31
280
     0
102
RTVSPost2010PropOp31
 70
     1
102
RTVSPost2010Prop32
280
     0
102
RTVSPost2010PropOp32
 70
     1
102
RTVSPost2010Prop33
280
     0
102
RTVSPost2010PropOp33
 70
     1
102
RTVSPost2010Prop34
280
     0
102
RTVSPost2010PropOp34
 70
     1
102
RTVSPost2010Prop35
280
     0
102
RTVSPost2010PropOp35
 70
     1
102
RTVSPost2010Prop36
280
     0
102
RTVSPost2010PropOp36
 70
     1
102
RTVSPost2010Prop37
 90
       50
102
RTVSPost2010PropOp37
 70
     1
102
RTVSPost2010Prop38
140
0.0
102
RTVSPost2010PropOp38
 70
     1
102
RTVSPost2010Prop39
140
1.0
102
RTVSPost2010PropOp39
 70
     1
102
RTVSPost2010Prop40
 90
        0
102
RTVSPost2010PropOp40
 70
     1
102
RTVSPost2010Prop41ColorIndex
 90
       18
102
RTVSPost2010Prop41ColorRGB
 90
        0
102
RTVSPost2010PropOp41
 70
     1
102
RTVSPost2010Prop42
 90
       50
102
RTVSPost2010PropOp42
 70
     1
102
RTVSPost2010Prop43
 90
        3
102
RTVSPost2010PropOp43
 70
     1
102
RTVSPost2010Prop44ColorIndex
 90
        5
102
RTVSPost2010Prop44ColorRGB
 90
      255
102
RTVSPost2010PropOp44
 70
     1
102
RTVSPost2010Prop45
280
     0
102
RTVSPost2010PropOp45
 70
     1
102
RTVSPost2010Prop46
 90
       50
102
RTVSPost2010PropOp46
 70
     1
102
RTVSPost2010Prop47
 90
       50
102
RTVSPost2010PropOp47
 70
     1
102
RTVSPost2010Prop48
 90
       50
102
RTVSPost2010PropOp48
 70
     1
102
RTVSPost2010Prop49
280
     0
102
RTVSPost2010PropOp49
 70
     1
102
RTVSPost2010Prop50
 90
       50
102
RTVSPost2010PropOp50
 70
     1
102
RTVSPost2010Prop51ColorIndex
 90
      256
102
RTVSPost2010Prop51ColorRGB
 90
-16777216
102
RTVSPost2010PropOp51
 70
     0
102
RTVSPost2010Prop52
140
1.0
102
RTVSPost2010PropOp52
 70
     0
102
RTVSPost2010Prop53
 90
        2
102
RTVSPost2010PropOp53
 70
     1
102
RTVSPost2010Prop54
  1
strokes_ogs.tif
102
RTVSPost2010PropOp54
 70
     1
102
RTVSPost2010Prop55
280
     0
102
RTVSPost2010PropOp55
 70
     1
102
RTVSPost2010Prop56
140
1.0
102
RTVSPost2010PropOp56
 70
     1
102
RTVSPost2010Prop57
140
1.0
102
RTVSPost2010PropOp57
 70
     1
  0
XRECORD
  5
1E4
102
{ACAD_REACTORS
330
1E3
102
}
330
1E3
100
AcDbXrecord
280
     1
102
RTVSPropertyOp0
 70
     1
102
RTVSPropertyOp1
 70
     1
102
RTVSPropertyOp2
 70
     1
102
RTVSPropertyOp3
 70
     1
102
RTVSPropertyOp4
 70
     1
102
RTVSPropertyOp5
 70
     1
102
RTVSPropertyOp6
 70
     1
102
RTVSPropertyOp7
 70
     1
102
RTVSPropertyOp8
 70
     1
102
RTVSPropertyOp9
 70
     1
102
RTVSPropertyOp10
 70
     1
102
RTVSPropertyOp11
 70
     1
102
RTVSPropertyOp12
 70
     1
102
RTVSPropertyOp13
 70
     1
102
RTVSPropertyOp14
 70
     1
102
RTVSPropertyOp15
 70
     1
102
RTVSPropertyOp16
 70
     1
102
RTVSPropertyOp17
 70
     1
102
RTVSPropertyOp18
 70
     1
102
RTVSPropertyOp19
 70
     1
102
RTVSPropertyOp20
 70
     1
102
RTVSPropertyOp21
 70
     1
102
RTVSPropertyOp22
 70
     1
102
RTVSPropertyOp23
 70
     1
102
RTVSPropertyOp24
 70
     1
102
RTVSPropertyOp25
 70
     1
102
RTVSPropertyOp26
 70
     1
102
RTVSPropertyOp27
 70
     1
102
RTVSPropertyOp28
 70
     1
102
RTVSPropertyOp29
 70
     1
102
RTVSPropertyOp30
 70
     1
102
RTVSPropertyOp31
 70
     1
102
RTVSPropertyOp32
 70
     1
102
RTVSPropertyOp33
 70
     1
102
RTVSPropertyOp34
 70
     1
102
RTVSPropertyOp35
 70
     1
102
RTVSPropertyOp36
 70
     1
102
RTVSPropertyOp37
 70
     1
102
RTVSPropertyOp38
 70
     1
102
RTVSPropertyOp39
 70
     1
102
RTVSPropertyOp40
 70
     1
102
RTVSPropertyOp41
 70
     1
102
RTVSPropertyOp42
 70
     1
102
RTVSPropertyOp43
 70
     1
102
RTVSPropertyOp44
 70
     1
102
RTVSPropertyOp45
 70
     1
102
RTVSPropertyOp46
 70
     1
102
RTVSPropertyOp47
 70
     1
102
RTVSPropertyOp48
 70
     1
102
RTVSPropertyOp49
 70
     1
102
RTVSPropertyOp50
 70
     1
102
RTVSPropertyOp51
 70
     0
102
RTVSPropertyOp52
 70
     0
102
RTVSPropertyOp53
 70
     1
102
RTVSPropertyOp54
 70
     1
102
RTVSPropertyOp55
 70
     1
102
RTVSPropertyOp56
 70
     1
102
RTVSPropertyOp57
 70
     1
102
RTVSPost2010Prop28
280
     0
102
RTVSPost2010PropOp28
 70
     1
102
RTVSPost2010Prop29
280
     1
102
RTVSPost2010PropOp29
 70
     1
102
RTVSPost2010Prop30
280
     1
102
RTVSPost2010PropOp30
 70
     1
102
RTVSPost2010Prop31
280
     0
102
RTVSPost2010PropOp31
 70
     1
102
RTVSPost2010Prop32
280
     0
102
RTVSPost2010PropOp32
 70
     1
102
RTVSPost2010Prop33
280
     0
102
RTVSPost2010PropOp33
 70
     1
102
RTVSPost2010Prop34
280
     0
102
RTVSPost2010PropOp34
 70
     1
102
RTVSPost2010Prop35
280
     0
102
RTVSPost2010PropOp35
 70
     1
102
RTVSPost2010Prop36
280
     0
102
RTVSPost2010PropOp36
 70
     1
102
RTVSPost2010Prop37
 90
       50
102
RTVSPost2010PropOp37
 70
     1
102
RTVSPost2010Prop38
140
0.0
102
RTVSPost2010PropOp38
 70
     1
102
RTVSPost2010Prop39
140
1.0
102
RTVSPost2010PropOp39
 70
     1
102
RTVSPost2010Prop40
 90
        0
102
RTVSPost2010PropOp40
 70
     1
102
RTVSPost2010Prop41ColorIndex
 90
       18
102
RTVSPost2010Prop41ColorRGB
 90
        0
102
RTVSPost2010PropOp41
 70
     1
102
RTVSPost2010Prop42
 90
       50
102
RTVSPost2010PropOp42
 70
     1
102
RTVSPost2010Prop43
 90
        3
102
RTVSPost2010PropOp43
 70
     1
102
RTVSPost2010Prop44ColorIndex
 90
        5
102
RTVSPost2010Prop44ColorRGB
 90
      255
102
RTVSPost2010PropOp44
 70
     1
102
RTVSPost2010Prop45
280
     0
102
RTVSPost2010PropOp45
 70
     1
102
RTVSPost2010Prop46
 90
       50
102
RTVSPost2010PropOp46
 70
     1
102
RTVSPost2010Prop47
 90
       50
102
RTVSPost2010PropOp47
 70
     1
102
RTVSPost2010Prop48
 90
       50
102
RTVSPost2010PropOp48
 70
     1
102
RTVSPost2010Prop49
280
     0
102
RTVSPost2010PropOp49
 70
     1
102
RTVSPost2010Prop50
 90
       50
102
RTVSPost2010PropOp50
 70
     1
102
RTVSPost2010Prop51ColorIndex
 90
      256
102
RTVSPost2010Prop51ColorRGB
 90
-16777216
102
RTVSPost2010PropOp51
 70
     0
102
RTVSPost2010Prop52
140
1.0
102
RTVSPost2010PropOp52
 70
     0
102
RTVSPost2010Prop53
 90
        2
102
RTVSPost2010PropOp53
 70
     1
102
RTVSPost2010Prop54
  1
strokes_ogs.tif
102
RTVSPost2010PropOp54
 70
     1
102
RTVSPost2010Prop55
280
     0
102
RTVSPost2010PropOp55
 70
     1
102
RTVSPost2010Prop56
140
1.0
102
RTVSPost2010PropOp56
 70
     1
102
RTVSPost2010Prop57
140
1.0
102
RTVSPost2010PropOp57
 70
     1
  0
XRECORD
  5
1E6
102
{ACAD_REACTORS
330
1E5
102
}
330
1E5
100
AcDbXrecord
280
     1
102
RTVSPropertyOp0
 70
     1
102
RTVSPropertyOp1
 70
     1
102
RTVSPropertyOp2
 70
     1
102
RTVSPropertyOp3
 70
     1
102
RTVSPropertyOp4
 70
     1
102
RTVSPropertyOp5
 70
     1
102
RTVSPropertyOp6
 70
     1
102
RTVSPropertyOp7
 70
     1
102
RTVSPropertyOp8
 70
     1
102
RTVSPropertyOp9
 70
     1
102
RTVSPropertyOp10
 70
     1
102
RTVSPropertyOp11
 70
     1
102
RTVSPropertyOp12
 70
     1
102
RTVSPropertyOp13
 70
     1
102
RTVSPropertyOp14
 70
     1
102
RTVSPropertyOp15
 70
     1
102
RTVSPropertyOp16
 70
     1
102
RTVSPropertyOp17
 70
     1
102
RTVSPropertyOp18
 70
     1
102
RTVSPropertyOp19
 70
     1
102
RTVSPropertyOp20
 70
     1
102
RTVSPropertyOp21
 70
     1
102
RTVSPropertyOp22
 70
     1
102
RTVSPropertyOp23
 70
     1
102
RTVSPropertyOp24
 70
     1
102
RTVSPropertyOp25
 70
     1
102
RTVSPropertyOp26
 70
     1
102
RTVSPropertyOp27
 70
     1
102
RTVSPropertyOp28
 70
     1
102
RTVSPropertyOp29
 70
     1
102
RTVSPropertyOp30
 70
     1
102
RTVSPropertyOp31
 70
     1
102
RTVSPropertyOp32
 70
     1
102
RTVSPropertyOp33
 70
     1
102
RTVSPropertyOp34
 70
     1
102
RTVSPropertyOp35
 70
     1
102
RTVSPropertyOp36
 70
     1
102
RTVSPropertyOp37
 70
     1
102
RTVSPropertyOp38
 70
     1
102
RTVSPropertyOp39
 70
     1
102
RTVSPropertyOp40
 70
     1
102
RTVSPropertyOp41
 70
     1
102
RTVSPropertyOp42
 70
     1
102
RTVSPropertyOp43
 70
     1
102
RTVSPropertyOp44
 70
     1
102
RTVSPropertyOp45
 70
     1
102
RTVSPropertyOp46
 70
     1
102
RTVSPropertyOp47
 70
     1
102
RTVSPropertyOp48
 70
     1
102
RTVSPropertyOp49
 70
     1
102
RTVSPropertyOp50
 70
     1
102
RTVSPropertyOp51
 70
     0
102
RTVSPropertyOp52
 70
     0
102
RTVSPropertyOp53
 70
     1
102
RTVSPropertyOp54
 70
     1
102
RTVSPropertyOp55
 70
     1
102
RTVSPropertyOp56
 70
     1
102
RTVSPropertyOp57
 70
     1
102
RTVSPost2010Prop28
280
     0
102
RTVSPost2010PropOp28
 70
     1
102
RTVSPost2010Prop29
280
     1
102
RTVSPost2010PropOp29
 70
     1
102
RTVSPost2010Prop30
280
     1
102
RTVSPost2010PropOp30
 70
     1
102
RTVSPost2010Prop31
280
     0
102
RTVSPost2010PropOp31
 70
     1
102
RTVSPost2010Prop32
280
     0
102
RTVSPost2010PropOp32
 70
     1
102
RTVSPost2010Prop33
280
     0
102
RTVSPost2010PropOp33
 70
     1
102
RTVSPost2010Prop34
280
     0
102
RTVSPost2010PropOp34
 70
     1
102
RTVSPost2010Prop35
280
     0
102
RTVSPost2010PropOp35
 70
     1
102
RTVSPost2010Prop36
280
     0
102
RTVSPost2010PropOp36
 70
     1
102
RTVSPost2010Prop37
 90
       50
102
RTVSPost2010PropOp37
 70
     1
102
RTVSPost2010Prop38
140
0.0
102
RTVSPost2010PropOp38
 70
     1
102
RTVSPost2010Prop39
140
1.0
102
RTVSPost2010PropOp39
 70
     1
102
RTVSPost2010Prop40
 90
        0
102
RTVSPost2010PropOp40
 70
     1
102
RTVSPost2010Prop41ColorIndex
 90
       18
102
RTVSPost2010Prop41ColorRGB
 90
        0
102
RTVSPost2010PropOp41
 70
     1
102
RTVSPost2010Prop42
 90
       50
102
RTVSPost2010PropOp42
 70
     1
102
RTVSPost2010Prop43
 90
        3
102
RTVSPost2010PropOp43
 70
     1
102
RTVSPost2010Prop44ColorIndex
 90
        5
102
RTVSPost2010Prop44ColorRGB
 90
      255
102
RTVSPost2010PropOp44
 70
     1
102
RTVSPost2010Prop45
280
     0
102
RTVSPost2010PropOp45
 70
     1
102
RTVSPost2010Prop46
 90
       50
102
RTVSPost2010PropOp46
 70
     1
102
RTVSPost2010Prop47
 90
       50
102
RTVSPost2010PropOp47
 70
     1
102
RTVSPost2010Prop48
 90
       50
102
RTVSPost2010PropOp48
 70
     1
102
RTVSPost2010Prop49
280
     0
102
RTVSPost2010PropOp49
 70
     1
102
RTVSPost2010Prop50
 90
       50
102
RTVSPost2010PropOp50
 70
     1
102
RTVSPost2010Prop51ColorIndex
 90
      256
102
RTVSPost2010Prop51ColorRGB
 90
-16777216
102
RTVSPost2010PropOp51
 70
     0
102
RTVSPost2010Prop52
140
1.0
102
RTVSPost2010PropOp52
 70
     0
102
RTVSPost2010Prop53
 90
        2
102
RTVSPost2010PropOp53
 70
     1
102
RTVSPost2010Prop54
  1
strokes_ogs.tif
102
RTVSPost2010PropOp54
 70
     1
102
RTVSPost2010Prop55
280
     0
102
RTVSPost2010PropOp55
 70
     1
102
RTVSPost2010Prop56
140
1.0
102
RTVSPost2010PropOp56
 70
     1
102
RTVSPost2010Prop57
140
1.0
102
RTVSPost2010PropOp57
 70
     1
  0
XRECORD
  5
1E8
102
{ACAD_REACTORS
330
1E7
102
}
330
1E7
100
AcDbXrecord
280
     1
102
RTVSPropertyOp0
 70
     1
102
RTVSPropertyOp1
 70
     1
102
RTVSPropertyOp2
 70
     1
102
RTVSPropertyOp3
 70
     1
102
RTVSPropertyOp4
 70
     1
102
RTVSPropertyOp5
 70
     1
102
RTVSPropertyOp6
 70
     1
102
RTVSPropertyOp7
 70
     1
102
RTVSPropertyOp8
 70
     1
102
RTVSPropertyOp9
 70
     1
102
RTVSPropertyOp10
 70
     1
102
RTVSPropertyOp11
 70
     1
102
RTVSPropertyOp12
 70
     1
102
RTVSPropertyOp13
 70
     1
102
RTVSPropertyOp14
 70
     1
102
RTVSPropertyOp15
 70
     1
102
RTVSPropertyOp16
 70
     1
102
RTVSPropertyOp17
 70
     1
102
RTVSPropertyOp18
 70
     1
102
RTVSPropertyOp19
 70
     1
102
RTVSPropertyOp20
 70
     1
102
RTVSPropertyOp21
 70
     1
102
RTVSPropertyOp22
 70
     1
102
RTVSPropertyOp23
 70
     1
102
RTVSPropertyOp24
 70
     1
102
RTVSPropertyOp25
 70
     1
102
RTVSPropertyOp26
 70
     1
102
RTVSPropertyOp27
 70
     1
102
RTVSPropertyOp28
 70
     1
102
RTVSPropertyOp29
 70
     1
102
RTVSPropertyOp30
 70
     1
102
RTVSPropertyOp31
 70
     1
102
RTVSPropertyOp32
 70
     1
102
RTVSPropertyOp33
 70
     1
102
RTVSPropertyOp34
 70
     1
102
RTVSPropertyOp35
 70
     1
102
RTVSPropertyOp36
 70
     1
102
RTVSPropertyOp37
 70
     1
102
RTVSPropertyOp38
 70
     1
102
RTVSPropertyOp39
 70
     1
102
RTVSPropertyOp40
 70
     1
102
RTVSPropertyOp41
 70
     1
102
RTVSPropertyOp42
 70
     1
102
RTVSPropertyOp43
 70
     1
102
RTVSPropertyOp44
 70
     1
102
RTVSPropertyOp45
 70
     1
102
RTVSPropertyOp46
 70
     1
102
RTVSPropertyOp47
 70
     1
102
RTVSPropertyOp48
 70
     1
102
RTVSPropertyOp49
 70
     1
102
RTVSPropertyOp50
 70
     1
102
RTVSPropertyOp51
 70
     0
102
RTVSPropertyOp52
 70
     0
102
RTVSPropertyOp53
 70
     1
102
RTVSPropertyOp54
 70
     1
102
RTVSPropertyOp55
 70
     1
102
RTVSPropertyOp56
 70
     1
102
RTVSPropertyOp57
 70
     1
102
RTVSPost2010Prop28
280
     0
102
RTVSPost2010PropOp28
 70
     1
102
RTVSPost2010Prop29
280
     1
102
RTVSPost2010PropOp29
 70
     1
102
RTVSPost2010Prop30
280
     1
102
RTVSPost2010PropOp30
 70
     1
102
RTVSPost2010Prop31
280
     0
102
RTVSPost2010PropOp31
 70
     1
102
RTVSPost2010Prop32
280
     0
102
RTVSPost2010PropOp32
 70
     1
102
RTVSPost2010Prop33
280
     0
102
RTVSPost2010PropOp33
 70
     1
102
RTVSPost2010Prop34
280
     0
102
RTVSPost2010PropOp34
 70
     1
102
RTVSPost2010Prop35
280
     0
102
RTVSPost2010PropOp35
 70
     1
102
RTVSPost2010Prop36
280
     0
102
RTVSPost2010PropOp36
 70
     1
102
RTVSPost2010Prop37
 90
       50
102
RTVSPost2010PropOp37
 70
     1
102
RTVSPost2010Prop38
140
0.0
102
RTVSPost2010PropOp38
 70
     1
102
RTVSPost2010Prop39
140
1.0
102
RTVSPost2010PropOp39
 70
     1
102
RTVSPost2010Prop40
 90
        0
102
RTVSPost2010PropOp40
 70
     1
102
RTVSPost2010Prop41ColorIndex
 90
       18
102
RTVSPost2010Prop41ColorRGB
 90
        0
102
RTVSPost2010PropOp41
 70
     1
102
RTVSPost2010Prop42
 90
       50
102
RTVSPost2010PropOp42
 70
     1
102
RTVSPost2010Prop43
 90
        3
102
RTVSPost2010PropOp43
 70
     1
102
RTVSPost2010Prop44ColorIndex
 90
        5
102
RTVSPost2010Prop44ColorRGB
 90
      255
102
RTVSPost2010PropOp44
 70
     1
102
RTVSPost2010Prop45
280
     0
102
RTVSPost2010PropOp45
 70
     1
102
RTVSPost2010Prop46
 90
       50
102
RTVSPost2010PropOp46
 70
     1
102
RTVSPost2010Prop47
 90
       50
102
RTVSPost2010PropOp47
 70
     1
102
RTVSPost2010Prop48
 90
       50
102
RTVSPost2010PropOp48
 70
     1
102
RTVSPost2010Prop49
280
     0
102
RTVSPost2010PropOp49
 70
     1
102
RTVSPost2010Prop50
 90
       50
102
RTVSPost2010PropOp50
 70
     1
102
RTVSPost2010Prop51ColorIndex
 90
      256
102
RTVSPost2010Prop51ColorRGB
 90
-16777216
102
RTVSPost2010PropOp51
 70
     0
102
RTVSPost2010Prop52
140
1.0
102
RTVSPost2010PropOp52
 70
     0
102
RTVSPost2010Prop53
 90
        2
102
RTVSPost2010PropOp53
 70
     1
102
RTVSPost2010Prop54
  1
strokes_ogs.tif
102
RTVSPost2010PropOp54
 70
     1
102
RTVSPost2010Prop55
280
     0
102
RTVSPost2010PropOp55
 70
     1
102
RTVSPost2010Prop56
140
1.0
102
RTVSPost2010PropOp56
 70
     1
102
RTVSPost2010Prop57
140
1.0
102
RTVSPost2010PropOp57
 70
     1
  0
XRECORD
  5
1EE
102
{ACAD_REACTORS
330
1ED
102
}
330
1ED
100
AcDbXrecord
280
     1
102
RTVSPropertyOp0
 70
     1
102
RTVSPropertyOp1
 70
     1
102
RTVSPropertyOp2
 70
     1
102
RTVSPropertyOp3
 70
     1
102
RTVSPropertyOp4
 70
     1
102
RTVSPropertyOp5
 70
     1
102
RTVSPropertyOp6
 70
     1
102
RTVSPropertyOp7
 70
     1
102
RTVSPropertyOp8
 70
     1
102
RTVSPropertyOp9
 70
     1
102
RTVSPropertyOp10
 70
     1
102
RTVSPropertyOp11
 70
     1
102
RTVSPropertyOp12
 70
     1
102
RTVSPropertyOp13
 70
     1
102
RTVSPropertyOp14
 70
     1
102
RTVSPropertyOp15
 70
     1
102
RTVSPropertyOp16
 70
     1
102
RTVSPropertyOp17
 70
     1
102
RTVSPropertyOp18
 70
     1
102
RTVSPropertyOp19
 70
     1
102
RTVSPropertyOp20
 70
     1
102
RTVSPropertyOp21
 70
     1
102
RTVSPropertyOp22
 70
     1
102
RTVSPropertyOp23
 70
     1
102
RTVSPropertyOp24
 70
     1
102
RTVSPropertyOp25
 70
     1
102
RTVSPropertyOp26
 70
     1
102
RTVSPropertyOp27
 70
     1
102
RTVSPropertyOp28
 70
     1
102
RTVSPropertyOp29
 70
     1
102
RTVSPropertyOp30
 70
     1
102
RTVSPropertyOp31
 70
     1
102
RTVSPropertyOp32
 70
     1
102
RTVSPropertyOp33
 70
     1
102
RTVSPropertyOp34
 70
     1
102
RTVSPropertyOp35
 70
     1
102
RTVSPropertyOp36
 70
     1
102
RTVSPropertyOp37
 70
     1
102
RTVSPropertyOp38
 70
     1
102
RTVSPropertyOp39
 70
     1
102
RTVSPropertyOp40
 70
     1
102
RTVSPropertyOp41
 70
     1
102
RTVSPropertyOp42
 70
     1
102
RTVSPropertyOp43
 70
     1
102
RTVSPropertyOp44
 70
     1
102
RTVSPropertyOp45
 70
     1
102
RTVSPropertyOp46
 70
     1
102
RTVSPropertyOp47
 70
     1
102
RTVSPropertyOp48
 70
     1
102
RTVSPropertyOp49
 70
     1
102
RTVSPropertyOp50
 70
     1
102
RTVSPropertyOp51
 70
     0
102
RTVSPropertyOp52
 70
     0
102
RTVSPropertyOp53
 70
     1
102
RTVSPropertyOp54
 70
     1
102
RTVSPropertyOp55
 70
     1
102
RTVSPropertyOp56
 70
     1
102
RTVSPropertyOp57
 70
     1
102
RTVSPost2010Prop28
280
     0
102
RTVSPost2010PropOp28
 70
     1
102
RTVSPost2010Prop29
280
     1
102
RTVSPost2010PropOp29
 70
     1
102
RTVSPost2010Prop30
280
     1
102
RTVSPost2010PropOp30
 70
     1
102
RTVSPost2010Prop31
280
     0
102
RTVSPost2010PropOp31
 70
     1
102
RTVSPost2010Prop32
280
     0
102
RTVSPost2010PropOp32
 70
     1
102
RTVSPost2010Prop33
280
     0
102
RTVSPost2010PropOp33
 70
     1
102
RTVSPost2010Prop34
280
     0
102
RTVSPost2010PropOp34
 70
     1
102
RTVSPost2010Prop35
280
     0
102
RTVSPost2010PropOp35
 70
     1
102
RTVSPost2010Prop36
280
     0
102
RTVSPost2010PropOp36
 70
     1
102
RTVSPost2010Prop37
 90
       50
102
RTVSPost2010PropOp37
 70
     1
102
RTVSPost2010Prop38
140
0.0
102
RTVSPost2010PropOp38
 70
     1
102
RTVSPost2010Prop39
140
1.0
102
RTVSPost2010PropOp39
 70
     1
102
RTVSPost2010Prop40
 90
        0
102
RTVSPost2010PropOp40
 70
     1
102
RTVSPost2010Prop41ColorIndex
 90
       18
102
RTVSPost2010Prop41ColorRGB
 90
        0
102
RTVSPost2010PropOp41
 70
     1
102
RTVSPost2010Prop42
 90
       50
102
RTVSPost2010PropOp42
 70
     1
102
RTVSPost2010Prop43
 90
        3
102
RTVSPost2010PropOp43
 70
     1
102
RTVSPost2010Prop44ColorIndex
 90
        5
102
RTVSPost2010Prop44ColorRGB
 90
      255
102
RTVSPost2010PropOp44
 70
     1
102
RTVSPost2010Prop45
280
     0
102
RTVSPost2010PropOp45
 70
     1
102
RTVSPost2010Prop46
 90
       50
102
RTVSPost2010PropOp46
 70
     1
102
RTVSPost2010Prop47
 90
       50
102
RTVSPost2010PropOp47
 70
     1
102
RTVSPost2010Prop48
 90
       50
102
RTVSPost2010PropOp48
 70
     1
102
RTVSPost2010Prop49
280
     0
102
RTVSPost2010PropOp49
 70
     1
102
RTVSPost2010Prop50
 90
       50
102
RTVSPost2010PropOp50
 70
     1
102
RTVSPost2010Prop51ColorIndex
 90
      256
102
RTVSPost2010Prop51ColorRGB
 90
-16777216
102
RTVSPost2010PropOp51
 70
     0
102
RTVSPost2010Prop52
140
1.0
102
RTVSPost2010PropOp52
 70
     0
102
RTVSPost2010Prop53
 90
        2
102
RTVSPost2010PropOp53
 70
     1
102
RTVSPost2010Prop54
  1
strokes_ogs.tif
102
RTVSPost2010PropOp54
 70
     1
102
RTVSPost2010Prop55
280
     0
102
RTVSPost2010PropOp55
 70
     1
102
RTVSPost2010Prop56
140
1.0
102
RTVSPost2010PropOp56
 70
     1
102
RTVSPost2010Prop57
140
1.0
102
RTVSPost2010PropOp57
 70
     1
  0
XRECORD
  5
202
102
{ACAD_REACTORS
330
201
102
}
330
201
100
AcDbXrecord
280
     1
102
RTVSPropertyOp0
 70
     0
102
RTVSPropertyOp1
 70
     0
102
RTVSPropertyOp2
 70
     0
102
RTVSPropertyOp3
 70
     0
102
RTVSPropertyOp4
 70
     0
102
RTVSPropertyOp5
 70
     0
102
RTVSPropertyOp6
 70
     0
102
RTVSPropertyOp7
 70
     0
102
RTVSPropertyOp8
 70
     0
102
RTVSPropertyOp9
 70
     0
102
RTVSPropertyOp10
 70
     0
102
RTVSPropertyOp11
 70
     0
102
RTVSPropertyOp12
 70
     0
102
RTVSPropertyOp13
 70
     0
102
RTVSPropertyOp14
 70
     2
102
RTVSPropertyOp15
 70
     0
102
RTVSPropertyOp16
 70
     0
102
RTVSPropertyOp17
 70
     0
102
RTVSPropertyOp18
 70
     0
102
RTVSPropertyOp19
 70
     0
102
RTVSPropertyOp20
 70
     0
102
RTVSPropertyOp21
 70
     0
102
RTVSPropertyOp22
 70
     0
102
RTVSPropertyOp23
 70
     0
102
RTVSPropertyOp24
 70
     0
102
RTVSPropertyOp25
 70
     0
102
RTVSPropertyOp26
 70
     0
102
RTVSPropertyOp27
 70
     0
102
RTVSPropertyOp28
 70
     0
102
RTVSPropertyOp29
 70
     0
102
RTVSPropertyOp30
 70
     0
102
RTVSPropertyOp31
 70
     0
102
RTVSPropertyOp32
 70
     0
102
RTVSPropertyOp33
 70
     0
102
RTVSPropertyOp34
 70
     0
102
RTVSPropertyOp35
 70
     0
102
RTVSPropertyOp36
 70
     0
102
RTVSPropertyOp37
 70
     0
102
RTVSPropertyOp38
 70
     0
102
RTVSPropertyOp39
 70
     0
102
RTVSPropertyOp40
 70
     0
102
RTVSPropertyOp41
 70
     0
102
RTVSPropertyOp42
 70
     0
102
RTVSPropertyOp43
 70
     0
102
RTVSPropertyOp44
 70
     0
102
RTVSPropertyOp45
 70
     0
102
RTVSPropertyOp46
 70
     0
102
RTVSPropertyOp47
 70
     0
102
RTVSPropertyOp48
 70
     0
102
RTVSPropertyOp49
 70
     0
102
RTVSPropertyOp50
 70
     0
102
RTVSPropertyOp51
 70
     0
102
RTVSPropertyOp52
 70
     0
102
RTVSPropertyOp53
 70
     0
102
RTVSPropertyOp54
 70
     0
102
RTVSPropertyOp55
 70
     0
102
RTVSPropertyOp56
 70
     0
102
RTVSPropertyOp57
 70
     0
102
RTVSPost2010Prop28
280
     0
102
RTVSPost2010PropOp28
 70
     0
102
RTVSPost2010Prop29
280
     1
102
RTVSPost2010PropOp29
 70
     0
102
RTVSPost2010Prop30
280
     1
102
RTVSPost2010PropOp30
 70
     0
102
RTVSPost2010Prop31
280
     0
102
RTVSPost2010PropOp31
 70
     0
102
RTVSPost2010Prop32
280
     0
102
RTVSPost2010PropOp32
 70
     0
102
RTVSPost2010Prop33
280
     0
102
RTVSPost2010PropOp33
 70
     0
102
RTVSPost2010Prop34
280
     0
102
RTVSPost2010PropOp34
 70
     0
102
RTVSPost2010Prop35
280
     0
102
RTVSPost2010PropOp35
 70
     0
102
RTVSPost2010Prop36
280
     0
102
RTVSPost2010PropOp36
 70
     0
102
RTVSPost2010Prop37
 90
       50
102
RTVSPost2010PropOp37
 70
     0
102
RTVSPost2010Prop38
140
0.0
102
RTVSPost2010PropOp38
 70
     0
102
RTVSPost2010Prop39
140
1.0
102
RTVSPost2010PropOp39
 70
     0
102
RTVSPost2010Prop40
 90
        0
102
RTVSPost2010PropOp40
 70
     0
102
RTVSPost2010Prop41ColorIndex
 90
       18
102
RTVSPost2010Prop41ColorRGB
 90
        0
102
RTVSPost2010PropOp41
 70
     0
102
RTVSPost2010Prop42
 90
       50
102
RTVSPost2010PropOp42
 70
     0
102
RTVSPost2010Prop43
 90
        3
102
RTVSPost2010PropOp43
 70
     0
102
RTVSPost2010Prop44ColorIndex
 90
        5
102
RTVSPost2010Prop44ColorRGB
 90
      255
102
RTVSPost2010PropOp44
 70
     0
102
RTVSPost2010Prop45
280
     0
102
RTVSPost2010PropOp45
 70
     0
102
RTVSPost2010Prop46
 90
       50
102
RTVSPost2010PropOp46
 70
     0
102
RTVSPost2010Prop47
 90
       50
102
RTVSPost2010PropOp47
 70
     0
102
RTVSPost2010Prop48
 90
       50
102
RTVSPost2010PropOp48
 70
     0
102
RTVSPost2010Prop49
280
     0
102
RTVSPost2010PropOp49
 70
     0
102
RTVSPost2010Prop50
 90
       50
102
RTVSPost2010PropOp50
 70
     0
102
RTVSPost2010Prop51ColorIndex
 90
      256
102
RTVSPost2010Prop51ColorRGB
 90
-16777216
102
RTVSPost2010PropOp51
 70
     0
102
RTVSPost2010Prop52
140
1.0
102
RTVSPost2010PropOp52
 70
     0
102
RTVSPost2010Prop53
 90
        2
102
RTVSPost2010PropOp53
 70
     0
102
RTVSPost2010Prop54
  1
strokes_ogs.tif
102
RTVSPost2010PropOp54
 70
     0
102
RTVSPost2010Prop55
280
     0
102
RTVSPost2010PropOp55
 70
     0
102
RTVSPost2010Prop56
140
1.0
102
RTVSPost2010PropOp56
 70
     0
102
RTVSPost2010Prop57
140
1.0
102
RTVSPost2010PropOp57
 70
     0
  0
XRECORD
  5
1FC
102
{ACAD_REACTORS
330
1FB
102
}
330
1FB
100
AcDbXrecord
280
     1
102
RTVSPropertyOp0
 70
     1
102
RTVSPropertyOp1
 70
     1
102
RTVSPropertyOp2
 70
     1
102
RTVSPropertyOp3
 70
     1
102
RTVSPropertyOp4
 70
     1
102
RTVSPropertyOp5
 70
     1
102
RTVSPropertyOp6
 70
     1
102
RTVSPropertyOp7
 70
     1
102
RTVSPropertyOp8
 70
     1
102
RTVSPropertyOp9
 70
     1
102
RTVSPropertyOp10
 70
     1
102
RTVSPropertyOp11
 70
     1
102
RTVSPropertyOp12
 70
     1
102
RTVSPropertyOp13
 70
     1
102
RTVSPropertyOp14
 70
     1
102
RTVSPropertyOp15
 70
     1
102
RTVSPropertyOp16
 70
     1
102
RTVSPropertyOp17
 70
     1
102
RTVSPropertyOp18
 70
     1
102
RTVSPropertyOp19
 70
     1
102
RTVSPropertyOp20
 70
     1
102
RTVSPropertyOp21
 70
     1
102
RTVSPropertyOp22
 70
     1
102
RTVSPropertyOp23
 70
     1
102
RTVSPropertyOp24
 70
     1
102
RTVSPropertyOp25
 70
     1
102
RTVSPropertyOp26
 70
     1
102
RTVSPropertyOp27
 70
     1
102
RTVSPropertyOp28
 70
     1
102
RTVSPropertyOp29
 70
     1
102
RTVSPropertyOp30
 70
     1
102
RTVSPropertyOp31
 70
     1
102
RTVSPropertyOp32
 70
     1
102
RTVSPropertyOp33
 70
     1
102
RTVSPropertyOp34
 70
     1
102
RTVSPropertyOp35
 70
     1
102
RTVSPropertyOp36
 70
     1
102
RTVSPropertyOp37
 70
     1
102
RTVSPropertyOp38
 70
     1
102
RTVSPropertyOp39
 70
     1
102
RTVSPropertyOp40
 70
     1
102
RTVSPropertyOp41
 70
     1
102
RTVSPropertyOp42
 70
     1
102
RTVSPropertyOp43
 70
     1
102
RTVSPropertyOp44
 70
     1
102
RTVSPropertyOp45
 70
     1
102
RTVSPropertyOp46
 70
     1
102
RTVSPropertyOp47
 70
     1
102
RTVSPropertyOp48
 70
     1
102
RTVSPropertyOp49
 70
     1
102
RTVSPropertyOp50
 70
     1
102
RTVSPropertyOp51
 70
     0
102
RTVSPropertyOp52
 70
     0
102
RTVSPropertyOp53
 70
     1
102
RTVSPropertyOp54
 70
     1
102
RTVSPropertyOp55
 70
     1
102
RTVSPropertyOp56
 70
     1
102
RTVSPropertyOp57
 70
     1
102
RTVSPost2010Prop28
280
     0
102
RTVSPost2010PropOp28
 70
     1
102
RTVSPost2010Prop29
280
     1
102
RTVSPost2010PropOp29
 70
     1
102
RTVSPost2010Prop30
280
     1
102
RTVSPost2010PropOp30
 70
     1
102
RTVSPost2010Prop31
280
     0
102
RTVSPost2010PropOp31
 70
     1
102
RTVSPost2010Prop32
280
     0
102
RTVSPost2010PropOp32
 70
     1
102
RTVSPost2010Prop33
280
     0
102
RTVSPost2010PropOp33
 70
     1
102
RTVSPost2010Prop34
280
     0
102
RTVSPost2010PropOp34
 70
     1
102
RTVSPost2010Prop35
280
     0
102
RTVSPost2010PropOp35
 70
     1
102
RTVSPost2010Prop36
280
     0
102
RTVSPost2010PropOp36
 70
     1
102
RTVSPost2010Prop37
 90
       50
102
RTVSPost2010PropOp37
 70
     1
102
RTVSPost2010Prop38
140
0.0
102
RTVSPost2010PropOp38
 70
     1
102
RTVSPost2010Prop39
140
1.0
102
RTVSPost2010PropOp39
 70
     1
102
RTVSPost2010Prop40
 90
        0
102
RTVSPost2010PropOp40
 70
     1
102
RTVSPost2010Prop41ColorIndex
 90
       18
102
RTVSPost2010Prop41ColorRGB
 90
        0
102
RTVSPost2010PropOp41
 70
     1
102
RTVSPost2010Prop42
 90
       50
102
RTVSPost2010PropOp42
 70
     1
102
RTVSPost2010Prop43
 90
        3
102
RTVSPost2010PropOp43
 70
     1
102
RTVSPost2010Prop44ColorIndex
 90
        5
102
RTVSPost2010Prop44ColorRGB
 90
      255
102
RTVSPost2010PropOp44
 70
     1
102
RTVSPost2010Prop45
280
     0
102
RTVSPost2010PropOp45
 70
     1
102
RTVSPost2010Prop46
 90
       50
102
RTVSPost2010PropOp46
 70
     1
102
RTVSPost2010Prop47
 90
       50
102
RTVSPost2010PropOp47
 70
     1
102
RTVSPost2010Prop48
 90
       50
102
RTVSPost2010PropOp48
 70
     1
102
RTVSPost2010Prop49
280
     0
102
RTVSPost2010PropOp49
 70
     1
102
RTVSPost2010Prop50
 90
       50
102
RTVSPost2010PropOp50
 70
     1
102
RTVSPost2010Prop51ColorIndex
 90
      256
102
RTVSPost2010Prop51ColorRGB
 90
-16777216
102
RTVSPost2010PropOp51
 70
     0
102
RTVSPost2010Prop52
140
1.0
102
RTVSPost2010PropOp52
 70
     0
102
RTVSPost2010Prop53
 90
        2
102
RTVSPost2010PropOp53
 70
     1
102
RTVSPost2010Prop54
  1
strokes_ogs.tif
102
RTVSPost2010PropOp54
 70
     1
102
RTVSPost2010Prop55
280
     0
102
RTVSPost2010PropOp55
 70
     1
102
RTVSPost2010Prop56
140
1.0
102
RTVSPost2010PropOp56
 70
     1
102
RTVSPost2010Prop57
140
1.0
102
RTVSPost2010PropOp57
 70
     1
  0
XRECORD
  5
204
102
{ACAD_REACTORS
330
203
102
}
330
203
100
AcDbXrecord
280
     1
102
RTVSPropertyOp0
 70
     0
102
RTVSPropertyOp1
 70
     0
102
RTVSPropertyOp2
 70
     0
102
RTVSPropertyOp3
 70
     0
102
RTVSPropertyOp4
 70
     0
102
RTVSPropertyOp5
 70
     0
102
RTVSPropertyOp6
 70
     0
102
RTVSPropertyOp7
 70
     0
102
RTVSPropertyOp8
 70
     0
102
RTVSPropertyOp9
 70
     0
102
RTVSPropertyOp10
 70
     0
102
RTVSPropertyOp11
 70
     0
102
RTVSPropertyOp12
 70
     0
102
RTVSPropertyOp13
 70
     0
102
RTVSPropertyOp14
 70
     2
102
RTVSPropertyOp15
 70
     0
102
RTVSPropertyOp16
 70
     0
102
RTVSPropertyOp17
 70
     0
102
RTVSPropertyOp18
 70
     0
102
RTVSPropertyOp19
 70
     0
102
RTVSPropertyOp20
 70
     0
102
RTVSPropertyOp21
 70
     0
102
RTVSPropertyOp22
 70
     0
102
RTVSPropertyOp23
 70
     0
102
RTVSPropertyOp24
 70
     0
102
RTVSPropertyOp25
 70
     0
102
RTVSPropertyOp26
 70
     0
102
RTVSPropertyOp27
 70
     0
102
RTVSPropertyOp28
 70
     0
102
RTVSPropertyOp29
 70
     0
102
RTVSPropertyOp30
 70
     0
102
RTVSPropertyOp31
 70
     0
102
RTVSPropertyOp32
 70
     0
102
RTVSPropertyOp33
 70
     0
102
RTVSPropertyOp34
 70
     0
102
RTVSPropertyOp35
 70
     0
102
RTVSPropertyOp36
 70
     0
102
RTVSPropertyOp37
 70
     0
102
RTVSPropertyOp38
 70
     0
102
RTVSPropertyOp39
 70
     0
102
RTVSPropertyOp40
 70
     0
102
RTVSPropertyOp41
 70
     0
102
RTVSPropertyOp42
 70
     0
102
RTVSPropertyOp43
 70
     0
102
RTVSPropertyOp44
 70
     0
102
RTVSPropertyOp45
 70
     0
102
RTVSPropertyOp46
 70
     0
102
RTVSPropertyOp47
 70
     0
102
RTVSPropertyOp48
 70
     0
102
RTVSPropertyOp49
 70
     0
102
RTVSPropertyOp50
 70
     0
102
RTVSPropertyOp51
 70
     0
102
RTVSPropertyOp52
 70
     0
102
RTVSPropertyOp53
 70
     0
102
RTVSPropertyOp54
 70
     0
102
RTVSPropertyOp55
 70
     0
102
RTVSPropertyOp56
 70
     0
102
RTVSPropertyOp57
 70
     0
102
RTVSPost2010Prop28
280
     0
102
RTVSPost2010PropOp28
 70
     0
102
RTVSPost2010Prop29
280
     1
102
RTVSPost2010PropOp29
 70
     0
102
RTVSPost2010Prop30
280
     1
102
RTVSPost2010PropOp30
 70
     0
102
RTVSPost2010Prop31
280
     0
102
RTVSPost2010PropOp31
 70
     0
102
RTVSPost2010Prop32
280
     0
102
RTVSPost2010PropOp32
 70
     0
102
RTVSPost2010Prop33
280
     0
102
RTVSPost2010PropOp33
 70
     0
102
RTVSPost2010Prop34
280
     0
102
RTVSPost2010PropOp34
 70
     0
102
RTVSPost2010Prop35
280
     0
102
RTVSPost2010PropOp35
 70
     0
102
RTVSPost2010Prop36
280
     0
102
RTVSPost2010PropOp36
 70
     0
102
RTVSPost2010Prop37
 90
       50
102
RTVSPost2010PropOp37
 70
     0
102
RTVSPost2010Prop38
140
0.0
102
RTVSPost2010PropOp38
 70
     0
102
RTVSPost2010Prop39
140
1.0
102
RTVSPost2010PropOp39
 70
     0
102
RTVSPost2010Prop40
 90
        0
102
RTVSPost2010PropOp40
 70
     0
102
RTVSPost2010Prop41ColorIndex
 90
       18
102
RTVSPost2010Prop41ColorRGB
 90
        0
102
RTVSPost2010PropOp41
 70
     0
102
RTVSPost2010Prop42
 90
       50
102
RTVSPost2010PropOp42
 70
     0
102
RTVSPost2010Prop43
 90
        3
102
RTVSPost2010PropOp43
 70
     0
102
RTVSPost2010Prop44ColorIndex
 90
        5
102
RTVSPost2010Prop44ColorRGB
 90
      255
102
RTVSPost2010PropOp44
 70
     0
102
RTVSPost2010Prop45
280
     0
102
RTVSPost2010PropOp45
 70
     0
102
RTVSPost2010Prop46
 90
       50
102
RTVSPost2010PropOp46
 70
     0
102
RTVSPost2010Prop47
 90
       50
102
RTVSPost2010PropOp47
 70
     0
102
RTVSPost2010Prop48
 90
       50
102
RTVSPost2010PropOp48
 70
     0
102
RTVSPost2010Prop49
280
     0
102
RTVSPost2010PropOp49
 70
     0
102
RTVSPost2010Prop50
 90
       50
102
RTVSPost2010PropOp50
 70
     0
102
RTVSPost2010Prop51ColorIndex
 90
      256
102
RTVSPost2010Prop51ColorRGB
 90
-16777216
102
RTVSPost2010PropOp51
 70
     0
102
RTVSPost2010Prop52
140
1.0
102
RTVSPost2010PropOp52
 70
     0
102
RTVSPost2010Prop53
 90
        2
102
RTVSPost2010PropOp53
 70
     0
102
RTVSPost2010Prop54
  1
strokes_ogs.tif
102
RTVSPost2010PropOp54
 70
     0
102
RTVSPost2010Prop55
280
     0
102
RTVSPost2010PropOp55
 70
     0
102
RTVSPost2010Prop56
140
1.0
102
RTVSPost2010PropOp56
 70
     0
102
RTVSPost2010Prop57
140
1.0
102
RTVSPost2010PropOp57
 70
     0
  0
XRECORD
  5
1F2
102
{ACAD_REACTORS
330
1F1
102
}
330
1F1
100
AcDbXrecord
280
     1
102
RTVSPropertyOp0
 70
     1
102
RTVSPropertyOp1
 70
     1
102
RTVSPropertyOp2
 70
     1
102
RTVSPropertyOp3
 70
     1
102
RTVSPropertyOp4
 70
     1
102
RTVSPropertyOp5
 70
     1
102
RTVSPropertyOp6
 70
     1
102
RTVSPropertyOp7
 70
     1
102
RTVSPropertyOp8
 70
     1
102
RTVSPropertyOp9
 70
     1
102
RTVSPropertyOp10
 70
     1
102
RTVSPropertyOp11
 70
     1
102
RTVSPropertyOp12
 70
     1
102
RTVSPropertyOp13
 70
     1
102
RTVSPropertyOp14
 70
     1
102
RTVSPropertyOp15
 70
     1
102
RTVSPropertyOp16
 70
     1
102
RTVSPropertyOp17
 70
     1
102
RTVSPropertyOp18
 70
     1
102
RTVSPropertyOp19
 70
     1
102
RTVSPropertyOp20
 70
     1
102
RTVSPropertyOp21
 70
     1
102
RTVSPropertyOp22
 70
     1
102
RTVSPropertyOp23
 70
     1
102
RTVSPropertyOp24
 70
     1
102
RTVSPropertyOp25
 70
     1
102
RTVSPropertyOp26
 70
     1
102
RTVSPropertyOp27
 70
     1
102
RTVSPropertyOp28
 70
     1
102
RTVSPropertyOp29
 70
     1
102
RTVSPropertyOp30
 70
     1
102
RTVSPropertyOp31
 70
     1
102
RTVSPropertyOp32
 70
     1
102
RTVSPropertyOp33
 70
     1
102
RTVSPropertyOp34
 70
     1
102
RTVSPropertyOp35
 70
     1
102
RTVSPropertyOp36
 70
     1
102
RTVSPropertyOp37
 70
     1
102
RTVSPropertyOp38
 70
     1
102
RTVSPropertyOp39
 70
     1
102
RTVSPropertyOp40
 70
     1
102
RTVSPropertyOp41
 70
     1
102
RTVSPropertyOp42
 70
     1
102
RTVSPropertyOp43
 70
     1
102
RTVSPropertyOp44
 70
     1
102
RTVSPropertyOp45
 70
     1
102
RTVSPropertyOp46
 70
     1
102
RTVSPropertyOp47
 70
     1
102
RTVSPropertyOp48
 70
     1
102
RTVSPropertyOp49
 70
     1
102
RTVSPropertyOp50
 70
     1
102
RTVSPropertyOp51
 70
     0
102
RTVSPropertyOp52
 70
     0
102
RTVSPropertyOp53
 70
     1
102
RTVSPropertyOp54
 70
     1
102
RTVSPropertyOp55
 70
     1
102
RTVSPropertyOp56
 70
     1
102
RTVSPropertyOp57
 70
     1
102
RTVSPost2010Prop28
280
     0
102
RTVSPost2010PropOp28
 70
     1
102
RTVSPost2010Prop29
280
     1
102
RTVSPost2010PropOp29
 70
     1
102
RTVSPost2010Prop30
280
     1
102
RTVSPost2010PropOp30
 70
     1
102
RTVSPost2010Prop31
280
     0
102
RTVSPost2010PropOp31
 70
     1
102
RTVSPost2010Prop32
280
     0
102
RTVSPost2010PropOp32
 70
     1
102
RTVSPost2010Prop33
280
     0
102
RTVSPost2010PropOp33
 70
     1
102
RTVSPost2010Prop34
280
     0
102
RTVSPost2010PropOp34
 70
     1
102
RTVSPost2010Prop35
280
     0
102
RTVSPost2010PropOp35
 70
     1
102
RTVSPost2010Prop36
280
     0
102
RTVSPost2010PropOp36
 70
     1
102
RTVSPost2010Prop37
 90
       50
102
RTVSPost2010PropOp37
 70
     1
102
RTVSPost2010Prop38
140
0.0
102
RTVSPost2010PropOp38
 70
     1
102
RTVSPost2010Prop39
140
1.0
102
RTVSPost2010PropOp39
 70
     1
102
RTVSPost2010Prop40
 90
        0
102
RTVSPost2010PropOp40
 70
     1
102
RTVSPost2010Prop41ColorIndex
 90
       18
102
RTVSPost2010Prop41ColorRGB
 90
        0
102
RTVSPost2010PropOp41
 70
     1
102
RTVSPost2010Prop42
 90
       50
102
RTVSPost2010PropOp42
 70
     1
102
RTVSPost2010Prop43
 90
        3
102
RTVSPost2010PropOp43
 70
     1
102
RTVSPost2010Prop44ColorIndex
 90
        5
102
RTVSPost2010Prop44ColorRGB
 90
      255
102
RTVSPost2010PropOp44
 70
     1
102
RTVSPost2010Prop45
280
     0
102
RTVSPost2010PropOp45
 70
     1
102
RTVSPost2010Prop46
 90
       50
102
RTVSPost2010PropOp46
 70
     1
102
RTVSPost2010Prop47
 90
       50
102
RTVSPost2010PropOp47
 70
     1
102
RTVSPost2010Prop48
 90
       50
102
RTVSPost2010PropOp48
 70
     1
102
RTVSPost2010Prop49
280
     0
102
RTVSPost2010PropOp49
 70
     1
102
RTVSPost2010Prop50
 90
       50
102
RTVSPost2010PropOp50
 70
     1
102
RTVSPost2010Prop51ColorIndex
 90
      256
102
RTVSPost2010Prop51ColorRGB
 90
-16777216
102
RTVSPost2010PropOp51
 70
     0
102
RTVSPost2010Prop52
140
1.0
102
RTVSPost2010PropOp52
 70
     0
102
RTVSPost2010Prop53
 90
        2
102
RTVSPost2010PropOp53
 70
     1
102
RTVSPost2010Prop54
  1
strokes_ogs.tif
102
RTVSPost2010PropOp54
 70
     1
102
RTVSPost2010Prop55
280
     0
102
RTVSPost2010PropOp55
 70
     1
102
RTVSPost2010Prop56
140
1.0
102
RTVSPost2010PropOp56
 70
     1
102
RTVSPost2010Prop57
140
1.0
102
RTVSPost2010PropOp57
 70
     1
  0
XRECORD
  5
210
102
{ACAD_REACTORS
330
20F
102
}
330
20F
100
AcDbXrecord
280
     1
102
RTVSPropertyOp0
 70
     1
102
RTVSPropertyOp1
 70
     1
102
RTVSPropertyOp2
 70
     1
102
RTVSPropertyOp3
 70
     1
102
RTVSPropertyOp4
 70
     1
102
RTVSPropertyOp5
 70
     1
102
RTVSPropertyOp6
 70
     1
102
RTVSPropertyOp7
 70
     1
102
RTVSPropertyOp8
 70
     1
102
RTVSPropertyOp9
 70
     1
102
RTVSPropertyOp10
 70
     1
102
RTVSPropertyOp11
 70
     1
102
RTVSPropertyOp12
 70
     1
102
RTVSPropertyOp13
 70
     1
102
RTVSPropertyOp14
 70
     1
102
RTVSPropertyOp15
 70
     1
102
RTVSPropertyOp16
 70
     1
102
RTVSPropertyOp17
 70
     1
102
RTVSPropertyOp18
 70
     1
102
RTVSPropertyOp19
 70
     1
102
RTVSPropertyOp20
 70
     1
102
RTVSPropertyOp21
 70
     1
102
RTVSPropertyOp22
 70
     1
102
RTVSPropertyOp23
 70
     1
102
RTVSPropertyOp24
 70
     1
102
RTVSPropertyOp25
 70
     1
102
RTVSPropertyOp26
 70
     1
102
RTVSPropertyOp27
 70
     1
102
RTVSPropertyOp28
 70
     1
102
RTVSPropertyOp29
 70
     1
102
RTVSPropertyOp30
 70
     1
102
RTVSPropertyOp31
 70
     1
102
RTVSPropertyOp32
 70
     1
102
RTVSPropertyOp33
 70
     1
102
RTVSPropertyOp34
 70
     1
102
RTVSPropertyOp35
 70
     1
102
RTVSPropertyOp36
 70
     1
102
RTVSPropertyOp37
 70
     1
102
RTVSPropertyOp38
 70
     1
102
RTVSPropertyOp39
 70
     1
102
RTVSPropertyOp40
 70
     1
102
RTVSPropertyOp41
 70
     1
102
RTVSPropertyOp42
 70
     1
102
RTVSPropertyOp43
 70
     1
102
RTVSPropertyOp44
 70
     1
102
RTVSPropertyOp45
 70
     1
102
RTVSPropertyOp46
 70
     1
102
RTVSPropertyOp47
 70
     1
102
RTVSPropertyOp48
 70
     1
102
RTVSPropertyOp49
 70
     1
102
RTVSPropertyOp50
 70
     1
102
RTVSPropertyOp51
 70
     0
102
RTVSPropertyOp52
 70
     0
102
RTVSPropertyOp53
 70
     1
102
RTVSPropertyOp54
 70
     1
102
RTVSPropertyOp55
 70
     1
102
RTVSPropertyOp56
 70
     1
102
RTVSPropertyOp57
 70
     1
102
RTVSPost2010Prop28
280
     0
102
RTVSPost2010PropOp28
 70
     1
102
RTVSPost2010Prop29
280
     1
102
RTVSPost2010PropOp29
 70
     1
102
RTVSPost2010Prop30
280
     1
102
RTVSPost2010PropOp30
 70
     1
102
RTVSPost2010Prop31
280
     0
102
RTVSPost2010PropOp31
 70
     1
102
RTVSPost2010Prop32
280
     0
102
RTVSPost2010PropOp32
 70
     1
102
RTVSPost2010Prop33
280
     0
102
RTVSPost2010PropOp33
 70
     1
102
RTVSPost2010Prop34
280
     0
102
RTVSPost2010PropOp34
 70
     1
102
RTVSPost2010Prop35
280
     0
102
RTVSPost2010PropOp35
 70
     1
102
RTVSPost2010Prop36
280
     0
102
RTVSPost2010PropOp36
 70
     1
102
RTVSPost2010Prop37
 90
       50
102
RTVSPost2010PropOp37
 70
     1
102
RTVSPost2010Prop38
140
0.0
102
RTVSPost2010PropOp38
 70
     1
102
RTVSPost2010Prop39
140
1.0
102
RTVSPost2010PropOp39
 70
     1
102
RTVSPost2010Prop40
 90
        0
102
RTVSPost2010PropOp40
 70
     1
102
RTVSPost2010Prop41ColorIndex
 90
       18
102
RTVSPost2010Prop41ColorRGB
 90
        0
102
RTVSPost2010PropOp41
 70
     1
102
RTVSPost2010Prop42
 90
       50
102
RTVSPost2010PropOp42
 70
     1
102
RTVSPost2010Prop43
 90
        3
102
RTVSPost2010PropOp43
 70
     1
102
RTVSPost2010Prop44ColorIndex
 90
        5
102
RTVSPost2010Prop44ColorRGB
 90
      255
102
RTVSPost2010PropOp44
 70
     1
102
RTVSPost2010Prop45
280
     0
102
RTVSPost2010PropOp45
 70
     1
102
RTVSPost2010Prop46
 90
       50
102
RTVSPost2010PropOp46
 70
     1
102
RTVSPost2010Prop47
 90
       50
102
RTVSPost2010PropOp47
 70
     1
102
RTVSPost2010Prop48
 90
       50
102
RTVSPost2010PropOp48
 70
     1
102
RTVSPost2010Prop49
280
     0
102
RTVSPost2010PropOp49
 70
     1
102
RTVSPost2010Prop50
 90
       50
102
RTVSPost2010PropOp50
 70
     1
102
RTVSPost2010Prop51ColorIndex
 90
      256
102
RTVSPost2010Prop51ColorRGB
 90
-16777216
102
RTVSPost2010PropOp51
 70
     0
102
RTVSPost2010Prop52
140
1.0
102
RTVSPost2010PropOp52
 70
     0
102
RTVSPost2010Prop53
 90
        2
102
RTVSPost2010PropOp53
 70
     1
102
RTVSPost2010Prop54
  1
strokes_ogs.tif
102
RTVSPost2010PropOp54
 70
     1
102
RTVSPost2010Prop55
280
     0
102
RTVSPost2010PropOp55
 70
     1
102
RTVSPost2010Prop56
140
1.0
102
RTVSPost2010PropOp56
 70
     1
102
RTVSPost2010Prop57
140
1.0
102
RTVSPost2010PropOp57
 70
     1
  0
XRECORD
  5
20E
102
{ACAD_REACTORS
330
20D
102
}
330
20D
100
AcDbXrecord
280
     1
102
RTVSPropertyOp0
 70
     1
102
RTVSPropertyOp1
 70
     1
102
RTVSPropertyOp2
 70
     1
102
RTVSPropertyOp3
 70
     1
102
RTVSPropertyOp4
 70
     1
102
RTVSPropertyOp5
 70
     1
102
RTVSPropertyOp6
 70
     1
102
RTVSPropertyOp7
 70
     1
102
RTVSPropertyOp8
 70
     1
102
RTVSPropertyOp9
 70
     1
102
RTVSPropertyOp10
 70
     1
102
RTVSPropertyOp11
 70
     1
102
RTVSPropertyOp12
 70
     1
102
RTVSPropertyOp13
 70
     1
102
RTVSPropertyOp14
 70
     1
102
RTVSPropertyOp15
 70
     1
102
RTVSPropertyOp16
 70
     1
102
RTVSPropertyOp17
 70
     1
102
RTVSPropertyOp18
 70
     1
102
RTVSPropertyOp19
 70
     1
102
RTVSPropertyOp20
 70
     1
102
RTVSPropertyOp21
 70
     1
102
RTVSPropertyOp22
 70
     1
102
RTVSPropertyOp23
 70
     1
102
RTVSPropertyOp24
 70
     1
102
RTVSPropertyOp25
 70
     1
102
RTVSPropertyOp26
 70
     1
102
RTVSPropertyOp27
 70
     1
102
RTVSPropertyOp28
 70
     1
102
RTVSPropertyOp29
 70
     1
102
RTVSPropertyOp30
 70
     1
102
RTVSPropertyOp31
 70
     1
102
RTVSPropertyOp32
 70
     1
102
RTVSPropertyOp33
 70
     1
102
RTVSPropertyOp34
 70
     1
102
RTVSPropertyOp35
 70
     1
102
RTVSPropertyOp36
 70
     1
102
RTVSPropertyOp37
 70
     1
102
RTVSPropertyOp38
 70
     1
102
RTVSPropertyOp39
 70
     1
102
RTVSPropertyOp40
 70
     1
102
RTVSPropertyOp41
 70
     1
102
RTVSPropertyOp42
 70
     1
102
RTVSPropertyOp43
 70
     1
102
RTVSPropertyOp44
 70
     1
102
RTVSPropertyOp45
 70
     1
102
RTVSPropertyOp46
 70
     1
102
RTVSPropertyOp47
 70
     1
102
RTVSPropertyOp48
 70
     1
102
RTVSPropertyOp49
 70
     1
102
RTVSPropertyOp50
 70
     1
102
RTVSPropertyOp51
 70
     0
102
RTVSPropertyOp52
 70
     0
102
RTVSPropertyOp53
 70
     1
102
RTVSPropertyOp54
 70
     1
102
RTVSPropertyOp55
 70
     1
102
RTVSPropertyOp56
 70
     1
102
RTVSPropertyOp57
 70
     1
102
RTVSPost2010Prop28
280
     0
102
RTVSPost2010PropOp28
 70
     1
102
RTVSPost2010Prop29
280
     1
102
RTVSPost2010PropOp29
 70
     1
102
RTVSPost2010Prop30
280
     1
102
RTVSPost2010PropOp30
 70
     1
102
RTVSPost2010Prop31
280
     0
102
RTVSPost2010PropOp31
 70
     1
102
RTVSPost2010Prop32
280
     0
102
RTVSPost2010PropOp32
 70
     1
102
RTVSPost2010Prop33
280
     0
102
RTVSPost2010PropOp33
 70
     1
102
RTVSPost2010Prop34
280
     0
102
RTVSPost2010PropOp34
 70
     1
102
RTVSPost2010Prop35
280
     0
102
RTVSPost2010PropOp35
 70
     1
102
RTVSPost2010Prop36
280
     0
102
RTVSPost2010PropOp36
 70
     1
102
RTVSPost2010Prop37
 90
       50
102
RTVSPost2010PropOp37
 70
     1
102
RTVSPost2010Prop38
140
0.0
102
RTVSPost2010PropOp38
 70
     1
102
RTVSPost2010Prop39
140
1.0
102
RTVSPost2010PropOp39
 70
     1
102
RTVSPost2010Prop40
 90
        0
102
RTVSPost2010PropOp40
 70
     1
102
RTVSPost2010Prop41ColorIndex
 90
       18
102
RTVSPost2010Prop41ColorRGB
 90
        0
102
RTVSPost2010PropOp41
 70
     1
102
RTVSPost2010Prop42
 90
       50
102
RTVSPost2010PropOp42
 70
     1
102
RTVSPost2010Prop43
 90
        3
102
RTVSPost2010PropOp43
 70
     1
102
RTVSPost2010Prop44ColorIndex
 90
        5
102
RTVSPost2010Prop44ColorRGB
 90
      255
102
RTVSPost2010PropOp44
 70
     1
102
RTVSPost2010Prop45
280
     0
102
RTVSPost2010PropOp45
 70
     1
102
RTVSPost2010Prop46
 90
       50
102
RTVSPost2010PropOp46
 70
     1
102
RTVSPost2010Prop47
 90
       50
102
RTVSPost2010PropOp47
 70
     1
102
RTVSPost2010Prop48
 90
       50
102
RTVSPost2010PropOp48
 70
     1
102
RTVSPost2010Prop49
280
     0
102
RTVSPost2010PropOp49
 70
     1
102
RTVSPost2010Prop50
 90
       50
102
RTVSPost2010PropOp50
 70
     1
102
RTVSPost2010Prop51ColorIndex
 90
      256
102
RTVSPost2010Prop51ColorRGB
 90
-16777216
102
RTVSPost2010PropOp51
 70
     0
102
RTVSPost2010Prop52
140
1.0
102
RTVSPost2010PropOp52
 70
     0
102
RTVSPost2010Prop53
 90
        2
102
RTVSPost2010PropOp53
 70
     1
102
RTVSPost2010Prop54
  1
strokes_ogs.tif
102
RTVSPost2010PropOp54
 70
     1
102
RTVSPost2010Prop55
280
     0
102
RTVSPost2010PropOp55
 70
     1
102
RTVSPost2010Prop56
140
1.0
102
RTVSPost2010PropOp56
 70
     1
102
RTVSPost2010Prop57
140
1.0
102
RTVSPost2010PropOp57
 70
     1
  0
XRECORD
  5
208
102
{ACAD_REACTORS
330
207
102
}
330
207
100
AcDbXrecord
280
     1
102
RTVSPropertyOp0
 70
     1
102
RTVSPropertyOp1
 70
     1
102
RTVSPropertyOp2
 70
     1
102
RTVSPropertyOp3
 70
     1
102
RTVSPropertyOp4
 70
     1
102
RTVSPropertyOp5
 70
     1
102
RTVSPropertyOp6
 70
     1
102
RTVSPropertyOp7
 70
     1
102
RTVSPropertyOp8
 70
     1
102
RTVSPropertyOp9
 70
     1
102
RTVSPropertyOp10
 70
     1
102
RTVSPropertyOp11
 70
     1
102
RTVSPropertyOp12
 70
     1
102
RTVSPropertyOp13
 70
     1
102
RTVSPropertyOp14
 70
     1
102
RTVSPropertyOp15
 70
     1
102
RTVSPropertyOp16
 70
     1
102
RTVSPropertyOp17
 70
     1
102
RTVSPropertyOp18
 70
     1
102
RTVSPropertyOp19
 70
     1
102
RTVSPropertyOp20
 70
     1
102
RTVSPropertyOp21
 70
     1
102
RTVSPropertyOp22
 70
     1
102
RTVSPropertyOp23
 70
     1
102
RTVSPropertyOp24
 70
     1
102
RTVSPropertyOp25
 70
     1
102
RTVSPropertyOp26
 70
     1
102
RTVSPropertyOp27
 70
     1
102
RTVSPropertyOp28
 70
     1
102
RTVSPropertyOp29
 70
     1
102
RTVSPropertyOp30
 70
     1
102
RTVSPropertyOp31
 70
     1
102
RTVSPropertyOp32
 70
     1
102
RTVSPropertyOp33
 70
     1
102
RTVSPropertyOp34
 70
     1
102
RTVSPropertyOp35
 70
     1
102
RTVSPropertyOp36
 70
     1
102
RTVSPropertyOp37
 70
     1
102
RTVSPropertyOp38
 70
     1
102
RTVSPropertyOp39
 70
     1
102
RTVSPropertyOp40
 70
     1
102
RTVSPropertyOp41
 70
     1
102
RTVSPropertyOp42
 70
     1
102
RTVSPropertyOp43
 70
     1
102
RTVSPropertyOp44
 70
     1
102
RTVSPropertyOp45
 70
     1
102
RTVSPropertyOp46
 70
     1
102
RTVSPropertyOp47
 70
     1
102
RTVSPropertyOp48
 70
     1
102
RTVSPropertyOp49
 70
     1
102
RTVSPropertyOp50
 70
     1
102
RTVSPropertyOp51
 70
     0
102
RTVSPropertyOp52
 70
     0
102
RTVSPropertyOp53
 70
     1
102
RTVSPropertyOp54
 70
     1
102
RTVSPropertyOp55
 70
     1
102
RTVSPropertyOp56
 70
     1
102
RTVSPropertyOp57
 70
     1
102
RTVSPost2010Prop28
280
     0
102
RTVSPost2010PropOp28
 70
     1
102
RTVSPost2010Prop29
280
     1
102
RTVSPost2010PropOp29
 70
     1
102
RTVSPost2010Prop30
280
     1
102
RTVSPost2010PropOp30
 70
     1
102
RTVSPost2010Prop31
280
     0
102
RTVSPost2010PropOp31
 70
     1
102
RTVSPost2010Prop32
280
     0
102
RTVSPost2010PropOp32
 70
     1
102
RTVSPost2010Prop33
280
     0
102
RTVSPost2010PropOp33
 70
     1
102
RTVSPost2010Prop34
280
     0
102
RTVSPost2010PropOp34
 70
     1
102
RTVSPost2010Prop35
280
     0
102
RTVSPost2010PropOp35
 70
     1
102
RTVSPost2010Prop36
280
     0
102
RTVSPost2010PropOp36
 70
     1
102
RTVSPost2010Prop37
 90
       50
102
RTVSPost2010PropOp37
 70
     1
102
RTVSPost2010Prop38
140
0.0
102
RTVSPost2010PropOp38
 70
     1
102
RTVSPost2010Prop39
140
1.0
102
RTVSPost2010PropOp39
 70
     1
102
RTVSPost2010Prop40
 90
        0
102
RTVSPost2010PropOp40
 70
     1
102
RTVSPost2010Prop41ColorIndex
 90
       18
102
RTVSPost2010Prop41ColorRGB
 90
        0
102
RTVSPost2010PropOp41
 70
     1
102
RTVSPost2010Prop42
 90
       50
102
RTVSPost2010PropOp42
 70
     1
102
RTVSPost2010Prop43
 90
        3
102
RTVSPost2010PropOp43
 70
     1
102
RTVSPost2010Prop44ColorIndex
 90
        5
102
RTVSPost2010Prop44ColorRGB
 90
      255
102
RTVSPost2010PropOp44
 70
     1
102
RTVSPost2010Prop45
280
     0
102
RTVSPost2010PropOp45
 70
     1
102
RTVSPost2010Prop46
 90
       50
102
RTVSPost2010PropOp46
 70
     1
102
RTVSPost2010Prop47
 90
       50
102
RTVSPost2010PropOp47
 70
     1
102
RTVSPost2010Prop48
 90
       50
102
RTVSPost2010PropOp48
 70
     1
102
RTVSPost2010Prop49
280
     0
102
RTVSPost2010PropOp49
 70
     1
102
RTVSPost2010Prop50
 90
       50
102
RTVSPost2010PropOp50
 70
     1
102
RTVSPost2010Prop51ColorIndex
 90
      256
102
RTVSPost2010Prop51ColorRGB
 90
-16777216
102
RTVSPost2010PropOp51
 70
     0
102
RTVSPost2010Prop52
140
1.0
102
RTVSPost2010PropOp52
 70
     0
102
RTVSPost2010Prop53
 90
        2
102
RTVSPost2010PropOp53
 70
     1
102
RTVSPost2010Prop54
  1
strokes_ogs.tif
102
RTVSPost2010PropOp54
 70
     1
102
RTVSPost2010Prop55
280
     0
102
RTVSPost2010PropOp55
 70
     1
102
RTVSPost2010Prop56
140
1.0
102
RTVSPost2010PropOp56
 70
     1
102
RTVSPost2010Prop57
140
1.0
102
RTVSPost2010PropOp57
 70
     1
  0
XRECORD
  5
20A
102
{ACAD_REACTORS
330
209
102
}
330
209
100
AcDbXrecord
280
     1
102
RTVSPropertyOp0
 70
     1
102
RTVSPropertyOp1
 70
     1
102
RTVSPropertyOp2
 70
     1
102
RTVSPropertyOp3
 70
     1
102
RTVSPropertyOp4
 70
     1
102
RTVSPropertyOp5
 70
     1
102
RTVSPropertyOp6
 70
     1
102
RTVSPropertyOp7
 70
     1
102
RTVSPropertyOp8
 70
     1
102
RTVSPropertyOp9
 70
     1
102
RTVSPropertyOp10
 70
     1
102
RTVSPropertyOp11
 70
     1
102
RTVSPropertyOp12
 70
     1
102
RTVSPropertyOp13
 70
     1
102
RTVSPropertyOp14
 70
     1
102
RTVSPropertyOp15
 70
     1
102
RTVSPropertyOp16
 70
     1
102
RTVSPropertyOp17
 70
     1
102
RTVSPropertyOp18
 70
     1
102
RTVSPropertyOp19
 70
     1
102
RTVSPropertyOp20
 70
     1
102
RTVSPropertyOp21
 70
     1
102
RTVSPropertyOp22
 70
     1
102
RTVSPropertyOp23
 70
     1
102
RTVSPropertyOp24
 70
     1
102
RTVSPropertyOp25
 70
     1
102
RTVSPropertyOp26
 70
     1
102
RTVSPropertyOp27
 70
     1
102
RTVSPropertyOp28
 70
     1
102
RTVSPropertyOp29
 70
     1
102
RTVSPropertyOp30
 70
     1
102
RTVSPropertyOp31
 70
     1
102
RTVSPropertyOp32
 70
     1
102
RTVSPropertyOp33
 70
     1
102
RTVSPropertyOp34
 70
     1
102
RTVSPropertyOp35
 70
     1
102
RTVSPropertyOp36
 70
     1
102
RTVSPropertyOp37
 70
     1
102
RTVSPropertyOp38
 70
     1
102
RTVSPropertyOp39
 70
     1
102
RTVSPropertyOp40
 70
     1
102
RTVSPropertyOp41
 70
     1
102
RTVSPropertyOp42
 70
     1
102
RTVSPropertyOp43
 70
     1
102
RTVSPropertyOp44
 70
     1
102
RTVSPropertyOp45
 70
     1
102
RTVSPropertyOp46
 70
     1
102
RTVSPropertyOp47
 70
     1
102
RTVSPropertyOp48
 70
     1
102
RTVSPropertyOp49
 70
     1
102
RTVSPropertyOp50
 70
     1
102
RTVSPropertyOp51
 70
     0
102
RTVSPropertyOp52
 70
     0
102
RTVSPropertyOp53
 70
     1
102
RTVSPropertyOp54
 70
     1
102
RTVSPropertyOp55
 70
     1
102
RTVSPropertyOp56
 70
     1
102
RTVSPropertyOp57
 70
     1
102
RTVSPost2010Prop28
280
     0
102
RTVSPost2010PropOp28
 70
     1
102
RTVSPost2010Prop29
280
     1
102
RTVSPost2010PropOp29
 70
     1
102
RTVSPost2010Prop30
280
     1
102
RTVSPost2010PropOp30
 70
     1
102
RTVSPost2010Prop31
280
     0
102
RTVSPost2010PropOp31
 70
     1
102
RTVSPost2010Prop32
280
     0
102
RTVSPost2010PropOp32
 70
     1
102
RTVSPost2010Prop33
280
     0
102
RTVSPost2010PropOp33
 70
     1
102
RTVSPost2010Prop34
280
     0
102
RTVSPost2010PropOp34
 70
     1
102
RTVSPost2010Prop35
280
     0
102
RTVSPost2010PropOp35
 70
     1
102
RTVSPost2010Prop36
280
     0
102
RTVSPost2010PropOp36
 70
     1
102
RTVSPost2010Prop37
 90
       50
102
RTVSPost2010PropOp37
 70
     1
102
RTVSPost2010Prop38
140
0.0
102
RTVSPost2010PropOp38
 70
     1
102
RTVSPost2010Prop39
140
1.0
102
RTVSPost2010PropOp39
 70
     1
102
RTVSPost2010Prop40
 90
        0
102
RTVSPost2010PropOp40
 70
     1
102
RTVSPost2010Prop41ColorIndex
 90
       18
102
RTVSPost2010Prop41ColorRGB
 90
        0
102
RTVSPost2010PropOp41
 70
     1
102
RTVSPost2010Prop42
 90
       50
102
RTVSPost2010PropOp42
 70
     1
102
RTVSPost2010Prop43
 90
        3
102
RTVSPost2010PropOp43
 70
     1
102
RTVSPost2010Prop44ColorIndex
 90
        5
102
RTVSPost2010Prop44ColorRGB
 90
      255
102
RTVSPost2010PropOp44
 70
     1
102
RTVSPost2010Prop45
280
     0
102
RTVSPost2010PropOp45
 70
     1
102
RTVSPost2010Prop46
 90
       50
102
RTVSPost2010PropOp46
 70
     1
102
RTVSPost2010Prop47
 90
       50
102
RTVSPost2010PropOp47
 70
     1
102
RTVSPost2010Prop48
 90
       50
102
RTVSPost2010PropOp48
 70
     1
102
RTVSPost2010Prop49
280
     0
102
RTVSPost2010PropOp49
 70
     1
102
RTVSPost2010Prop50
 90
       50
102
RTVSPost2010PropOp50
 70
     1
102
RTVSPost2010Prop51ColorIndex
 90
      256
102
RTVSPost2010Prop51ColorRGB
 90
-16777216
102
RTVSPost2010PropOp51
 70
     0
102
RTVSPost2010Prop52
140
1.0
102
RTVSPost2010PropOp52
 70
     0
102
RTVSPost2010Prop53
 90
        2
102
RTVSPost2010PropOp53
 70
     1
102
RTVSPost2010Prop54
  1
strokes_ogs.tif
102
RTVSPost2010PropOp54
 70
     1
102
RTVSPost2010Prop55
280
     0
102
RTVSPost2010PropOp55
 70
     1
102
RTVSPost2010Prop56
140
1.0
102
RTVSPost2010PropOp56
 70
     1
102
RTVSPost2010Prop57
140
1.0
102
RTVSPost2010PropOp57
 70
     1
  0
XRECORD
  5
1FA
102
{ACAD_REACTORS
330
1F9
102
}
330
1F9
100
AcDbXrecord
280
     1
102
RTVSPropertyOp0
 70
     1
102
RTVSPropertyOp1
 70
     1
102
RTVSPropertyOp2
 70
     1
102
RTVSPropertyOp3
 70
     1
102
RTVSPropertyOp4
 70
     1
102
RTVSPropertyOp5
 70
     1
102
RTVSPropertyOp6
 70
     1
102
RTVSPropertyOp7
 70
     1
102
RTVSPropertyOp8
 70
     1
102
RTVSPropertyOp9
 70
     1
102
RTVSPropertyOp10
 70
     1
102
RTVSPropertyOp11
 70
     1
102
RTVSPropertyOp12
 70
     1
102
RTVSPropertyOp13
 70
     1
102
RTVSPropertyOp14
 70
     1
102
RTVSPropertyOp15
 70
     1
102
RTVSPropertyOp16
 70
     1
102
RTVSPropertyOp17
 70
     1
102
RTVSPropertyOp18
 70
     1
102
RTVSPropertyOp19
 70
     1
102
RTVSPropertyOp20
 70
     1
102
RTVSPropertyOp21
 70
     1
102
RTVSPropertyOp22
 70
     1
102
RTVSPropertyOp23
 70
     1
102
RTVSPropertyOp24
 70
     1
102
RTVSPropertyOp25
 70
     1
102
RTVSPropertyOp26
 70
     1
102
RTVSPropertyOp27
 70
     1
102
RTVSPropertyOp28
 70
     1
102
RTVSPropertyOp29
 70
     1
102
RTVSPropertyOp30
 70
     1
102
RTVSPropertyOp31
 70
     1
102
RTVSPropertyOp32
 70
     1
102
RTVSPropertyOp33
 70
     1
102
RTVSPropertyOp34
 70
     1
102
RTVSPropertyOp35
 70
     1
102
RTVSPropertyOp36
 70
     1
102
RTVSPropertyOp37
 70
     1
102
RTVSPropertyOp38
 70
     1
102
RTVSPropertyOp39
 70
     1
102
RTVSPropertyOp40
 70
     1
102
RTVSPropertyOp41
 70
     1
102
RTVSPropertyOp42
 70
     1
102
RTVSPropertyOp43
 70
     1
102
RTVSPropertyOp44
 70
     1
102
RTVSPropertyOp45
 70
     1
102
RTVSPropertyOp46
 70
     1
102
RTVSPropertyOp47
 70
     1
102
RTVSPropertyOp48
 70
     1
102
RTVSPropertyOp49
 70
     1
102
RTVSPropertyOp50
 70
     1
102
RTVSPropertyOp51
 70
     0
102
RTVSPropertyOp52
 70
     0
102
RTVSPropertyOp53
 70
     1
102
RTVSPropertyOp54
 70
     1
102
RTVSPropertyOp55
 70
     1
102
RTVSPropertyOp56
 70
     1
102
RTVSPropertyOp57
 70
     1
102
RTVSPost2010Prop28
280
     0
102
RTVSPost2010PropOp28
 70
     1
102
RTVSPost2010Prop29
280
     1
102
RTVSPost2010PropOp29
 70
     1
102
RTVSPost2010Prop30
280
     1
102
RTVSPost2010PropOp30
 70
     1
102
RTVSPost2010Prop31
280
     0
102
RTVSPost2010PropOp31
 70
     1
102
RTVSPost2010Prop32
280
     0
102
RTVSPost2010PropOp32
 70
     1
102
RTVSPost2010Prop33
280
     0
102
RTVSPost2010PropOp33
 70
     1
102
RTVSPost2010Prop34
280
     0
102
RTVSPost2010PropOp34
 70
     1
102
RTVSPost2010Prop35
280
     0
102
RTVSPost2010PropOp35
 70
     1
102
RTVSPost2010Prop36
280
     0
102
RTVSPost2010PropOp36
 70
     1
102
RTVSPost2010Prop37
 90
       50
102
RTVSPost2010PropOp37
 70
     1
102
RTVSPost2010Prop38
140
0.0
102
RTVSPost2010PropOp38
 70
     1
102
RTVSPost2010Prop39
140
1.0
102
RTVSPost2010PropOp39
 70
     1
102
RTVSPost2010Prop40
 90
        0
102
RTVSPost2010PropOp40
 70
     1
102
RTVSPost2010Prop41ColorIndex
 90
       18
102
RTVSPost2010Prop41ColorRGB
 90
        0
102
RTVSPost2010PropOp41
 70
     1
102
RTVSPost2010Prop42
 90
       50
102
RTVSPost2010PropOp42
 70
     1
102
RTVSPost2010Prop43
 90
        3
102
RTVSPost2010PropOp43
 70
     1
102
RTVSPost2010Prop44ColorIndex
 90
        5
102
RTVSPost2010Prop44ColorRGB
 90
      255
102
RTVSPost2010PropOp44
 70
     1
102
RTVSPost2010Prop45
280
     0
102
RTVSPost2010PropOp45
 70
     1
102
RTVSPost2010Prop46
 90
       50
102
RTVSPost2010PropOp46
 70
     1
102
RTVSPost2010Prop47
 90
       50
102
RTVSPost2010PropOp47
 70
     1
102
RTVSPost2010Prop48
 90
       50
102
RTVSPost2010PropOp48
 70
     1
102
RTVSPost2010Prop49
280
     0
102
RTVSPost2010PropOp49
 70
     1
102
RTVSPost2010Prop50
 90
       50
102
RTVSPost2010PropOp50
 70
     1
102
RTVSPost2010Prop51ColorIndex
 90
      256
102
RTVSPost2010Prop51ColorRGB
 90
-16777216
102
RTVSPost2010PropOp51
 70
     0
102
RTVSPost2010Prop52
140
1.0
102
RTVSPost2010PropOp52
 70
     0
102
RTVSPost2010Prop53
 90
        2
102
RTVSPost2010PropOp53
 70
     1
102
RTVSPost2010Prop54
  1
strokes_ogs.tif
102
RTVSPost2010PropOp54
 70
     1
102
RTVSPost2010Prop55
280
     0
102
RTVSPost2010PropOp55
 70
     1
102
RTVSPost2010Prop56
140
1.0
102
RTVSPost2010PropOp56
 70
     1
102
RTVSPost2010Prop57
140
1.0
102
RTVSPost2010PropOp57
 70
     1
  0
XRECORD
  5
1EC
102
{ACAD_REACTORS
330
1EB
102
}
330
1EB
100
AcDbXrecord
280
     1
102
RTVSPropertyOp0
 70
     1
102
RTVSPropertyOp1
 70
     1
102
RTVSPropertyOp2
 70
     1
102
RTVSPropertyOp3
 70
     1
102
RTVSPropertyOp4
 70
     1
102
RTVSPropertyOp5
 70
     1
102
RTVSPropertyOp6
 70
     1
102
RTVSPropertyOp7
 70
     1
102
RTVSPropertyOp8
 70
     1
102
RTVSPropertyOp9
 70
     1
102
RTVSPropertyOp10
 70
     1
102
RTVSPropertyOp11
 70
     1
102
RTVSPropertyOp12
 70
     1
102
RTVSPropertyOp13
 70
     1
102
RTVSPropertyOp14
 70
     1
102
RTVSPropertyOp15
 70
     1
102
RTVSPropertyOp16
 70
     1
102
RTVSPropertyOp17
 70
     1
102
RTVSPropertyOp18
 70
     1
102
RTVSPropertyOp19
 70
     1
102
RTVSPropertyOp20
 70
     1
102
RTVSPropertyOp21
 70
     1
102
RTVSPropertyOp22
 70
     1
102
RTVSPropertyOp23
 70
     1
102
RTVSPropertyOp24
 70
     1
102
RTVSPropertyOp25
 70
     1
102
RTVSPropertyOp26
 70
     1
102
RTVSPropertyOp27
 70
     1
102
RTVSPropertyOp28
 70
     1
102
RTVSPropertyOp29
 70
     1
102
RTVSPropertyOp30
 70
     1
102
RTVSPropertyOp31
 70
     1
102
RTVSPropertyOp32
 70
     1
102
RTVSPropertyOp33
 70
     1
102
RTVSPropertyOp34
 70
     1
102
RTVSPropertyOp35
 70
     1
102
RTVSPropertyOp36
 70
     1
102
RTVSPropertyOp37
 70
     1
102
RTVSPropertyOp38
 70
     1
102
RTVSPropertyOp39
 70
     1
102
RTVSPropertyOp40
 70
     1
102
RTVSPropertyOp41
 70
     1
102
RTVSPropertyOp42
 70
     1
102
RTVSPropertyOp43
 70
     1
102
RTVSPropertyOp44
 70
     1
102
RTVSPropertyOp45
 70
     1
102
RTVSPropertyOp46
 70
     1
102
RTVSPropertyOp47
 70
     1
102
RTVSPropertyOp48
 70
     1
102
RTVSPropertyOp49
 70
     1
102
RTVSPropertyOp50
 70
     1
102
RTVSPropertyOp51
 70
     0
102
RTVSPropertyOp52
 70
     0
102
RTVSPropertyOp53
 70
     1
102
RTVSPropertyOp54
 70
     1
102
RTVSPropertyOp55
 70
     1
102
RTVSPropertyOp56
 70
     1
102
RTVSPropertyOp57
 70
     1
102
RTVSPost2010Prop28
280
     0
102
RTVSPost2010PropOp28
 70
     1
102
RTVSPost2010Prop29
280
     1
102
RTVSPost2010PropOp29
 70
     1
102
RTVSPost2010Prop30
280
     1
102
RTVSPost2010PropOp30
 70
     1
102
RTVSPost2010Prop31
280
     0
102
RTVSPost2010PropOp31
 70
     1
102
RTVSPost2010Prop32
280
     0
102
RTVSPost2010PropOp32
 70
     1
102
RTVSPost2010Prop33
280
     0
102
RTVSPost2010PropOp33
 70
     1
102
RTVSPost2010Prop34
280
     0
102
RTVSPost2010PropOp34
 70
     1
102
RTVSPost2010Prop35
280
     0
102
RTVSPost2010PropOp35
 70
     1
102
RTVSPost2010Prop36
280
     0
102
RTVSPost2010PropOp36
 70
     1
102
RTVSPost2010Prop37
 90
       50
102
RTVSPost2010PropOp37
 70
     1
102
RTVSPost2010Prop38
140
0.0
102
RTVSPost2010PropOp38
 70
     1
102
RTVSPost2010Prop39
140
1.0
102
RTVSPost2010PropOp39
 70
     1
102
RTVSPost2010Prop40
 90
        0
102
RTVSPost2010PropOp40
 70
     1
102
RTVSPost2010Prop41ColorIndex
 90
       18
102
RTVSPost2010Prop41ColorRGB
 90
        0
102
RTVSPost2010PropOp41
 70
     1
102
RTVSPost2010Prop42
 90
       50
102
RTVSPost2010PropOp42
 70
     1
102
RTVSPost2010Prop43
 90
        3
102
RTVSPost2010PropOp43
 70
     1
102
RTVSPost2010Prop44ColorIndex
 90
        5
102
RTVSPost2010Prop44ColorRGB
 90
      255
102
RTVSPost2010PropOp44
 70
     1
102
RTVSPost2010Prop45
280
     0
102
RTVSPost2010PropOp45
 70
     1
102
RTVSPost2010Prop46
 90
       50
102
RTVSPost2010PropOp46
 70
     1
102
RTVSPost2010Prop47
 90
       50
102
RTVSPost2010PropOp47
 70
     1
102
RTVSPost2010Prop48
 90
       50
102
RTVSPost2010PropOp48
 70
     1
102
RTVSPost2010Prop49
280
     0
102
RTVSPost2010PropOp49
 70
     1
102
RTVSPost2010Prop50
 90
       50
102
RTVSPost2010PropOp50
 70
     1
102
RTVSPost2010Prop51ColorIndex
 90
      256
102
RTVSPost2010Prop51ColorRGB
 90
-16777216
102
RTVSPost2010PropOp51
 70
     0
102
RTVSPost2010Prop52
140
1.0
102
RTVSPost2010PropOp52
 70
     0
102
RTVSPost2010Prop53
 90
        2
102
RTVSPost2010PropOp53
 70
     1
102
RTVSPost2010Prop54
  1
strokes_ogs.tif
102
RTVSPost2010PropOp54
 70
     1
102
RTVSPost2010Prop55
280
     0
102
RTVSPost2010PropOp55
 70
     1
102
RTVSPost2010Prop56
140
1.0
102
RTVSPost2010PropOp56
 70
     1
102
RTVSPost2010Prop57
140
1.0
102
RTVSPost2010PropOp57
 70
     1
  0
XRECORD
  5
20C
102
{ACAD_REACTORS
330
20B
102
}
330
20B
100
AcDbXrecord
280
     1
102
RTVSPropertyOp0
 70
     1
102
RTVSPropertyOp1
 70
     1
102
RTVSPropertyOp2
 70
     1
102
RTVSPropertyOp3
 70
     1
102
RTVSPropertyOp4
 70
     1
102
RTVSPropertyOp5
 70
     1
102
RTVSPropertyOp6
 70
     1
102
RTVSPropertyOp7
 70
     1
102
RTVSPropertyOp8
 70
     1
102
RTVSPropertyOp9
 70
     1
102
RTVSPropertyOp10
 70
     1
102
RTVSPropertyOp11
 70
     1
102
RTVSPropertyOp12
 70
     1
102
RTVSPropertyOp13
 70
     1
102
RTVSPropertyOp14
 70
     1
102
RTVSPropertyOp15
 70
     1
102
RTVSPropertyOp16
 70
     1
102
RTVSPropertyOp17
 70
     1
102
RTVSPropertyOp18
 70
     1
102
RTVSPropertyOp19
 70
     1
102
RTVSPropertyOp20
 70
     1
102
RTVSPropertyOp21
 70
     1
102
RTVSPropertyOp22
 70
     1
102
RTVSPropertyOp23
 70
     1
102
RTVSPropertyOp24
 70
     1
102
RTVSPropertyOp25
 70
     1
102
RTVSPropertyOp26
 70
     1
102
RTVSPropertyOp27
 70
     1
102
RTVSPropertyOp28
 70
     1
102
RTVSPropertyOp29
 70
     1
102
RTVSPropertyOp30
 70
     1
102
RTVSPropertyOp31
 70
     1
102
RTVSPropertyOp32
 70
     1
102
RTVSPropertyOp33
 70
     1
102
RTVSPropertyOp34
 70
     1
102
RTVSPropertyOp35
 70
     1
102
RTVSPropertyOp36
 70
     1
102
RTVSPropertyOp37
 70
     1
102
RTVSPropertyOp38
 70
     1
102
RTVSPropertyOp39
 70
     1
102
RTVSPropertyOp40
 70
     1
102
RTVSPropertyOp41
 70
     1
102
RTVSPropertyOp42
 70
     1
102
RTVSPropertyOp43
 70
     1
102
RTVSPropertyOp44
 70
     1
102
RTVSPropertyOp45
 70
     1
102
RTVSPropertyOp46
 70
     1
102
RTVSPropertyOp47
 70
     1
102
RTVSPropertyOp48
 70
     1
102
RTVSPropertyOp49
 70
     1
102
RTVSPropertyOp50
 70
     1
102
RTVSPropertyOp51
 70
     0
102
RTVSPropertyOp52
 70
     0
102
RTVSPropertyOp53
 70
     1
102
RTVSPropertyOp54
 70
     1
102
RTVSPropertyOp55
 70
     1
102
RTVSPropertyOp56
 70
     1
102
RTVSPropertyOp57
 70
     1
102
RTVSPost2010Prop28
280
     0
102
RTVSPost2010PropOp28
 70
     1
102
RTVSPost2010Prop29
280
     1
102
RTVSPost2010PropOp29
 70
     1
102
RTVSPost2010Prop30
280
     1
102
RTVSPost2010PropOp30
 70
     1
102
RTVSPost2010Prop31
280
     0
102
RTVSPost2010PropOp31
 70
     1
102
RTVSPost2010Prop32
280
     0
102
RTVSPost2010PropOp32
 70
     1
102
RTVSPost2010Prop33
280
     0
102
RTVSPost2010PropOp33
 70
     1
102
RTVSPost2010Prop34
280
     0
102
RTVSPost2010PropOp34
 70
     1
102
RTVSPost2010Prop35
280
     0
102
RTVSPost2010PropOp35
 70
     1
102
RTVSPost2010Prop36
280
     0
102
RTVSPost2010PropOp36
 70
     1
102
RTVSPost2010Prop37
 90
       50
102
RTVSPost2010PropOp37
 70
     1
102
RTVSPost2010Prop38
140
0.0
102
RTVSPost2010PropOp38
 70
     1
102
RTVSPost2010Prop39
140
1.0
102
RTVSPost2010PropOp39
 70
     1
102
RTVSPost2010Prop40
 90
        0
102
RTVSPost2010PropOp40
 70
     1
102
RTVSPost2010Prop41ColorIndex
 90
       18
102
RTVSPost2010Prop41ColorRGB
 90
        0
102
RTVSPost2010PropOp41
 70
     1
102
RTVSPost2010Prop42
 90
       50
102
RTVSPost2010PropOp42
 70
     1
102
RTVSPost2010Prop43
 90
        3
102
RTVSPost2010PropOp43
 70
     1
102
RTVSPost2010Prop44ColorIndex
 90
        5
102
RTVSPost2010Prop44ColorRGB
 90
      255
102
RTVSPost2010PropOp44
 70
     1
102
RTVSPost2010Prop45
280
     0
102
RTVSPost2010PropOp45
 70
     1
102
RTVSPost2010Prop46
 90
       50
102
RTVSPost2010PropOp46
 70
     1
102
RTVSPost2010Prop47
 90
       50
102
RTVSPost2010PropOp47
 70
     1
102
RTVSPost2010Prop48
 90
       50
102
RTVSPost2010PropOp48
 70
     1
102
RTVSPost2010Prop49
280
     0
102
RTVSPost2010PropOp49
 70
     1
102
RTVSPost2010Prop50
 90
       50
102
RTVSPost2010PropOp50
 70
     1
102
RTVSPost2010Prop51ColorIndex
 90
      256
102
RTVSPost2010Prop51ColorRGB
 90
-16777216
102
RTVSPost2010PropOp51
 70
     0
102
RTVSPost2010Prop52
140
1.0
102
RTVSPost2010PropOp52
 70
     0
102
RTVSPost2010Prop53
 90
        2
102
RTVSPost2010PropOp53
 70
     1
102
RTVSPost2010Prop54
  1
strokes_ogs.tif
102
RTVSPost2010PropOp54
 70
     1
102
RTVSPost2010Prop55
280
     0
102
RTVSPost2010PropOp55
 70
     1
102
RTVSPost2010Prop56
140
1.0
102
RTVSPost2010PropOp56
 70
     1
102
RTVSPost2010Prop57
140
1.0
102
RTVSPost2010PropOp57
 70
     1
  0
ENDSEC
  0
EOF
