  0
SECTION
  2
HEADER
  9
$ACADVER
  1
AC1014
  9
$ACADMAINTVER
 70
         0
  9
$DWGCODEPAGE
  3
BIG5
  9
$INSBASE
 10
0.0
 20
0.0
 30
0.0
  9
$EXTMIN
 10
-34.6579590513
 20
-365.8922643753
 30
0.0
  9
$EXTMAX
 10
397.1773250083
 20
-149.6025643753
 30
0.0
  9
$LIMMIN
 10
0.0
 20
0.0
  9
$LIMMAX
 10
0.0
 20
0.0
  9
$ORTHOMODE
 70
         0
  9
$REGENMODE
 70
         1
  9
$FILLMODE
 70
         1
  9
$QTEXTMODE
 70
         0
  9
$MIRRTEXT
 70
         1
  9
$DRAGMODE
 70
         2
  9
$LTSCALE
 40
1.0
  9
$OSMODE
 70
         0
  9
$ATTMODE
 70
         1
  9
$TEXTSIZE
 40
3.5
  9
$TRACEWID
 40
0.05
  9
$TEXTSTYLE
  7
STANDARD
  9
$CLAYER
  8
0
  9
$CELTYPE
  6
CONTINUOUS
  9
$CECOLOR
 62
         4
  9
$CELTSCALE
 40
1.0
  9
$DELOBJ
 70
         1
  9
$DISPSILH
 70
         0
  9
$DIMSCALE
 40
1.0
  9
$DIMASZ
 40
0.18
  9
$DIMEXO
 40
0.0625
  9
$DIMDLI
 40
0.38
  9
$DIMRND
 40
0.0
  9
$DIMDLE
 40
0.0
  9
$DIMEXE
 40
0.25
  9
$DIMTP
 40
0.01
  9
$DIMTM
 40
-0.01
  9
$DIMTXT
 40
3.5
  9
$DIMCEN
 40
0.09
  9
$DIMTSZ
 40
0.0
  9
$DIMTOL
 70
         0
  9
$DIMLIM
 70
         0
  9
$DIMTIH
 70
         1
  9
$DIMTOH
 70
         1
  9
$DIMSE1
 70
         0
  9
$DIMSE2
 70
         0
  9
$DIMTAD
 70
         0
  9
$DIMZIN
 70
         0
  9
$DIMBLK
  1

  9
$DIMASO
 70
         1
  9
$DIMSHO
 70
         1
  9
$DIMPOST
  1

  9
$DIMAPOST
  1

  9
$DIMALT
 70
         0
  9
$DIMALTD
 70
         2
  9
$DIMALTF
 40
25.4
  9
$DIMLFAC
 40
1.0
  9
$DIMTOFL
 70
         0
  9
$DIMTVP
 40
0.0
  9
$DIMTIX
 70
         0
  9
$DIMSOXD
 70
         0
  9
$DIMSAH
 70
         0
  9
$DIMBLK1
  1

  9
$DIMBLK2
  1

  9
$DIMSTYLE
  2
STANDARD
  9
$DIMCLRD
 70
         0
  9
$DIMCLRE
 70
         0
  9
$DIMCLRT
 70
         4
  9
$DIMTFAC
 40
0.6
  9
$DIMGAP
 40
0.09
  9
$DIMJUST
 70
         0
  9
$DIMSD1
 70
         0
  9
$DIMSD2
 70
         0
  9
$DIMTOLJ
 70
         1
  9
$DIMTZIN
 70
         0
  9
$DIMALTZ
 70
         0
  9
$DIMALTTZ
 70
         0
  9
$DIMFIT
 70
         3
  9
$DIMUPT
 70
         0
  9
$DIMUNIT
 70
         2
  9
$DIMDEC
 70
         4
  9
$DIMTDEC
 70
         4
  9
$DIMALTU
 70
         2
  9
$DIMALTTD
 70
         2
  9
$DIMTXSTY
  7
STANDARD
  9
$DIMAUNIT
 70
         0
  9
$LUNITS
 70
         2
  9
$LUPREC
 70
        10
  9
$SKETCHINC
 40
0.1
  9
$FILLETRAD
 40
0.0
  9
$AUNITS
 70
         0
  9
$AUPREC
 70
         0
  9
$MENU
  1
acad
  9
$ELEVATION
 40
0.0
  9
$PELEVATION
 40
0.0
  9
$THICKNESS
 40
0.0
  9
$LIMCHECK
 70
         0
  9
$BLIPMODE
 70
         1
  9
$CHAMFERA
 40
0.0
  9
$CHAMFERB
 40
0.0
  9
$CHAMFERC
 40
0.0
  9
$CHAMFERD
 40
0.0
  9
$SKPOLY
 70
         0
  9
$TDCREATE
 40
0.000000000
  9
$TDUPDATE
 40
0.000000000
  9
$TDINDWG
 40
0.0000000000
  9
$TDUSRTIMER
 40
0.0000000000
  9
$USRTIMER
 70
         1
  9
$ANGBASE
 50
0.0
  9
$ANGDIR
 70
         0
  9
$PDMODE
 70
         2
  9
$PDSIZE
 40
0.0
  9
$PLINEWID
 40
0.0
  9
$COORDS
 70
         0
  9
$SPLFRAME
 70
         0
  9
$SPLINETYPE
 70
         6
  9
$SPLINESEGS
 70
         8
  9
$ATTDIA
 70
         0
  9
$ATTREQ
 70
         1
  9
$HANDLING
 70
         1
  9
$HANDSEED
  5
A0F
  9
$SURFTAB1
 70
         6
  9
$SURFTAB2
 70
         6
  9
$SURFTYPE
 70
         6
  9
$SURFU
 70
         6
  9
$SURFV
 70
         6
  9
$UCSNAME
  2

  9
$UCSORG
 10
0.0
 20
0.0
 30
0.0
  9
$UCSXDIR
 10
1.0
 20
0.0
 30
0.0
  9
$UCSYDIR
 10
0.0
 20
1.0
 30
0.0
  9
$PUCSNAME
  2

  9
$PUCSORG
 10
0.0
 20
0.0
 30
0.0
  9
$PUCSXDIR
 10
1.0
 20
0.0
 30
0.0
  9
$PUCSYDIR
 10
0.0
 20
1.0
 30
0.0
  9
$USERI1
 70
         0
  9
$USERI2
 70
         0
  9
$USERI3
 70
         0
  9
$USERI4
 70
         0
  9
$USERI5
 70
         0
  9
$USERR1
 40
0.0
  9
$USERR2
 40
0.0
  9
$USERR3
 40
0.0
  9
$USERR4
 40
0.0
  9
$USERR5
 40
0.0
  9
$WORLDVIEW
 70
         1
  9
$SHADEDGE
 70
         3
  9
$SHADEDIF
 70
        70
  9
$TILEMODE
 70
         1
  9
$MAXACTVP
 70
        16
  9
$PINSBASE
 10
0.0
 20
0.0
 30
0.0
  9
$PLIMCHECK
 70
         0
  9
$PEXTMIN
 10
1.0000000000E+20
 20
1.0000000000E+20
 30
1.0000000000E+20
  9
$PEXTMAX
 10
-1.0000000000E+20
 20
-1.0000000000E+20
 30
-1.0000000000E+20
  9
$PLIMMIN
 10
0.0
 20
0.0
  9
$PLIMMAX
 10
12.0
 20
9.0
  9
$UNITMODE
 70
         0
  9
$VISRETAIN
 70
         0
  9
$PLINEGEN
 70
         1
  9
$PSLTSCALE
 70
         0
  9
$TREEDEPTH
 70
      3020
  9
$PICKSTYLE
 70
         1
  9
$CMLSTYLE
  2
STANDARD
  9
$CMLJUST
 70
         0
  9
$CMLSCALE
 40
1.0
  9
$PROXYGRAPHICS
 70
         0
  9
$MEASUREMENT
 70
         0
  0
ENDSEC
  0
SECTION
  2
CLASSES
  0
CLASS
  1
LWPOLYLINE
  2
AcDbPolyline
  3
"AutoCAD"
 90
        0
280
         0
281
         1
  0
CLASS
  1
IMAGE
  2
AcDbRasterImage
  3
ISM
 90
      127
280
         0
281
         1
  0
CLASS
  1
OLE2FRAME
  2
AcDbOle2Frame
  3
""
 90
        0
280
         0
281
         1
  0
CLASS
  1
HATCH
  2
AcDbHatch
  3
"ACAD_SEDONA"
 90
        0
280
         0
281
         1
  0
CLASS
  1
DICTIONARYVAR
  2
AcDbDictionaryVar
  3
"AutoCAD"
 90
        0
280
         0
281
         0
  0
CLASS
  1
RASTERVARIABLES
  2
AcDbRasterVariables
  3
ISM
 90
        0
280
         0
281
         0
  0
CLASS
  1
IMAGEDEF
  2
AcDbRasterImageDef
  3
ISM
 90
        0
280
         0
281
         0
  0
CLASS
  1
IMAGEDEF_REACTOR
  2
AcDbRasterImageDefReactor
  3
ISM
 90
        1
280
         0
281
         0
  0
CLASS
  1
IDBUFFER
  2
AcDbIdBuffer
  3
"Acad"
 90
        0
280
         0
281
         0
  0
CLASS
  1
SPATIAL_FILTER
  2
AcDbSpatialFilter
  3
"Acad"
 90
        0
280
         0
281
         0
  0
CLASS
  1
XRECORD
  2
AcDbXrecord
  3
"<Built In>"
 90
        0
280
         0
281
         0
  0
CLASS
  1
SORTENTSTABLE
  2
AcDbSortentsTable
  3
"AutoCAD"
 90
        0
280
         0
281
         0
  0
CLASS
  1
LAYER_INDEX
  2
AcDbLayerIndex
  3
"Acad"
 90
        0
280
         0
281
         0
  0
CLASS
  1
SPATIAL_INDEX
  2
AcDbSpatialIndex
  3
"Acad"
 90
        0
280
         0
281
         0
  0
CLASS
  1
OBJECT_PTR
  2
CAseDLPNTableRecord
  3
"ASE-LPNTableRecord"
 90
        1
280
         0
281
         0
  0
CLASS
  1
LAYOUT
  2
AcDbLayout
  3
"AutoCAD 2000"
 90
        1
280
         0
281
         0
  0
CLASS
  1
PLOTSETTINGS
  2
AcDbPlotSettings
  3
"AutoCAD 2000"
 90
        1
280
         0
281
         0
  0
CLASS
  1
ACDBDICTIONARYWDFLT
  2
AcDbDictionaryWithDefault
  3
"AutoCAD 2000"
 90
        1
280
         0
281
         0
  0
CLASS
  1
ACDBPLACEHOLDER
  2
AcDbPlaceHolder
  3
"AutoCAD 2000"
 90
        1
280
         0
281
         0
  0
CLASS
  1
VBA_PROJECT
  2
AcDbVbaProject
  3
"acadvba"
 90
        1
280
         0
281
         0
  0
CLASS
  1
WIPEOUT
  2
AcDbWipeout
  3
WipeOut|AutoCAD Express Tool|expresstools@autodesk.com
 90
      127
280
         0
281
         1
  0
CLASS
  1
WIPEOUTVARIABLES
  2
AcDbWipeoutVariables
  3
WipeOut|AutoCAD Express Tool|expresstools@autodesk.com
 90
        0
280
         0
281
         0
  0
CLASS
  1
RTEXT
  2
RText
  3
RText|AutoCAD Express Tool|expresstools@autodesk.com
 90
        0
280
         0
281
         1
  0
CLASS
  1
ARCALIGNEDTEXT
  2
AcDbArcAlignedText
  3
ATEXT|AutoCAD Express Tool|expresstools@autodesk.com
 90
        0
280
         0
281
         1
  0
ENDSEC
  0
SECTION
  2
TABLES
  0
TABLE
  2
VPORT
  5
7
100
AcDbSymbolTable
 70
         1
  0
VPORT
  5
15
100
AcDbSymbolTableRecord
100
AcDbViewportTableRecord
  2
*ACTIVE
 70
         0
 10
0.0
 20
0.0
 11
1.0
 21
1.0
 12
181.2596829785
 22
-257.7474143753
 13
0.0
 23
0.0
 14
1.0
 24
1.0
 15
0.0
 25
0.0
 16
0.0
 26
0.0
 36
1.0
 17
0.0
 27
0.0
 37
0.0
 40
216.2897
 41
1.996559633
 42
50.0
 43
0.0
 44
0.0
 50
0.0
 51
0.0
 71
         0
 72
       100
 73
         1
 74
         1
 75
         0
 76
         0
 77
         0
 78
         0
  0
ENDTAB
  0
TABLE
  2
LTYPE
  5
4
100
AcDbSymbolTable
 70
         6
  0
LTYPE
  5
11
100
AcDbSymbolTableRecord
100
AcDbLinetypeTableRecord
  2
BYBLOCK
 70
        64
  3

 72
        65
 73
         0
 40
0.0
  0
LTYPE
  5
12
100
AcDbSymbolTableRecord
100
AcDbLinetypeTableRecord
  2
BYLAYER
 70
        64
  3

 72
        65
 73
         0
 40
0.0
  0
LTYPE
  5
13
100
AcDbSymbolTableRecord
100
AcDbLinetypeTableRecord
  2
CONTINUOUS
 70
        64
  3
Solid line
 72
        65
 73
         0
 40
0.0
  0
LTYPE
  5
1D
100
AcDbSymbolTableRecord
100
AcDbLinetypeTableRecord
  2
DASHED
 70
        64
  3
_ _ _ _ _ _ _ _ _ _ _ _ _ _ _ _
 72
        65
 73
         2
 40
0.2
 49
0.1
 74
         0
 49
-0.1
 74
         0
  0
LTYPE
  5
1E
100
AcDbSymbolTableRecord
100
AcDbLinetypeTableRecord
  2
CENTER
 70
        64
  3
___ _ ___ _ ___ _ ___ _ ___ _ ___ _ ___ _ ___ _
 72
        65
 73
         4
 40
0.95
 49
0.625
 74
         0
 49
-0.125
 74
         0
 49
0.075
 74
         0
 49
-0.125
 74
         0
  0
LTYPE
  5
1F
100
AcDbSymbolTableRecord
100
AcDbLinetypeTableRecord
  2
PHANTOM
 70
        64
  3
______  __  __  ______  __  __  ______  __  __  
 72
        65
 73
         6
 40
1.025
 49
0.625
 74
         0
 49
-0.125
 74
         0
 49
0.075
 74
         0
 49
-0.125
 74
         0
 49
0.075
 74
         0
 49
-0.125
 74
         0
  0
ENDTAB
  0
TABLE
  2
LAYER
  5
2
100
AcDbSymbolTable
 70
         3
  0
LAYER
  5
14
100
AcDbSymbolTableRecord
100
AcDbLayerTableRecord
  2
0
 70
         0
 62
         7
  6
CONTINUOUS
  0
LAYER
  5
21
100
AcDbSymbolTableRecord
100
AcDbLayerTableRecord
  2
CK_LEVEL_1
 70
         0
 62
         7
  6
CONTINUOUS
  0
LAYER
  5
11A
100
AcDbSymbolTableRecord
100
AcDbLayerTableRecord
  2
DEFPOINTS
 70
         0
 62
        -7
  6
CONTINUOUS
  0
ENDTAB
  0
TABLE
  2
STYLE
  5
3
100
AcDbSymbolTable
 70
        12
  0
STYLE
  5
17
100
AcDbSymbolTableRecord
100
AcDbTextStyleTableRecord
  2
STANDARD
 70
         0
 40
0.0
 41
1.0
 50
0.0
 71
         0
 42
0.0
  3
txt
  4

  0
STYLE
  5
22
100
AcDbSymbolTableRecord
100
AcDbTextStyleTableRecord
  2
BOX
 70
         0
 40
1.0
 41
1.0
 50
0.0
 71
         0
 42
0.2
  3
txt.shx
  4

  0
STYLE
  5
A4
100
AcDbSymbolTableRecord
100
AcDbTextStyleTableRecord
  2
BOX
 70
         0
 40
1.0
 41
1.0
 50
0.0
 71
         0
 42
0.2
  3
txt.shx
  4

  0
STYLE
  5
A6
100
AcDbSymbolTableRecord
100
AcDbTextStyleTableRecord
  2
BOX
 70
         0
 40
1.0
 41
1.0
 50
0.0
 71
         0
 42
0.2
  3
txt.shx
  4

  0
STYLE
  5
A8
100
AcDbSymbolTableRecord
100
AcDbTextStyleTableRecord
  2
BOX
 70
         0
 40
1.0
 41
1.0
 50
0.0
 71
         0
 42
0.2
  3
txt.shx
  4

  0
STYLE
  5
AA
100
AcDbSymbolTableRecord
100
AcDbTextStyleTableRecord
  2
BOX
 70
         0
 40
1.0
 41
1.0
 50
0.0
 71
         0
 42
0.2
  3
txt.shx
  4

  0
STYLE
  5
AC
100
AcDbSymbolTableRecord
100
AcDbTextStyleTableRecord
  2
BOX
 70
         0
 40
1.0
 41
1.0
 50
0.0
 71
         0
 42
0.2
  3
txt.shx
  4

  0
STYLE
  5
112
100
AcDbSymbolTableRecord
100
AcDbTextStyleTableRecord
  2
BOX
 70
         0
 40
1.0
 41
1.0
 50
0.0
 71
         0
 42
0.2
  3
txt.shx
  4

  0
STYLE
  5
114
100
AcDbSymbolTableRecord
100
AcDbTextStyleTableRecord
  2
BOX
 70
         0
 40
1.0
 41
1.0
 50
0.0
 71
         0
 42
0.2
  3
txt.shx
  4

  0
STYLE
  5
123
100
AcDbSymbolTableRecord
100
AcDbTextStyleTableRecord
  2
BOX
 70
         0
 40
1.0
 41
1.0
 50
0.0
 71
         0
 42
0.2
  3
txt.shx
  4

  0
STYLE
  5
132
100
AcDbSymbolTableRecord
100
AcDbTextStyleTableRecord
  2
BOX
 70
         0
 40
1.0
 41
1.0
 50
0.0
 71
         0
 42
0.2
  3
txt.shx
  4

  0
STYLE
  5
A0C
100
AcDbSymbolTableRecord
100
AcDbTextStyleTableRecord
  2
BOX
 70
         0
 40
1.0
 41
1.0
 50
0.0
 71
         0
 42
0.2
  3
txt.shx
  4

  0
ENDTAB
  0
TABLE
  2
VIEW
  5
5
100
AcDbSymbolTable
 70
         0
  0
ENDTAB
  0
TABLE
  2
UCS
  5
6
100
AcDbSymbolTable
 70
         1
  0
UCS
  5
20
100
AcDbSymbolTableRecord
100
AcDbUCSTableRecord
  2
CK_VIEW_1
 70
         0
 10
0.0
 20
0.0
 30
1.0
 11
1.0
 21
0.0
 31
0.0
 12
0.0
 22
1.0
 32
0.0
  0
ENDTAB
  0
TABLE
  2
APPID
  5
8
100
AcDbSymbolTable
 70
         1
  0
APPID
  5
16
100
AcDbSymbolTableRecord
100
AcDbRegAppTableRecord
  2
ACAD
 70
         0
  0
ENDTAB
  0
TABLE
  2
DIMSTYLE
  5
9
100
AcDbSymbolTable
 70
         2
  0
DIMSTYLE
105
18
100
AcDbSymbolTableRecord
100
AcDbDimStyleTableRecord
  2
STANDARD
 70
         0
  3

  4

  5

  6

  7

 40
1.0
 41
0.18
 42
0.0625
 43
0.38
 44
0.18
 45
0.0
 46
0.0
 47
0.0
 48
0.0
 71
         0
 72
         0
 73
         1
 74
         1
 75
         0
 76
         0
 77
         0
 78
         0
140
0.18
141
0.09
142
0.0
143
25.4
144
1.0
145
0.0
146
1.0
147
0.09
170
         0
171
         2
172
         0
173
         0
174
         0
175
         0
176
         0
177
         0
178
         0
270
         2
271
         4
272
         4
273
         2
274
         2
275
         0
280
         0
281
         0
282
         0
283
         1
284
         0
285
         0
286
         0
287
         0
288
         0
340
17
  0
DIMSTYLE
105
116
100
AcDbSymbolTableRecord
100
AcDbDimStyleTableRecord
  2
DIMSTYLE1
 70
         0
  3

  4

  5

  6

  7

 40
1.0
 41
3.5
 42
0.0625
 43
0.38
 44
3.5
 45
0.0
 46
0.0
 47
0.0
 48
0.0
 71
         0
 72
         0
 73
         1
 74
         1
 75
         0
 76
         0
 77
         0
 78
         0
140
3.5
141
0.09
142
0.0
143
25.4
144
1.0
145
0.0
146
1.0
147
0.09
170
         0
171
         2
172
         0
173
         0
174
         0
175
         0
176
         0
177
         0
178
         0
270
         2
271
         4
272
         4
273
         2
274
         2
275
         0
280
         0
281
         0
282
         0
283
         1
284
         0
285
         0
286
         0
287
         0
288
         0
340
17
  0
ENDTAB
  0
TABLE
  2
BLOCK_RECORD
  5
1
100
AcDbSymbolTable
 70
         3
  0
BLOCK_RECORD
  5
A
100
AcDbSymbolTableRecord
100
AcDbBlockTableRecord
  2
*MODEL_SPACE
  0
BLOCK_RECORD
  5
B
100
AcDbSymbolTableRecord
100
AcDbBlockTableRecord
  2
*PAPER_SPACE
  0
BLOCK_RECORD
  5
117
100
AcDbSymbolTableRecord
100
AcDbBlockTableRecord
  2
*D0
  0
BLOCK_RECORD
  5
127
100
AcDbSymbolTableRecord
100
AcDbBlockTableRecord
  2
*D1
  0
BLOCK_RECORD
  5
A00
100
AcDbSymbolTableRecord
100
AcDbBlockTableRecord
  2
*D2
  0
ENDTAB
  0
ENDSEC
  0
SECTION
  2
BLOCKS
  0
BLOCK
  5
D
100
AcDbEntity
  8
0
100
AcDbBlockBegin
  2
*MODEL_SPACE
 70
         0
 10
0.0
 20
0.0
 30
0.0
  3
*MODEL_SPACE
  1

  0
ENDBLK
  5
E
100
AcDbEntity
  8
0
100
AcDbBlockEnd
  0
BLOCK
  5
F
100
AcDbEntity
 67
         1
  8
0
100
AcDbBlockBegin
  2
*PAPER_SPACE
 70
         0
 10
0.0
 20
0.0
 30
0.0
  3
*PAPER_SPACE
  1

  0
ENDBLK
  5
10
100
AcDbEntity
 67
         1
  8
0
100
AcDbBlockEnd
  0
BLOCK
  5
118
100
AcDbEntity
  8
0
100
AcDbBlockBegin
  2
*D0
 70
        65
 10
0.0
 20
0.0
 30
0.0
  3
*D0
  1

  0
POINT
  5
11B
100
AcDbEntity
  8
DEFPOINTS
  6
CONTINUOUS
 62
         0
100
AcDbPoint
 10
71.1225168374
 20
-230.2838799
 30
0.0
  0
POINT
  5
11C
100
AcDbEntity
  8
DEFPOINTS
  6
CONTINUOUS
 62
         0
100
AcDbPoint
 10
118.8154784018
 20
-230.2838799
 30
0.0
  0
POINT
  5
11D
100
AcDbEntity
  8
DEFPOINTS
  6
CONTINUOUS
 62
         0
100
AcDbPoint
 10
118.8154784018
 20
-293.2838799
 30
0.0
  0
LINE
  5
11E
100
AcDbEntity
  8
CK_LEVEL_1
  6
CONTINUOUS
 62
         4
100
AcDbLine
 10
117.0654784018
 20
-230.2838799
 30
0.0
 11
70.2475168374
 21
-230.2838799
 31
0.0
  0
LINE
  5
11F
100
AcDbEntity
  8
CK_LEVEL_1
  6
CONTINUOUS
 62
         4
100
AcDbLine
 10
117.0654784018
 20
-293.2838799
 30
0.0
 11
70.2475168374
 21
-293.2838799
 31
0.0
  0
LINE
  5
120
100
AcDbEntity
  8
CK_LEVEL_1
  6
CONTINUOUS
 62
         4
100
AcDbLine
 10
71.1225168374
 20
-230.2838799
 30
0.0
 11
71.1225168374
 21
-293.2838799
 31
0.0
  0
SOLID
  5
121
100
AcDbEntity
  8
CK_LEVEL_1
  6
CONTINUOUS
 62
         4
100
AcDbTrace
 10
71.1225168374
 20
-230.2838799
 30
0.0
 11
71.6475168374
 21
-233.7838799
 31
0.0
 12
70.5975168374
 22
-233.7838799
 32
0.0
 13
71.1225168374
 23
-230.2838799
 33
0.0
  0
SOLID
  5
122
100
AcDbEntity
  8
CK_LEVEL_1
  6
CONTINUOUS
 62
         4
100
AcDbTrace
 10
71.1225168374
 20
-293.2838799
 30
0.0
 11
70.5975168374
 21
-289.7838799
 31
0.0
 12
71.6475168374
 22
-289.7838799
 32
0.0
 13
71.1225168374
 23
-293.2838799
 33
0.0
  0
TEXT
  5
124
100
AcDbEntity
  8
CK_LEVEL_1
  6
CONTINUOUS
 62
         4
100
AcDbText
 10
68.4975168374
 20
-268.7838799
 30
0.0
 40
3.5
  1
%%c63
 50
90.0
  7
BOX
100
AcDbText
  0
ENDBLK
  5
125
100
AcDbEntity
  8
0
  6
CONTINUOUS
100
AcDbBlockEnd
  0
BLOCK
  5
128
100
AcDbEntity
  8
0
100
AcDbBlockBegin
  2
*D1
 70
        65
 10
0.0
 20
0.0
 30
0.0
  3
*D1
  1

  0
POINT
  5
12A
100
AcDbEntity
  8
DEFPOINTS
  6
CONTINUOUS
 62
         0
100
AcDbPoint
 10
86.8154784018
 20
-216.7915759859
 30
0.0
  0
POINT
  5
12B
100
AcDbEntity
  8
DEFPOINTS
  6
CONTINUOUS
 62
         0
100
AcDbPoint
 10
86.8154784018
 20
-239.0664406873
 30
0.0
  0
POINT
  5
12C
100
AcDbEntity
  8
DEFPOINTS
  6
CONTINUOUS
 62
         0
100
AcDbPoint
 10
118.8154784018
 20
-230.2838799
 30
0.0
  0
LINE
  5
12D
100
AcDbEntity
  8
CK_LEVEL_1
  6
CONTINUOUS
 62
         4
100
AcDbLine
 10
86.8154784018
 20
-237.3164406873
 30
0.0
 11
86.8154784018
 21
-215.9165759859
 31
0.0
  0
LINE
  5
12E
100
AcDbEntity
  8
CK_LEVEL_1
  6
CONTINUOUS
 62
         4
100
AcDbLine
 10
118.8154784018
 20
-228.5338799
 30
0.0
 11
118.8154784018
 21
-215.9165759859
 31
0.0
  0
LINE
  5
12F
100
AcDbEntity
  8
CK_LEVEL_1
  6
CONTINUOUS
 62
         4
100
AcDbLine
 10
86.8154784018
 20
-216.7915759859
 30
0.0
 11
118.8154784018
 21
-216.7915759859
 31
0.0
  0
SOLID
  5
130
100
AcDbEntity
  8
CK_LEVEL_1
  6
CONTINUOUS
 62
         4
100
AcDbTrace
 10
86.8154784018
 20
-216.7915759859
 30
0.0
 11
90.3154784018
 21
-216.2665759859
 31
0.0
 12
90.3154784018
 22
-217.3165759859
 32
0.0
 13
86.8154784018
 23
-216.7915759859
 33
0.0
  0
SOLID
  5
131
100
AcDbEntity
  8
CK_LEVEL_1
  6
CONTINUOUS
 62
         4
100
AcDbTrace
 10
118.8154784018
 20
-216.7915759859
 30
0.0
 11
115.3154784018
 21
-217.3165759859
 31
0.0
 12
115.3154784018
 22
-216.2665759859
 32
0.0
 13
118.8154784018
 23
-216.7915759859
 33
0.0
  0
TEXT
  5
133
100
AcDbEntity
  8
CK_LEVEL_1
  6
CONTINUOUS
 62
         4
100
AcDbText
 10
99.3154784018
 20
-214.1665759859
 30
0.0
 40
3.5
  1
32
  7
BOX
100
AcDbText
  0
ENDBLK
  5
134
100
AcDbEntity
  8
0
  6
CONTINUOUS
100
AcDbBlockEnd
  0
BLOCK
  5
A01
100
AcDbEntity
  8
0
100
AcDbBlockBegin
  2
*D2
 70
        65
 10
0.0
 20
0.0
 30
0.0
  3
*D2
  1

  0
POINT
  5
A03
100
AcDbEntity
  8
DEFPOINTS
  6
CONTINUOUS
 62
         0
100
AcDbPoint
 10
194.6472070173
 20
-247.7838799
 30
0.0
  0
POINT
  5
A04
100
AcDbEntity
  8
DEFPOINTS
  6
CONTINUOUS
 62
         0
100
AcDbPoint
 10
188.8154784018
 20
-247.7838799
 30
0.0
  0
POINT
  5
A05
100
AcDbEntity
  8
DEFPOINTS
  6
CONTINUOUS
 62
         0
100
AcDbPoint
 10
188.8154784018
 20
-275.7838799
 30
0.0
  0
LINE
  5
A06
100
AcDbEntity
  8
CK_LEVEL_1
  6
CONTINUOUS
 62
         4
100
AcDbLine
 10
190.5654784018
 20
-247.7838799
 30
0.0
 11
195.5222070173
 21
-247.7838799
 31
0.0
  0
LINE
  5
A07
100
AcDbEntity
  8
CK_LEVEL_1
  6
CONTINUOUS
 62
         4
100
AcDbLine
 10
190.5654784018
 20
-275.7838799
 30
0.0
 11
195.5222070173
 21
-275.7838799
 31
0.0
  0
LINE
  5
A08
100
AcDbEntity
  8
CK_LEVEL_1
  6
CONTINUOUS
 62
         4
100
AcDbLine
 10
194.6472070173
 20
-247.7838799
 30
0.0
 11
194.6472070173
 21
-275.7838799
 31
0.0
  0
SOLID
  5
A09
100
AcDbEntity
  8
CK_LEVEL_1
  6
CONTINUOUS
 62
         4
100
AcDbTrace
 10
194.6472070173
 20
-247.7838799
 30
0.0
 11
195.1722070173
 21
-251.2838799
 31
0.0
 12
194.1222070173
 22
-251.2838799
 32
0.0
 13
194.6472070173
 23
-247.7838799
 33
0.0
  0
LINE
  5
A0A
100
AcDbEntity
  8
CK_LEVEL_1
  6
CONTINUOUS
 62
         4
100
AcDbLine
 10
194.6472070173
 20
-247.7838799
 30
0.0
 11
194.6472070173
 21
-227.2690743209
 31
0.0
  0
SOLID
  5
A0B
100
AcDbEntity
  8
CK_LEVEL_1
  6
CONTINUOUS
 62
         4
100
AcDbTrace
 10
194.6472070173
 20
-275.7838799
 30
0.0
 11
194.1222070173
 21
-272.2838799
 31
0.0
 12
195.1722070173
 22
-272.2838799
 32
0.0
 13
194.6472070173
 23
-275.7838799
 33
0.0
  0
TEXT
  5
A0D
100
AcDbEntity
  8
CK_LEVEL_1
  6
CONTINUOUS
 62
         4
100
AcDbText
 10
192.0222070173
 20
-243.0190743209
 30
0.0
 40
3.5
  1
%%c28
 50
90.0
  7
BOX
100
AcDbText
  0
ENDBLK
  5
A0E
100
AcDbEntity
  8
0
  6
CONTINUOUS
100
AcDbBlockEnd
  0
ENDSEC
  0
SECTION
  2
ENTITIES
  0
TEXT
  5
23
100
AcDbEntity
  8
CK_LEVEL_1
  6
CONTINUOUS
 62
         4
100
AcDbText
 10
221.7607126317
 20
-326.6472171785
 30
0.0
 40
5.415
  1
Copyright Kemmler Praezisionswerkzeuge GmbH
 41
0.4
  7
BOX
100
AcDbText
  0
POLYLINE
  5
25
100
AcDbEntity
  8
CK_LEVEL_1
  6
CONTINUOUS
 62
         3
100
AcDb3dPolyline
 66
         1
 10
0.0
 20
0.0
 30
0.0
 70
         8
  0
VERTEX
  5
27
100
AcDbEntity
  8
CK_LEVEL_1
  6
CONTINUOUS
 62
         3
100
AcDbVertex
100
AcDb3dPolylineVertex
 10
224.926885949
 20
-316.9297093816
 30
0.0
 70
        32
  0
VERTEX
  5
29
100
AcDbEntity
  8
CK_LEVEL_1
  6
CONTINUOUS
 62
         3
100
AcDbVertex
100
AcDb3dPolylineVertex
 10
228.9049428304
 20
-316.9297093816
 30
0.0
 70
        32
  0
VERTEX
  5
2B
100
AcDbEntity
  8
CK_LEVEL_1
  6
CONTINUOUS
 62
         3
100
AcDbVertex
100
AcDb3dPolylineVertex
 10
228.9049428304
 20
-303.5536509609
 30
0.0
 70
        32
  0
VERTEX
  5
2D
100
AcDbEntity
  8
CK_LEVEL_1
  6
CONTINUOUS
 62
         3
100
AcDbVertex
100
AcDb3dPolylineVertex
 10
224.926885949
 20
-303.5536509609
 30
0.0
 70
        32
  0
VERTEX
  5
2F
100
AcDbEntity
  8
CK_LEVEL_1
  6
CONTINUOUS
 62
         3
100
AcDbVertex
100
AcDb3dPolylineVertex
 10
224.926885949
 20
-316.9297093816
 30
0.0
 70
        32
  0
VERTEX
  5
31
100
AcDbEntity
  8
CK_LEVEL_1
  6
CONTINUOUS
 62
         3
100
AcDbVertex
100
AcDb3dPolylineVertex
 10
224.926885949
 20
-316.9297093816
 30
0.0
 70
        32
  0
SEQEND
  5
33
100
AcDbEntity
  8
CK_LEVEL_1
  6
CONTINUOUS
 62
         3
  0
POLYLINE
  5
35
100
AcDbEntity
  8
CK_LEVEL_1
  6
CONTINUOUS
 62
         3
100
AcDb3dPolyline
 66
         1
 10
0.0
 20
0.0
 30
0.0
 70
         8
  0
VERTEX
  5
37
100
AcDbEntity
  8
CK_LEVEL_1
  6
CONTINUOUS
 62
         3
100
AcDbVertex
100
AcDb3dPolylineVertex
 10
226.8402532673
 20
-309.2070169093
 30
0.0
 70
        32
  0
VERTEX
  5
39
100
AcDbEntity
  8
CK_LEVEL_1
  6
CONTINUOUS
 62
         3
100
AcDbVertex
100
AcDb3dPolylineVertex
 10
233.2676604444
 20
-309.2063544864
 30
0.0
 70
        32
  0
VERTEX
  5
3B
100
AcDbEntity
  8
CK_LEVEL_1
  6
CONTINUOUS
 62
         3
100
AcDbVertex
100
AcDb3dPolylineVertex
 10
233.0030638733
 20
-309.6711269956
 30
0.0
 70
        32
  0
VERTEX
  5
3D
100
AcDbEntity
  8
CK_LEVEL_1
  6
CONTINUOUS
 62
         3
100
AcDbVertex
100
AcDb3dPolylineVertex
 10
233.2551986124
 20
-310.1949379512
 30
0.0
 70
        32
  0
VERTEX
  5
3F
100
AcDbEntity
  8
CK_LEVEL_1
  6
CONTINUOUS
 62
         3
100
AcDbVertex
100
AcDb3dPolylineVertex
 10
226.8402532673
 20
-310.1931990909
 30
0.0
 70
        32
  0
VERTEX
  5
41
100
AcDbEntity
  8
CK_LEVEL_1
  6
CONTINUOUS
 62
         3
100
AcDbVertex
100
AcDb3dPolylineVertex
 10
226.8402532673
 20
-309.2070169093
 30
0.0
 70
        32
  0
VERTEX
  5
43
100
AcDbEntity
  8
CK_LEVEL_1
  6
CONTINUOUS
 62
         3
100
AcDbVertex
100
AcDb3dPolylineVertex
 10
226.8402532673
 20
-309.2070169093
 30
0.0
 70
        32
  0
SEQEND
  5
45
100
AcDbEntity
  8
CK_LEVEL_1
  6
CONTINUOUS
 62
         3
  0
POLYLINE
  5
47
100
AcDbEntity
  8
CK_LEVEL_1
  6
CONTINUOUS
 62
         3
100
AcDb3dPolyline
 66
         1
 10
0.0
 20
0.0
 30
0.0
 70
         8
  0
VERTEX
  5
49
100
AcDbEntity
  8
CK_LEVEL_1
  6
CONTINUOUS
 62
         3
100
AcDbVertex
100
AcDb3dPolylineVertex
 10
232.4523833865
 20
-303.5538165666
 30
0.0
 70
        32
  0
VERTEX
  5
4B
100
AcDbEntity
  8
CK_LEVEL_1
  6
CONTINUOUS
 62
         3
100
AcDbVertex
100
AcDb3dPolylineVertex
 10
229.6110029028
 20
-308.5169377908
 30
0.0
 70
        32
  0
VERTEX
  5
4D
100
AcDbEntity
  8
CK_LEVEL_1
  6
CONTINUOUS
 62
         3
100
AcDbVertex
100
AcDb3dPolylineVertex
 10
233.6529421984
 20
-308.5169377908
 30
0.0
 70
        32
  0
VERTEX
  5
4F
100
AcDbEntity
  8
CK_LEVEL_1
  6
CONTINUOUS
 62
         3
100
AcDbVertex
100
AcDb3dPolylineVertex
 10
236.5419343323
 20
-303.5538165666
 30
0.0
 70
        32
  0
VERTEX
  5
51
100
AcDbEntity
  8
CK_LEVEL_1
  6
CONTINUOUS
 62
         3
100
AcDbVertex
100
AcDb3dPolylineVertex
 10
232.4523833865
 20
-303.5538165666
 30
0.0
 70
        32
  0
VERTEX
  5
53
100
AcDbEntity
  8
CK_LEVEL_1
  6
CONTINUOUS
 62
         3
100
AcDbVertex
100
AcDb3dPolylineVertex
 10
232.4523833865
 20
-303.5538165666
 30
0.0
 70
        32
  0
SEQEND
  5
55
100
AcDbEntity
  8
CK_LEVEL_1
  6
CONTINUOUS
 62
         3
  0
POLYLINE
  5
57
100
AcDbEntity
  8
CK_LEVEL_1
  6
CONTINUOUS
 62
         3
100
AcDb3dPolyline
 66
         1
 10
0.0
 20
0.0
 30
0.0
 70
         8
  0
VERTEX
  5
59
100
AcDbEntity
  8
CK_LEVEL_1
  6
CONTINUOUS
 62
         3
100
AcDbVertex
100
AcDb3dPolylineVertex
 10
229.548486736
 20
-310.8967750772
 30
0.0
 70
        32
  0
VERTEX
  5
5B
100
AcDbEntity
  8
CK_LEVEL_1
  6
CONTINUOUS
 62
         3
100
AcDbVertex
100
AcDb3dPolylineVertex
 10
232.0169230932
 20
-316.9297093816
 30
0.0
 70
        32
  0
VERTEX
  5
5D
100
AcDbEntity
  8
CK_LEVEL_1
  6
CONTINUOUS
 62
         3
100
AcDbVertex
100
AcDb3dPolylineVertex
 10
236.4875742481
 20
-316.9297093816
 30
0.0
 70
        32
  0
VERTEX
  5
5F
100
AcDbEntity
  8
CK_LEVEL_1
  6
CONTINUOUS
 62
         3
100
AcDbVertex
100
AcDb3dPolylineVertex
 10
233.5953528023
 20
-310.8987623461
 30
0.0
 70
        32
  0
VERTEX
  5
61
100
AcDbEntity
  8
CK_LEVEL_1
  6
CONTINUOUS
 62
         3
100
AcDbVertex
100
AcDb3dPolylineVertex
 10
229.548486736
 20
-310.8967750772
 30
0.0
 70
        32
  0
VERTEX
  5
63
100
AcDbEntity
  8
CK_LEVEL_1
  6
CONTINUOUS
 62
         3
100
AcDbVertex
100
AcDb3dPolylineVertex
 10
229.548486736
 20
-310.8967750772
 30
0.0
 70
        32
  0
SEQEND
  5
65
100
AcDbEntity
  8
CK_LEVEL_1
  6
CONTINUOUS
 62
         3
  0
POLYLINE
  5
67
100
AcDbEntity
  8
CK_LEVEL_1
  6
CONTINUOUS
 62
         3
100
AcDb3dPolyline
 66
         1
 10
0.0
 20
0.0
 30
0.0
 70
         8
  0
VERTEX
  5
69
100
AcDbEntity
  8
CK_LEVEL_1
  6
CONTINUOUS
 62
         3
100
AcDbVertex
100
AcDb3dPolylineVertex
 10
239.7644564265
 20
-311.6120262681
 30
0.0
 70
        32
  0
VERTEX
  5
6B
100
AcDbEntity
  8
CK_LEVEL_1
  6
CONTINUOUS
 62
         3
100
AcDbVertex
100
AcDb3dPolylineVertex
 10
239.7644564265
 20
-303.5621796565
 30
0.0
 70
        32
  0
VERTEX
  5
6D
100
AcDbEntity
  8
CK_LEVEL_1
  6
CONTINUOUS
 62
         3
100
AcDbVertex
100
AcDb3dPolylineVertex
 10
242.7933026078
 20
-303.5621796565
 30
0.0
 70
        32
  0
VERTEX
  5
6F
100
AcDbEntity
  8
CK_LEVEL_1
  6
CONTINUOUS
 62
         3
100
AcDbVertex
100
AcDb3dPolylineVertex
 10
242.7933026078
 20
-306.9732438857
 30
0.0
 70
        32
  0
VERTEX
  5
71
100
AcDbEntity
  8
CK_LEVEL_1
  6
CONTINUOUS
 62
         3
100
AcDbVertex
100
AcDb3dPolylineVertex
 10
244.4960194248
 20
-303.5621796565
 30
0.0
 70
        32
  0
VERTEX
  5
73
100
AcDbEntity
  8
CK_LEVEL_1
  6
CONTINUOUS
 62
         3
100
AcDbVertex
100
AcDb3dPolylineVertex
 10
247.6890636972
 20
-303.5621796565
 30
0.0
 70
        32
  0
VERTEX
  5
75
100
AcDbEntity
  8
CK_LEVEL_1
  6
CONTINUOUS
 62
         3
100
AcDbVertex
100
AcDb3dPolylineVertex
 10
245.5649630749
 20
-307.2844998739
 30
0.0
 70
        32
  0
VERTEX
  5
77
100
AcDbEntity
  8
CK_LEVEL_1
  6
CONTINUOUS
 62
         3
100
AcDbVertex
100
AcDb3dPolylineVertex
 10
248.0054948649
 20
-311.6120262681
 30
0.0
 70
        32
  0
VERTEX
  5
79
100
AcDbEntity
  8
CK_LEVEL_1
  6
CONTINUOUS
 62
         3
100
AcDbVertex
100
AcDb3dPolylineVertex
 10
244.6932972625
 20
-311.6120262681
 30
0.0
 70
        32
  0
VERTEX
  5
7B
100
AcDbEntity
  8
CK_LEVEL_1
  6
CONTINUOUS
 62
         3
100
AcDbVertex
100
AcDb3dPolylineVertex
 10
242.7933026078
 20
-307.9772286843
 30
0.0
 70
        32
  0
VERTEX
  5
7D
100
AcDbEntity
  8
CK_LEVEL_1
  6
CONTINUOUS
 62
         3
100
AcDbVertex
100
AcDb3dPolylineVertex
 10
242.7933026078
 20
-311.6120262681
 30
0.0
 70
        32
  0
VERTEX
  5
7F
100
AcDbEntity
  8
CK_LEVEL_1
  6
CONTINUOUS
 62
         3
100
AcDbVertex
100
AcDb3dPolylineVertex
 10
239.7644564265
 20
-311.6120262681
 30
0.0
 70
        32
  0
VERTEX
  5
81
100
AcDbEntity
  8
CK_LEVEL_1
  6
CONTINUOUS
 62
         3
100
AcDbVertex
100
AcDb3dPolylineVertex
 10
239.7644564265
 20
-311.6120262681
 30
0.0
 70
        32
  0
SEQEND
  5
83
100
AcDbEntity
  8
CK_LEVEL_1
  6
CONTINUOUS
 62
         3
  0
POLYLINE
  5
85
100
AcDbEntity
  8
CK_LEVEL_1
  6
CONTINUOUS
 62
         3
100
AcDb3dPolyline
 66
         1
 10
0.0
 20
0.0
 30
0.0
 70
         8
  0
VERTEX
  5
87
100
AcDbEntity
  8
CK_LEVEL_1
  6
CONTINUOUS
 62
         3
100
AcDbVertex
100
AcDb3dPolylineVertex
 10
248.77481633
 20
-311.6120262681
 30
0.0
 70
        32
  0
VERTEX
  5
89
100
AcDbEntity
  8
CK_LEVEL_1
  6
CONTINUOUS
 62
         3
100
AcDbVertex
100
AcDb3dPolylineVertex
 10
248.77481633
 20
-303.5621796565
 30
0.0
 70
        32
  0
VERTEX
  5
8B
100
AcDbEntity
  8
CK_LEVEL_1
  6
CONTINUOUS
 62
         3
100
AcDbVertex
100
AcDb3dPolylineVertex
 10
254.7993875445
 20
-303.5621796565
 30
0.0
 70
        32
  0
VERTEX
  5
8D
100
AcDbEntity
  8
CK_LEVEL_1
  6
CONTINUOUS
 62
         3
100
AcDbVertex
100
AcDb3dPolylineVertex
 10
254.7993875445
 20
-305.6302641373
 30
0.0
 70
        32
  0
VERTEX
  5
8F
100
AcDbEntity
  8
CK_LEVEL_1
  6
CONTINUOUS
 62
         3
100
AcDbVertex
100
AcDb3dPolylineVertex
 10
251.8151721102
 20
-305.6302641373
 30
0.0
 70
        32
  0
VERTEX
  5
91
100
AcDbEntity
  8
CK_LEVEL_1
  6
CONTINUOUS
 62
         3
100
AcDbVertex
100
AcDb3dPolylineVertex
 10
251.8151721102
 20
-306.50366881
 30
0.0
 70
        32
  0
VERTEX
  5
93
100
AcDbEntity
  8
CK_LEVEL_1
  6
CONTINUOUS
 62
         3
100
AcDbVertex
100
AcDb3dPolylineVertex
 10
254.5870809859
 20
-306.50366881
 30
0.0
 70
        32
  0
VERTEX
  5
95
100
AcDbEntity
  8
CK_LEVEL_1
  6
CONTINUOUS
 62
         3
100
AcDbVertex
100
AcDb3dPolylineVertex
 10
254.5870809859
 20
-308.5714220793
 30
0.0
 70
        32
  0
VERTEX
  5
97
100
AcDbEntity
  8
CK_LEVEL_1
  6
CONTINUOUS
 62
         3
100
AcDbVertex
100
AcDb3dPolylineVertex
 10
251.8151721102
 20
-308.5714220793
 30
0.0
 70
        32
  0
VERTEX
  5
99
100
AcDbEntity
  8
CK_LEVEL_1
  6
CONTINUOUS
 62
         3
100
AcDbVertex
100
AcDb3dPolylineVertex
 10
251.8151721102
 20
-309.5215850124
 30
0.0
 70
        32
  0
VERTEX
  5
9B
100
AcDbEntity
  8
CK_LEVEL_1
  6
CONTINUOUS
 62
         3
100
AcDbVertex
100
AcDb3dPolylineVertex
 10
254.9040503722
 20
-309.5215850124
 30
0.0
 70
        32
  0
VERTEX
  5
9D
100
AcDbEntity
  8
CK_LEVEL_1
  6
CONTINUOUS
 62
         3
100
AcDbVertex
100
AcDb3dPolylineVertex
 10
254.9040503722
 20
-311.6120262681
 30
0.0
 70
        32
  0
VERTEX
  5
9F
100
AcDbEntity
  8
CK_LEVEL_1
  6
CONTINUOUS
 62
         3
100
AcDbVertex
100
AcDb3dPolylineVertex
 10
248.77481633
 20
-311.6120262681
 30
0.0
 70
        32
  0
VERTEX
  5
A1
100
AcDbEntity
  8
CK_LEVEL_1
  6
CONTINUOUS
 62
         3
100
AcDbVertex
100
AcDb3dPolylineVertex
 10
248.77481633
 20
-311.6120262681
 30
0.0
 70
        32
  0
SEQEND
  5
A3
100
AcDbEntity
  8
CK_LEVEL_1
  6
CONTINUOUS
 62
         3
  0
TEXT
  5
A5
100
AcDbEntity
  8
CK_LEVEL_1
  6
CONTINUOUS
 62
         4
100
AcDbText
 10
221.854444122
 20
-327.9064104551
 30
0.0
 40
3.61
  1

 41
0.5
  7
BOX
100
AcDbText
  0
TEXT
  5
A7
100
AcDbEntity
  8
CK_LEVEL_1
  6
CONTINUOUS
 62
         4
100
AcDbText
 10
221.854444122
 20
-333.6824104551
 30
0.0
 40
3.61
  1
Weitergabe und Vervielfaeltigung dieser Unterlage.
 41
0.5
  7
BOX
100
AcDbText
  0
TEXT
  5
A9
100
AcDbEntity
  8
CK_LEVEL_1
  6
CONTINUOUS
 62
         4
100
AcDbText
 10
221.854444122
 20
-339.4584104551
 30
0.0
 40
3.61
  1
Verwertung und Mitteilung ihres Inhalts nicht gestattet, 
 41
0.5
  7
BOX
100
AcDbText
  0
TEXT
  5
AB
100
AcDbEntity
  8
CK_LEVEL_1
  6
CONTINUOUS
 62
         4
100
AcDbText
 10
221.854444122
 20
-345.2344104551
 30
0.0
 40
3.61
  1
soweit nicht ausdruecklich zugestanden.
 41
0.5
  7
BOX
100
AcDbText
  0
TEXT
  5
AD
100
AcDbEntity
  8
CK_LEVEL_1
  6
CONTINUOUS
 62
         4
100
AcDbText
 10
221.854444122
 20
-351.0104104551
 30
0.0
 40
3.61
  1
Zuwiderhandlungen verpflichten zu Schadenersatz.
 41
0.5
  7
BOX
100
AcDbText
  0
LINE
  5
AE
100
AcDbEntity
  8
CK_LEVEL_1
  6
CONTINUOUS
 62
         7
100
AcDbLine
 10
87.8154784018
 20
-270.864744285
 30
0.0
 11
87.7946488653
 21
-270.9017265446
 31
0.0
  0
LINE
  5
AF
100
AcDbEntity
  8
CK_LEVEL_1
  6
CONTINUOUS
 62
         7
100
AcDbLine
 10
87.7946488653
 20
-252.6660332553
 30
0.0
 11
87.8154784018
 21
-252.7030155149
 31
0.0
  0
ARC
  5
B0
100
AcDbEntity
  8
CK_LEVEL_1
  6
CONTINUOUS
 62
         7
100
AcDbCircle
 10
138.1904784018
 20
-233.7838799
 30
0.0
 40
0.5
100
AcDbArc
 50
270.0
 51
360.0
  0
ARC
  5
B1
100
AcDbEntity
  8
CK_LEVEL_1
  6
CONTINUOUS
 62
         7
100
AcDbCircle
 10
143.8154784018
 20
-231.2838799
 30
0.0
 40
1.0
100
AcDbArc
 50
0.0
 51
90.0
  0
ARC
  5
B2
100
AcDbEntity
  8
CK_LEVEL_1
  6
CONTINUOUS
 62
         7
100
AcDbCircle
 10
147.8154784018
 20
-244.7838799
 30
0.0
 40
3.0
100
AcDbArc
 50
180.0
 51
270.0
  0
ARC
  5
B3
100
AcDbEntity
  8
CK_LEVEL_1
  6
CONTINUOUS
 62
         7
100
AcDbCircle
 10
280.1581869122
 20
-223.5885647992
 30
0.0
 40
153.2985603756
100
AcDbArc
 50
202.6573986475
 51
204.0734014668
  0
ARC
  5
B4
100
AcDbEntity
  8
CK_LEVEL_1
  6
CONTINUOUS
 62
         7
100
AcDbCircle
 10
138.1904784018
 20
-289.7838799
 30
0.0
 40
0.5
100
AcDbArc
 50
0.0
 51
90.0
  0
ARC
  5
B5
100
AcDbEntity
  8
CK_LEVEL_1
  6
CONTINUOUS
 62
         7
100
AcDbCircle
 10
143.8154784018
 20
-292.2838799
 30
0.0
 40
1.0
100
AcDbArc
 50
270.0
 51
360.0
  0
ARC
  5
B6
100
AcDbEntity
  8
CK_LEVEL_1
  6
CONTINUOUS
 62
         7
100
AcDbCircle
 10
147.8154784018
 20
-278.7838799
 30
0.0
 40
3.0
100
AcDbArc
 50
90.0
 51
180.0
  0
ARC
  5
B7
100
AcDbEntity
  8
CK_LEVEL_1
  6
CONTINUOUS
 62
         7
100
AcDbCircle
 10
135.4404784018
 20
-233.7838799
 30
0.0
 40
0.5
100
AcDbArc
 50
180.0
 51
270.0
  0
ARC
  5
B8
100
AcDbEntity
  8
CK_LEVEL_1
  6
CONTINUOUS
 62
         7
100
AcDbCircle
 10
117.6408800619
 20
-237.1634514414
 30
0.0
 40
0.6
100
AcDbArc
 50
255.0
 51
270.0
  0
ARC
  5
B9
100
AcDbEntity
  8
CK_LEVEL_1
  6
CONTINUOUS
 62
         7
100
AcDbCircle
 10
118.3204784018
 20
-237.1634514414
 30
0.0
 40
0.6
100
AcDbArc
 50
270.0
 51
325.6465068589
  0
ARC
  5
BA
100
AcDbEntity
  8
CK_LEVEL_1
  6
CONTINUOUS
 62
         7
100
AcDbCircle
 10
119.8154784018
 20
-231.2838799
 30
0.0
 40
1.0
100
AcDbArc
 50
90.0
 51
180.0
  0
ARC
  5
BB
100
AcDbEntity
  8
CK_LEVEL_1
  6
CONTINUOUS
 62
         7
100
AcDbCircle
 10
88.0154784018
 20
-240.2078261581
 30
0.0
 40
1.2
100
AcDbArc
 50
92.8681
 51
180.0
  0
ARC
  5
BC
100
AcDbEntity
  8
CK_LEVEL_1
  6
CONTINUOUS
 62
         7
100
AcDbCircle
 10
91.3154784018
 20
-257.0138799
 30
0.0
 40
1.5
100
AcDbArc
 50
0.0
 51
90.0
  0
ARC
  5
BD
100
AcDbEntity
  8
CK_LEVEL_1
  6
CONTINUOUS
 62
         7
100
AcDbCircle
 10
-6.5272301084
 20
-223.5885647993
 30
0.0
 40
153.2985603755
100
AcDbArc
 50
335.9265985332
 51
337.3426013525
  0
ARC
  5
BE
100
AcDbEntity
  8
CK_LEVEL_1
  6
CONTINUOUS
 62
         7
100
AcDbCircle
 10
135.4404784018
 20
-289.7838799
 30
0.0
 40
0.5
100
AcDbArc
 50
90.0
 51
180.0
  0
ARC
  5
BF
100
AcDbEntity
  8
CK_LEVEL_1
  6
CONTINUOUS
 62
         7
100
AcDbCircle
 10
117.6408800619
 20
-286.4043083585
 30
0.0
 40
0.6
100
AcDbArc
 50
90.0
 51
105.0
  0
ARC
  5
C0
100
AcDbEntity
  8
CK_LEVEL_1
  6
CONTINUOUS
 62
         7
100
AcDbCircle
 10
118.3204784018
 20
-286.4043083585
 30
0.0
 40
0.6
100
AcDbArc
 50
34.3534931411
 51
90.0
  0
ARC
  5
C1
100
AcDbEntity
  8
CK_LEVEL_1
  6
CONTINUOUS
 62
         7
100
AcDbCircle
 10
119.8154784018
 20
-292.2838799
 30
0.0
 40
1.0
100
AcDbArc
 50
180.0
 51
270.0
  0
ARC
  5
C2
100
AcDbEntity
  8
CK_LEVEL_1
  6
CONTINUOUS
 62
         7
100
AcDbCircle
 10
88.0154784018
 20
-283.3599336418
 30
0.0
 40
1.2
100
AcDbArc
 50
180.0
 51
267.1319
  0
ARC
  5
C3
100
AcDbEntity
  8
CK_LEVEL_1
  6
CONTINUOUS
 62
         7
100
AcDbCircle
 10
91.3154784018
 20
-266.5538799
 30
0.0
 40
1.5
100
AcDbArc
 50
270.0
 51
360.0
  0
CIRCLE
  5
C4
100
AcDbEntity
  8
CK_LEVEL_1
  6
CONTINUOUS
 62
         7
100
AcDbCircle
 10
109.8154784018
 20
-261.7838799
 30
0.0
 40
3.75
  0
ARC
  5
C5
100
AcDbEntity
  8
CK_LEVEL_1
  6
CONTINUOUS
 62
         7
100
AcDbCircle
 10
110.0066093321
 20
-261.1832210344
 30
0.0
 40
4.3749299035
100
AcDbArc
 50
259.2973016001
 51
267.4819990746
  0
ARC
  5
C6
100
AcDbEntity
  8
CK_LEVEL_1
  6
CONTINUOUS
 62
         7
100
AcDbCircle
 10
110.0066089081
 20
-262.3845422012
 30
0.0
 40
4.3749332007
100
AcDbArc
 50
92.5179588376
 51
100.7026845878
  0
ARC
  5
C7
100
AcDbEntity
  8
CK_LEVEL_1
  6
CONTINUOUS
 62
         7
100
AcDbCircle
 10
110.0076427375
 20
-261.170818975
 30
0.0
 40
4.3873654163
100
AcDbArc
 50
267.4756320971
 51
270.0660139194
  0
CIRCLE
  5
C8
100
AcDbEntity
  8
CK_LEVEL_1
  6
CONTINUOUS
 62
         7
100
AcDbCircle
 10
131.8154784018
 20
-261.7838799
 30
0.0
 40
6.7
  0
CIRCLE
  5
C9
100
AcDbEntity
  8
CK_LEVEL_1
  6
CONTINUOUS
 62
         7
100
AcDbCircle
 10
131.8154784018
 20
-261.7838799
 30
0.0
 40
7.0
  0
ARC
  5
CA
100
AcDbEntity
  8
CK_LEVEL_1
  6
CONTINUOUS
 62
         7
100
AcDbCircle
 10
131.8154784018
 20
-261.7838799
 30
0.0
 40
8.0
100
AcDbArc
 50
90.0
 51
270.0
  0
ARC
  5
CB
100
AcDbEntity
  8
CK_LEVEL_1
  6
CONTINUOUS
 62
         7
100
AcDbCircle
 10
130.9271923055
 20
-289.7838799
 30
0.0
 40
8.0
100
AcDbArc
 50
90.0
 51
152.7433806908
  0
LINE
  5
CC
100
AcDbEntity
  8
CK_LEVEL_1
  6
CONTINUOUS
 62
         7
100
AcDbLine
 10
140.1929774766
 20
-230.2838799
 30
0.0
 11
143.8154784018
 21
-230.2838799
 31
0.0
  0
LINE
  5
CD
100
AcDbEntity
  8
CK_LEVEL_1
  6
CONTINUOUS
 62
         7
100
AcDbLine
 10
120.3154784018
 20
-230.2838799
 30
0.0
 11
119.8154784018
 21
-230.2838799
 31
0.0
  0
LINE
  5
CE
100
AcDbEntity
  8
CK_LEVEL_1
  6
CONTINUOUS
 62
         7
100
AcDbLine
 10
133.437979327
 20
-230.2838799
 30
0.0
 11
131.3154784018
 21
-230.2838799
 31
0.0
  0
LINE
  5
CF
100
AcDbEntity
  8
CK_LEVEL_1
  6
CONTINUOUS
 62
         7
100
AcDbLine
 10
135.4404784018
 20
-234.2838799
 30
0.0
 11
138.1904784018
 21
-234.2838799
 31
0.0
  0
LINE
  5
D0
100
AcDbEntity
  8
CK_LEVEL_1
  6
CONTINUOUS
 62
         7
100
AcDbLine
 10
116.8154784018
 20
-237.5634514414
 30
0.0
 11
87.9554341395
 21
-239.0093293135
 31
0.0
  0
LINE
  5
D1
100
AcDbEntity
  8
CK_LEVEL_1
  6
CONTINUOUS
 62
         7
100
AcDbLine
 10
118.3204784018
 20
-237.7634514414
 30
0.0
 11
117.6408800619
 21
-237.7634514414
 31
0.0
  0
LINE
  5
D2
100
AcDbEntity
  8
CK_LEVEL_1
  6
CONTINUOUS
 62
         7
100
AcDbLine
 10
117.4855886348
 20
-237.7430069371
 30
0.0
 11
116.8154784018
 21
-237.5634514414
 31
0.0
  0
LINE
  5
D3
100
AcDbEntity
  8
CK_LEVEL_1
  6
CONTINUOUS
 62
         7
100
AcDbLine
 10
86.862669416
 20
-252.6555524998
 30
0.0
 11
87.7946488653
 21
-252.6660332553
 31
0.0
  0
LINE
  5
D4
100
AcDbEntity
  8
CK_LEVEL_1
  6
CONTINUOUS
 62
         7
100
AcDbLine
 10
138.575679641
 20
-253.7838799
 30
0.0
 11
144.8154784018
 21
-253.7838799
 31
0.0
  0
LINE
  5
D5
100
AcDbEntity
  8
CK_LEVEL_1
  6
CONTINUOUS
 62
         7
100
AcDbLine
 10
131.8154784018
 20
-253.7838799
 30
0.0
 11
135.0552771627
 21
-253.7838799
 31
0.0
  0
LINE
  5
D6
100
AcDbEntity
  8
CK_LEVEL_1
  6
CONTINUOUS
 62
         7
100
AcDbLine
 10
135.4404784018
 20
-254.4354106716
 30
0.0
 11
138.1904784018
 21
-254.4354106716
 31
0.0
  0
LINE
  5
D7
100
AcDbEntity
  8
CK_LEVEL_1
  6
CONTINUOUS
 62
         7
100
AcDbLine
 10
87.8154784018
 20
-255.5138799
 30
0.0
 11
91.3154784018
 21
-255.5138799
 31
0.0
  0
LINE
  5
D8
100
AcDbEntity
  8
CK_LEVEL_1
  6
CONTINUOUS
 62
         7
100
AcDbLine
 10
87.8154784018
 20
-268.0538799
 30
0.0
 11
91.3154784018
 21
-268.0538799
 31
0.0
  0
LINE
  5
D9
100
AcDbEntity
  8
CK_LEVEL_1
  6
CONTINUOUS
 62
         7
100
AcDbLine
 10
135.4404784018
 20
-269.1323491283
 30
0.0
 11
138.1904784018
 21
-269.1323491283
 31
0.0
  0
LINE
  5
DA
100
AcDbEntity
  8
CK_LEVEL_1
  6
CONTINUOUS
 62
         7
100
AcDbLine
 10
138.575679641
 20
-269.7838799
 30
0.0
 11
144.8154784018
 21
-269.7838799
 31
0.0
  0
LINE
  5
DB
100
AcDbEntity
  8
CK_LEVEL_1
  6
CONTINUOUS
 62
         7
100
AcDbLine
 10
131.8154784018
 20
-269.7838799
 30
0.0
 11
135.0552771627
 21
-269.7838799
 31
0.0
  0
LINE
  5
DC
100
AcDbEntity
  8
CK_LEVEL_1
  6
CONTINUOUS
 62
         7
100
AcDbLine
 10
133.437979327
 20
-293.2838799
 30
0.0
 11
134.9404784018
 21
-290.6814751642
 31
0.0
  0
LINE
  5
DD
100
AcDbEntity
  8
CK_LEVEL_1
  6
CONTINUOUS
 62
         7
100
AcDbLine
 10
133.437979327
 20
-230.2838799
 30
0.0
 11
134.9404784018
 21
-232.8862846358
 31
0.0
  0
LINE
  5
DE
100
AcDbEntity
  8
CK_LEVEL_1
  6
CONTINUOUS
 62
         7
100
AcDbLine
 10
86.862669416
 20
-270.9122073001
 30
0.0
 11
87.7946488653
 21
-270.9017265446
 31
0.0
  0
LINE
  5
DF
100
AcDbEntity
  8
CK_LEVEL_1
  6
CONTINUOUS
 62
         7
100
AcDbLine
 10
117.4855886348
 20
-285.8247528628
 30
0.0
 11
116.8154784018
 21
-286.0043083585
 31
0.0
  0
LINE
  5
E0
100
AcDbEntity
  8
CK_LEVEL_1
  6
CONTINUOUS
 62
         7
100
AcDbLine
 10
147.8154784018
 20
-247.7838799
 30
0.0
 11
147.8154784018
 21
-275.7838799
 31
0.0
  0
LINE
  5
E1
100
AcDbEntity
  8
CK_LEVEL_1
  6
CONTINUOUS
 62
         7
100
AcDbLine
 10
144.8154784018
 20
-292.2838584589
 30
0.0
 11
144.8154784018
 21
-231.2839117397
 31
0.0
  0
LINE
  5
E2
100
AcDbEntity
  8
CK_LEVEL_1
  6
CONTINUOUS
 62
         7
100
AcDbLine
 10
143.8154784018
 20
-253.7838799
 30
0.0
 11
143.8154784018
 21
-230.2838799
 31
0.0
  0
LINE
  5
E3
100
AcDbEntity
  8
CK_LEVEL_1
  6
CONTINUOUS
 62
         7
100
AcDbLine
 10
143.8154784018
 20
-281.7838799
 30
0.0
 11
143.8154784018
 21
-269.7838799
 31
0.0
  0
LINE
  5
E4
100
AcDbEntity
  8
CK_LEVEL_1
  6
CONTINUOUS
 62
         7
100
AcDbLine
 10
143.8154784018
 20
-293.2838799
 30
0.0
 11
143.8154784018
 21
-286.1200669472
 31
0.0
  0
LINE
  5
E5
100
AcDbEntity
  8
CK_LEVEL_1
  6
CONTINUOUS
 62
         7
100
AcDbLine
 10
138.6904784018
 20
-281.7838799
 30
0.0
 11
144.8154784018
 21
-281.7838799
 31
0.0
  0
LINE
  5
E6
100
AcDbEntity
  8
CK_LEVEL_1
  6
CONTINUOUS
 62
         7
100
AcDbLine
 10
130.9271923055
 20
-281.7838799
 30
0.0
 11
134.9404784018
 21
-281.7838799
 31
0.0
  0
LINE
  5
E7
100
AcDbEntity
  8
CK_LEVEL_1
  6
CONTINUOUS
 62
         7
100
AcDbLine
 10
118.3204784018
 20
-285.8043083585
 30
0.0
 11
117.6408800619
 21
-285.8043083585
 31
0.0
  0
LINE
  5
E8
100
AcDbEntity
  8
CK_LEVEL_1
  6
CONTINUOUS
 62
         7
100
AcDbLine
 10
140.1929774766
 20
-286.1200669472
 30
0.0
 11
143.8154784018
 21
-286.1200669472
 31
0.0
  0
LINE
  5
E9
100
AcDbEntity
  8
CK_LEVEL_1
  6
CONTINUOUS
 62
         7
100
AcDbLine
 10
123.8154784018
 20
-286.1200669472
 30
0.0
 11
133.437979327
 21
-286.1200669472
 31
0.0
  0
LINE
  5
EA
100
AcDbEntity
  8
CK_LEVEL_1
  6
CONTINUOUS
 62
         7
100
AcDbLine
 10
140.1929774766
 20
-286.1200669472
 30
0.0
 11
140.1929774766
 21
-293.2838799
 31
0.0
  0
LINE
  5
EB
100
AcDbEntity
  8
CK_LEVEL_1
  6
CONTINUOUS
 62
         7
100
AcDbLine
 10
140.1929774766
 20
-269.7838799
 30
0.0
 11
140.1929774766
 21
-281.7838799
 31
0.0
  0
LINE
  5
EC
100
AcDbEntity
  8
CK_LEVEL_1
  6
CONTINUOUS
 62
         7
100
AcDbLine
 10
140.1929774766
 20
-230.2838799
 30
0.0
 11
140.1929774766
 21
-253.7838799
 31
0.0
  0
LINE
  5
ED
100
AcDbEntity
  8
CK_LEVEL_1
  6
CONTINUOUS
 62
         7
100
AcDbLine
 10
138.6904784018
 20
-253.7838799
 30
0.0
 11
138.6904784018
 21
-232.8863166543
 31
0.0
  0
LINE
  5
EE
100
AcDbEntity
  8
CK_LEVEL_1
  6
CONTINUOUS
 62
         7
100
AcDbLine
 10
138.6904784018
 20
-290.6813451565
 30
0.0
 11
138.6904784018
 21
-269.7838799
 31
0.0
  0
LINE
  5
EF
100
AcDbEntity
  8
CK_LEVEL_1
  6
CONTINUOUS
 62
         7
100
AcDbLine
 10
138.1904784018
 20
-254.4354106716
 30
0.0
 11
138.1904784018
 21
-234.2838799
 31
0.0
  0
LINE
  5
F0
100
AcDbEntity
  8
CK_LEVEL_1
  6
CONTINUOUS
 62
         7
100
AcDbLine
 10
138.1904784018
 20
-289.2838799
 30
0.0
 11
138.1904784018
 21
-269.1323491283
 31
0.0
  0
LINE
  5
F1
100
AcDbEntity
  8
CK_LEVEL_1
  6
CONTINUOUS
 62
         7
100
AcDbLine
 10
116.8154784018
 20
-286.0043083585
 30
0.0
 11
87.9554341395
 21
-284.5584304864
 31
0.0
  0
LINE
  5
F2
100
AcDbEntity
  8
CK_LEVEL_1
  6
CONTINUOUS
 62
         7
100
AcDbLine
 10
135.4404784018
 20
-289.2838799
 30
0.0
 11
138.1904784018
 21
-289.2838799
 31
0.0
  0
LINE
  5
F3
100
AcDbEntity
  8
CK_LEVEL_1
  6
CONTINUOUS
 62
         7
100
AcDbLine
 10
135.4404784018
 20
-269.1323491283
 30
0.0
 11
135.4404784018
 21
-289.2838799
 31
0.0
  0
LINE
  5
F4
100
AcDbEntity
  8
CK_LEVEL_1
  6
CONTINUOUS
 62
         7
100
AcDbLine
 10
135.4404784018
 20
-234.2838799
 30
0.0
 11
135.4404784018
 21
-254.4354106716
 31
0.0
  0
LINE
  5
F5
100
AcDbEntity
  8
CK_LEVEL_1
  6
CONTINUOUS
 62
         7
100
AcDbLine
 10
134.9404784018
 20
-290.6813451565
 30
0.0
 11
134.9404784018
 21
-269.7838799
 31
0.0
  0
LINE
  5
F6
100
AcDbEntity
  8
CK_LEVEL_1
  6
CONTINUOUS
 62
         7
100
AcDbLine
 10
134.9404784018
 20
-232.8863166543
 30
0.0
 11
134.9404784018
 21
-253.7838799
 31
0.0
  0
LINE
  5
F7
100
AcDbEntity
  8
CK_LEVEL_1
  6
CONTINUOUS
 62
         7
100
AcDbLine
 10
133.437979327
 20
-286.1200669472
 30
0.0
 11
133.437979327
 21
-293.2838799
 31
0.0
  0
LINE
  5
F8
100
AcDbEntity
  8
CK_LEVEL_1
  6
CONTINUOUS
 62
         7
100
AcDbLine
 10
133.437979327
 20
-269.7838799
 30
0.0
 11
133.437979327
 21
-281.7838799
 31
0.0
  0
LINE
  5
F9
100
AcDbEntity
  8
CK_LEVEL_1
  6
CONTINUOUS
 62
         7
100
AcDbLine
 10
133.437979327
 20
-230.2838799
 30
0.0
 11
133.437979327
 21
-253.7838799
 31
0.0
  0
LINE
  5
FA
100
AcDbEntity
  8
CK_LEVEL_1
  6
CONTINUOUS
 62
         7
100
AcDbLine
 10
138.6904784018
 20
-290.6814751642
 30
0.0
 11
140.1929774766
 21
-293.2838799
 31
0.0
  0
LINE
  5
FB
100
AcDbEntity
  8
CK_LEVEL_1
  6
CONTINUOUS
 62
         7
100
AcDbLine
 10
140.1929774766
 20
-293.2838799
 30
0.0
 11
143.8154784018
 21
-293.2838799
 31
0.0
  0
LINE
  5
FC
100
AcDbEntity
  8
CK_LEVEL_1
  6
CONTINUOUS
 62
         7
100
AcDbLine
 10
133.437979327
 20
-293.2838799
 30
0.0
 11
119.8154784018
 21
-293.2838799
 31
0.0
  0
LINE
  5
FD
100
AcDbEntity
  8
CK_LEVEL_1
  6
CONTINUOUS
 62
         7
100
AcDbLine
 10
138.6904784018
 20
-232.8862846358
 30
0.0
 11
140.1929774766
 21
-230.2838799
 31
0.0
  0
LINE
  5
FE
100
AcDbEntity
  8
CK_LEVEL_1
  6
CONTINUOUS
 62
         7
100
AcDbLine
 10
119.8154784018
 20
-293.2838799
 30
0.0
 11
119.8154784018
 21
-230.2838799
 31
0.0
  0
LINE
  5
FF
100
AcDbEntity
  8
CK_LEVEL_1
  6
CONTINUOUS
 62
         7
100
AcDbLine
 10
86.8154784018
 20
-269.0538799
 30
0.0
 11
87.8154784018
 21
-268.0538799
 31
0.0
  0
LINE
  5
100
100
AcDbEntity
  8
CK_LEVEL_1
  6
CONTINUOUS
 62
         7
100
AcDbLine
 10
118.8154784018
 20
-292.2838799
 30
0.0
 11
118.8154784018
 21
-231.2838799
 31
0.0
  0
LINE
  5
101
100
AcDbEntity
  8
CK_LEVEL_1
  6
CONTINUOUS
 62
         7
100
AcDbLine
 10
118.3204784018
 20
-237.7634514414
 30
0.0
 11
118.3204784018
 21
-285.8043083585
 31
0.0
  0
LINE
  5
102
100
AcDbEntity
  8
CK_LEVEL_1
  6
CONTINUOUS
 62
         7
100
AcDbLine
 10
117.6408800619
 20
-237.7634514414
 30
0.0
 11
117.6408800619
 21
-285.8043083585
 31
0.0
  0
LINE
  5
103
100
AcDbEntity
  8
CK_LEVEL_1
  6
CONTINUOUS
 62
         7
100
AcDbLine
 10
117.4855886348
 20
-237.7430069371
 30
0.0
 11
117.4855886348
 21
-285.8247528628
 31
0.0
  0
LINE
  5
104
100
AcDbEntity
  8
CK_LEVEL_1
  6
CONTINUOUS
 62
         7
100
AcDbLine
 10
116.8154784018
 20
-237.5634514414
 30
0.0
 11
116.8154784018
 21
-286.0043083585
 31
0.0
  0
LINE
  5
105
100
AcDbEntity
  8
CK_LEVEL_1
  6
CONTINUOUS
 62
         7
100
AcDbLine
 10
86.8154784018
 20
-254.5138799
 30
0.0
 11
87.8154784018
 21
-255.5138799
 31
0.0
  0
LINE
  5
106
100
AcDbEntity
  8
CK_LEVEL_1
  6
CONTINUOUS
 62
         7
100
AcDbLine
 10
92.8154784018
 20
-254.6425939626
 30
0.0
 11
92.8154784018
 21
-268.9251658373
 31
0.0
  0
LINE
  5
107
100
AcDbEntity
  8
CK_LEVEL_1
  6
CONTINUOUS
 62
         7
100
AcDbLine
 10
91.3154784018
 20
-255.5138799
 30
0.0
 11
91.3154784018
 21
-252.1731587142
 31
0.0
  0
LINE
  5
108
100
AcDbEntity
  8
CK_LEVEL_1
  6
CONTINUOUS
 62
         7
100
AcDbLine
 10
91.3154784018
 20
-271.3946010857
 30
0.0
 11
91.3154784018
 21
-268.0538799
 31
0.0
  0
LINE
  5
109
100
AcDbEntity
  8
CK_LEVEL_1
  6
CONTINUOUS
 62
         7
100
AcDbLine
 10
87.9554341395
 20
-252.6662674979
 30
0.0
 11
87.9554341395
 21
-239.0093293135
 31
0.0
  0
LINE
  5
10A
100
AcDbEntity
  8
CK_LEVEL_1
  6
CONTINUOUS
 62
         7
100
AcDbLine
 10
87.9554341395
 20
-284.5584304864
 30
0.0
 11
87.9554341395
 21
-270.9014923021
 31
0.0
  0
LINE
  5
10B
100
AcDbEntity
  8
CK_LEVEL_1
  6
CONTINUOUS
 62
         7
100
AcDbLine
 10
87.8154784018
 20
-268.0538799
 30
0.0
 11
87.8154784018
 21
-270.864744285
 31
0.0
  0
LINE
  5
10C
100
AcDbEntity
  8
CK_LEVEL_1
  6
CONTINUOUS
 62
         7
100
AcDbLine
 10
87.8154784018
 20
-252.7030155149
 30
0.0
 11
87.8154784018
 21
-255.5138799
 31
0.0
  0
LINE
  5
10D
100
AcDbEntity
  8
CK_LEVEL_1
  6
CONTINUOUS
 62
         7
100
AcDbLine
 10
86.8154784018
 20
-254.5138799
 30
0.0
 11
86.8154784018
 21
-240.2079388561
 31
0.0
  0
LINE
  5
10E
100
AcDbEntity
  8
CK_LEVEL_1
  6
CONTINUOUS
 62
         7
100
AcDbLine
 10
86.8154784018
 20
-283.3598209438
 30
0.0
 11
86.8154784018
 21
-269.0538799
 31
0.0
  0
LINE
  5
10F
100
AcDbEntity
  8
CK_LEVEL_1
  6
CENTER
 62
         1
100
AcDbLine
 10
109.8154784018
 20
-246.9756550149
 30
0.0
 11
109.8154784018
 21
-275.648350906
 31
0.0
  0
LINE
  5
110
100
AcDbEntity
  8
CK_LEVEL_1
  6
CENTER
 62
         1
100
AcDbLine
 10
131.8154784018
 20
-246.9756550149
 30
0.0
 11
131.8154784018
 21
-275.648350906
 31
0.0
  0
LINE
  5
111
100
AcDbEntity
  8
CK_LEVEL_1
  6
CENTER
 62
         1
100
AcDbLine
 10
136.8154784018
 20
-227.2838799
 30
0.0
 11
136.8154784018
 21
-296.2838799
 31
0.0
  0
TEXT
  5
113
100
AcDbEntity
  8
CK_LEVEL_1
  6
CONTINUOUS
 62
         4
100
AcDbText
 10
92.7396108827
 20
-260.8722773194
 30
0.0
 40
2.7
  1
HSK63
  7
BOX
100
AcDbText
  0
TEXT
  5
115
100
AcDbEntity
  8
CK_LEVEL_1
  6
CONTINUOUS
 62
         4
100
AcDbText
 10
92.7396108827
 20
-265.1922773194
 30
0.0
 40
2.7
  1
AT3
  7
BOX
100
AcDbText
  0
DIMENSION
  5
119
100
AcDbEntity
  8
CK_LEVEL_1
  6
CONTINUOUS
 62
         4
100
AcDbDimension
  2
*D0
 10
71.1225168374
 20
-230.2838799
 30
0.0
 11
68.4975168374
 21
-268.7838799
 31
0.0
  3
DIMSTYLE1
100
AcDbAlignedDimension
 13
118.8154784018
 23
-230.2838799
 33
0.0
 14
118.8154784018
 24
-293.2838799
 34
0.0
 50
90.0
100
AcDbRotatedDimension
  0
LINE
  5
126
100
AcDbEntity
  8
CK_LEVEL_1
  6
CENTER
 62
         1
100
AcDbLine
 10
112.5154784018
 20
-289.0043083585
 30
0.0
 11
112.5154784018
 21
-234.5634514414
 31
0.0
  0
DIMENSION
  5
129
100
AcDbEntity
  8
CK_LEVEL_1
  6
CONTINUOUS
 62
         4
100
AcDbDimension
  2
*D1
 10
86.8154784018
 20
-216.7915759859
 30
0.0
 11
99.3154784018
 21
-214.1665759859
 31
0.0
  3
DIMSTYLE1
100
AcDbAlignedDimension
 13
86.8154784018
 23
-239.0664406873
 33
0.0
 14
118.8154784018
 24
-230.2838799
 34
0.0
100
AcDbRotatedDimension
  0
LINE
  5
135
100
AcDbEntity
  8
CK_LEVEL_1
  6
CONTINUOUS
 62
         7
100
AcDbLine
 10
250.3154784018
 20
-247.7838799
 30
0.0
 11
147.8154784018
 21
-247.7838799
 31
0.0
  0
LINE
  5
136
100
AcDbEntity
  8
CK_LEVEL_1
  6
CONTINUOUS
 62
         7
100
AcDbLine
 10
250.3154784018
 20
-275.7838799
 30
0.0
 11
147.8154784018
 21
-275.7838799
 31
0.0
  0
ARC
  5
137
100
AcDbEntity
  8
CK_LEVEL_1
  6
CONTINUOUS
 62
         7
100
AcDbCircle
 10
251.8154784018
 20
-249.2838799
 30
0.0
 40
0.5
100
AcDbArc
 50
180.0
 51
270.0
  0
ARC
  5
138
100
AcDbEntity
  8
CK_LEVEL_1
  6
CONTINUOUS
 62
         7
100
AcDbCircle
 10
250.3154784018
 20
-248.7838799
 30
0.0
 40
1.0
100
AcDbArc
 50
0.0
 51
90.0
  0
ARC
  5
139
100
AcDbEntity
  8
CK_LEVEL_1
  6
CONTINUOUS
 62
         7
100
AcDbCircle
 10
260.4154784018
 20
-248.9338799
 30
0.0
 40
1.0
100
AcDbArc
 50
90.0
 51
180.0
  0
ARC
  5
13A
100
AcDbEntity
  8
CK_LEVEL_1
  6
CONTINUOUS
 62
         7
100
AcDbCircle
 10
251.8154784018
 20
-274.2838799
 30
0.0
 40
0.5
100
AcDbArc
 50
90.0
 51
180.0
  0
ARC
  5
13B
100
AcDbEntity
  8
CK_LEVEL_1
  6
CONTINUOUS
 62
         7
100
AcDbCircle
 10
250.3154784018
 20
-274.7838799
 30
0.0
 40
1.0
100
AcDbArc
 50
270.0
 51
360.0
  0
ARC
  5
13C
100
AcDbEntity
  8
CK_LEVEL_1
  6
CONTINUOUS
 62
         7
100
AcDbCircle
 10
260.4154784018
 20
-274.6338799
 30
0.0
 40
1.0
100
AcDbArc
 50
180.0
 51
270.0
  0
LINE
  5
13D
100
AcDbEntity
  8
CK_LEVEL_1
  6
CONTINUOUS
 62
         7
100
AcDbLine
 10
260.4154784018
 20
-247.9338799
 30
0.0
 11
260.4154784018
 21
-275.6338799
 31
0.0
  0
LINE
  5
13E
100
AcDbEntity
  8
CK_LEVEL_1
  6
CONTINUOUS
 62
         7
100
AcDbLine
 10
259.4154784018
 20
-274.6338799
 30
0.0
 11
259.4154784018
 21
-248.9338799
 31
0.0
  0
LINE
  5
13F
100
AcDbEntity
  8
CK_LEVEL_1
  6
CONTINUOUS
 62
         7
100
AcDbLine
 10
251.8154784018
 20
-249.7838799
 30
0.0
 11
251.8154784018
 21
-273.7838799
 31
0.0
  0
LINE
  5
140
100
AcDbEntity
  8
CK_LEVEL_1
  6
CONTINUOUS
 62
         7
100
AcDbLine
 10
251.3154784018
 20
-274.7838799
 30
0.0
 11
251.3154784018
 21
-248.7838799
 31
0.0
  0
LINE
  5
141
100
AcDbEntity
  8
CK_LEVEL_1
  6
CONTINUOUS
 62
         7
100
AcDbLine
 10
250.3154784018
 20
-275.7838799
 30
0.0
 11
250.3154784018
 21
-247.7838799
 31
0.0
  0
LINE
  5
142
100
AcDbEntity
  8
CK_LEVEL_1
  6
CONTINUOUS
 62
         7
100
AcDbLine
 10
259.4154784018
 20
-249.7838799
 30
0.0
 11
251.8154784018
 21
-249.7838799
 31
0.0
  0
LINE
  5
143
100
AcDbEntity
  8
CK_LEVEL_1
  6
CONTINUOUS
 62
         7
100
AcDbLine
 10
259.4154784018
 20
-273.7838799
 30
0.0
 11
251.8154784018
 21
-273.7838799
 31
0.0
  0
LINE
  5
144
100
AcDbEntity
  8
CK_LEVEL_1
  6
DASHED
 62
         2
100
AcDbLine
 10
244.190526804
 20
-255.0338799
 30
0.0
 11
244.190526804
 21
-268.5338799
 31
0.0
  0
LINE
  5
145
100
AcDbEntity
  8
CK_LEVEL_1
  6
DASHED
 62
         2
100
AcDbLine
 10
236.3154784018
 20
-255.0338799
 30
0.0
 11
244.190526804
 21
-255.0338799
 31
0.0
  0
LINE
  5
146
100
AcDbEntity
  8
CK_LEVEL_1
  6
DASHED
 62
         2
100
AcDbLine
 10
236.3154784018
 20
-255.0338799
 30
0.0
 11
236.3154784018
 21
-268.5338799
 31
0.0
  0
LINE
  5
147
100
AcDbEntity
  8
CK_LEVEL_1
  6
DASHED
 62
         2
100
AcDbLine
 10
236.3154784018
 20
-268.5338799
 30
0.0
 11
244.190526804
 21
-268.5338799
 31
0.0
  0
POLYLINE
  5
149
100
AcDbEntity
  8
CK_LEVEL_1
  6
CONTINUOUS
 62
         7
100
AcDb3dPolyline
 66
         1
 10
0.0
 20
0.0
 30
0.0
 70
         8
  0
VERTEX
  5
14B
100
AcDbEntity
  8
CK_LEVEL_1
  6
CONTINUOUS
 62
         7
100
AcDbVertex
100
AcDb3dPolylineVertex
 10
138.575679641
 20
-269.7838799
 30
0.0
 70
        32
  0
VERTEX
  5
14D
100
AcDbEntity
  8
CK_LEVEL_1
  6
CONTINUOUS
 62
         7
100
AcDbVertex
100
AcDb3dPolylineVertex
 10
138.5704699956
 20
-269.7624248005
 30
0.0
 70
        32
  0
VERTEX
  5
14F
100
AcDbEntity
  8
CK_LEVEL_1
  6
CONTINUOUS
 62
         7
100
AcDbVertex
100
AcDb3dPolylineVertex
 10
138.56510854
 20
-269.741006476
 30
0.0
 70
        32
  0
VERTEX
  5
151
100
AcDbEntity
  8
CK_LEVEL_1
  6
CONTINUOUS
 62
         7
100
AcDbVertex
100
AcDb3dPolylineVertex
 10
138.5595896741
 20
-269.7196275169
 30
0.0
 70
        32
  0
VERTEX
  5
153
100
AcDbEntity
  8
CK_LEVEL_1
  6
CONTINUOUS
 62
         7
100
AcDbVertex
100
AcDb3dPolylineVertex
 10
138.553907798
 20
-269.6982905138
 30
0.0
 70
        32
  0
VERTEX
  5
155
100
AcDbEntity
  8
CK_LEVEL_1
  6
CONTINUOUS
 62
         7
100
AcDbVertex
100
AcDb3dPolylineVertex
 10
138.5480573116
 20
-269.6769980572
 30
0.0
 70
        32
  0
VERTEX
  5
157
100
AcDbEntity
  8
CK_LEVEL_1
  6
CONTINUOUS
 62
         7
100
AcDbVertex
100
AcDb3dPolylineVertex
 10
138.542032615
 20
-269.6557527377
 30
0.0
 70
        32
  0
VERTEX
  5
159
100
AcDbEntity
  8
CK_LEVEL_1
  6
CONTINUOUS
 62
         7
100
AcDbVertex
100
AcDb3dPolylineVertex
 10
138.5358281081
 20
-269.6345571457
 30
0.0
 70
        32
  0
VERTEX
  5
15B
100
AcDbEntity
  8
CK_LEVEL_1
  6
CONTINUOUS
 62
         7
100
AcDbVertex
100
AcDb3dPolylineVertex
 10
138.5294381908
 20
-269.6134138718
 30
0.0
 70
        32
  0
VERTEX
  5
15D
100
AcDbEntity
  8
CK_LEVEL_1
  6
CONTINUOUS
 62
         7
100
AcDbVertex
100
AcDb3dPolylineVertex
 10
138.5228572633
 20
-269.5923255065
 30
0.0
 70
        32
  0
VERTEX
  5
15F
100
AcDbEntity
  8
CK_LEVEL_1
  6
CONTINUOUS
 62
         7
100
AcDbVertex
100
AcDb3dPolylineVertex
 10
138.5160799041
 20
-269.5713009724
 30
0.0
 70
        32
  0
VERTEX
  5
161
100
AcDbEntity
  8
CK_LEVEL_1
  6
CONTINUOUS
 62
         7
100
AcDbVertex
100
AcDb3dPolylineVertex
 10
138.5090914157
 20
-269.5503436758
 30
0.0
 70
        32
  0
VERTEX
  5
163
100
AcDbEntity
  8
CK_LEVEL_1
  6
CONTINUOUS
 62
         7
100
AcDbVertex
100
AcDb3dPolylineVertex
 10
138.501877183
 20
-269.5294633832
 30
0.0
 70
        32
  0
VERTEX
  5
165
100
AcDbEntity
  8
CK_LEVEL_1
  6
CONTINUOUS
 62
         7
100
AcDbVertex
100
AcDb3dPolylineVertex
 10
138.494422591
 20
-269.508669861
 30
0.0
 70
        32
  0
VERTEX
  5
167
100
AcDbEntity
  8
CK_LEVEL_1
  6
CONTINUOUS
 62
         7
100
AcDbVertex
100
AcDb3dPolylineVertex
 10
138.4867130247
 20
-269.4879728757
 30
0.0
 70
        32
  0
VERTEX
  5
169
100
AcDbEntity
  8
CK_LEVEL_1
  6
CONTINUOUS
 62
         7
100
AcDbVertex
100
AcDb3dPolylineVertex
 10
138.478733869
 20
-269.4673821939
 30
0.0
 70
        32
  0
VERTEX
  5
16B
100
AcDbEntity
  8
CK_LEVEL_1
  6
CONTINUOUS
 62
         7
100
AcDbVertex
100
AcDb3dPolylineVertex
 10
138.4704705089
 20
-269.4469075819
 30
0.0
 70
        32
  0
VERTEX
  5
16D
100
AcDbEntity
  8
CK_LEVEL_1
  6
CONTINUOUS
 62
         7
100
AcDbVertex
100
AcDb3dPolylineVertex
 10
138.4619083293
 20
-269.4265588062
 30
0.0
 70
        32
  0
VERTEX
  5
16F
100
AcDbEntity
  8
CK_LEVEL_1
  6
CONTINUOUS
 62
         7
100
AcDbVertex
100
AcDb3dPolylineVertex
 10
138.4530327152
 20
-269.4063456334
 30
0.0
 70
        32
  0
VERTEX
  5
171
100
AcDbEntity
  8
CK_LEVEL_1
  6
CONTINUOUS
 62
         7
100
AcDbVertex
100
AcDb3dPolylineVertex
 10
138.4484709701
 20
-269.3962900398
 30
0.0
 70
        32
  0
VERTEX
  5
173
100
AcDbEntity
  8
CK_LEVEL_1
  6
CONTINUOUS
 62
         7
100
AcDbVertex
100
AcDb3dPolylineVertex
 10
138.4438231239
 20
-269.3862737392
 30
0.0
 70
        32
  0
VERTEX
  5
175
100
AcDbEntity
  8
CK_LEVEL_1
  6
CONTINUOUS
 62
         7
100
AcDbVertex
100
AcDb3dPolylineVertex
 10
138.4390851402
 20
-269.3762996589
 30
0.0
 70
        32
  0
VERTEX
  5
177
100
AcDbEntity
  8
CK_LEVEL_1
  6
CONTINUOUS
 62
         7
100
AcDbVertex
100
AcDb3dPolylineVertex
 10
138.4342529825
 20
-269.3663707265
 30
0.0
 70
        32
  0
VERTEX
  5
179
100
AcDbEntity
  8
CK_LEVEL_1
  6
CONTINUOUS
 62
         7
100
AcDbVertex
100
AcDb3dPolylineVertex
 10
138.4293226144
 20
-269.3564898695
 30
0.0
 70
        32
  0
VERTEX
  5
17B
100
AcDbEntity
  8
CK_LEVEL_1
  6
CONTINUOUS
 62
         7
100
AcDbVertex
100
AcDb3dPolylineVertex
 10
138.4242899993
 20
-269.3466600153
 30
0.0
 70
        32
  0
VERTEX
  5
17D
100
AcDbEntity
  8
CK_LEVEL_1
  6
CONTINUOUS
 62
         7
100
AcDbVertex
100
AcDb3dPolylineVertex
 10
138.4191511009
 20
-269.3368840914
 30
0.0
 70
        32
  0
VERTEX
  5
17F
100
AcDbEntity
  8
CK_LEVEL_1
  6
CONTINUOUS
 62
         7
100
AcDbVertex
100
AcDb3dPolylineVertex
 10
138.4139018827
 20
-269.3271650252
 30
0.0
 70
        32
  0
VERTEX
  5
181
100
AcDbEntity
  8
CK_LEVEL_1
  6
CONTINUOUS
 62
         7
100
AcDbVertex
100
AcDb3dPolylineVertex
 10
138.4085383083
 20
-269.3175057442
 30
0.0
 70
        32
  0
VERTEX
  5
183
100
AcDbEntity
  8
CK_LEVEL_1
  6
CONTINUOUS
 62
         7
100
AcDbVertex
100
AcDb3dPolylineVertex
 10
138.4030570545
 20
-269.3079126723
 30
0.0
 70
        32
  0
VERTEX
  5
185
100
AcDbEntity
  8
CK_LEVEL_1
  6
CONTINUOUS
 62
         7
100
AcDbVertex
100
AcDb3dPolylineVertex
 10
138.3974491415
 20
-269.2983913877
 30
0.0
 70
        32
  0
VERTEX
  5
187
100
AcDbEntity
  8
CK_LEVEL_1
  6
CONTINUOUS
 62
         7
100
AcDbVertex
100
AcDb3dPolylineVertex
 10
138.3917062418
 20
-269.2889509973
 30
0.0
 70
        32
  0
VERTEX
  5
189
100
AcDbEntity
  8
CK_LEVEL_1
  6
CONTINUOUS
 62
         7
100
AcDbVertex
100
AcDb3dPolylineVertex
 10
138.3858200278
 20
-269.2796006079
 30
0.0
 70
        32
  0
VERTEX
  5
18B
100
AcDbEntity
  8
CK_LEVEL_1
  6
CONTINUOUS
 62
         7
100
AcDbVertex
100
AcDb3dPolylineVertex
 10
138.379782172
 20
-269.2703493267
 30
0.0
 70
        32
  0
VERTEX
  5
18D
100
AcDbEntity
  8
CK_LEVEL_1
  6
CONTINUOUS
 62
         7
100
AcDbVertex
100
AcDb3dPolylineVertex
 10
138.3735843468
 20
-269.2612062603
 30
0.0
 70
        32
  0
VERTEX
  5
18F
100
AcDbEntity
  8
CK_LEVEL_1
  6
CONTINUOUS
 62
         7
100
AcDbVertex
100
AcDb3dPolylineVertex
 10
138.3672182248
 20
-269.2521805159
 30
0.0
 70
        32
  0
VERTEX
  5
191
100
AcDbEntity
  8
CK_LEVEL_1
  6
CONTINUOUS
 62
         7
100
AcDbVertex
100
AcDb3dPolylineVertex
 10
138.3606754784
 20
-269.2432812002
 30
0.0
 70
        32
  0
VERTEX
  5
193
100
AcDbEntity
  8
CK_LEVEL_1
  6
CONTINUOUS
 62
         7
100
AcDbVertex
100
AcDb3dPolylineVertex
 10
138.35394778
 20
-269.2345174202
 30
0.0
 70
        32
  0
VERTEX
  5
195
100
AcDbEntity
  8
CK_LEVEL_1
  6
CONTINUOUS
 62
         7
100
AcDbVertex
100
AcDb3dPolylineVertex
 10
138.350508646
 20
-269.2301852126
 30
0.0
 70
        32
  0
VERTEX
  5
197
100
AcDbEntity
  8
CK_LEVEL_1
  6
CONTINUOUS
 62
         7
100
AcDbVertex
100
AcDb3dPolylineVertex
 10
138.347020432
 20
-269.2258917639
 30
0.0
 70
        32
  0
VERTEX
  5
199
100
AcDbEntity
  8
CK_LEVEL_1
  6
CONTINUOUS
 62
         7
100
AcDbVertex
100
AcDb3dPolylineVertex
 10
138.3434824728
 20
-269.2216396017
 30
0.0
 70
        32
  0
VERTEX
  5
19B
100
AcDbEntity
  8
CK_LEVEL_1
  6
CONTINUOUS
 62
         7
100
AcDbVertex
100
AcDb3dPolylineVertex
 10
138.3398941029
 20
-269.2174312534
 30
0.0
 70
        32
  0
VERTEX
  5
19D
100
AcDbEntity
  8
CK_LEVEL_1
  6
CONTINUOUS
 62
         7
100
AcDbVertex
100
AcDb3dPolylineVertex
 10
138.336254657
 20
-269.2132692466
 30
0.0
 70
        32
  0
VERTEX
  5
19F
100
AcDbEntity
  8
CK_LEVEL_1
  6
CONTINUOUS
 62
         7
100
AcDbVertex
100
AcDb3dPolylineVertex
 10
138.3325634698
 20
-269.2091561085
 30
0.0
 70
        32
  0
VERTEX
  5
1A1
100
AcDbEntity
  8
CK_LEVEL_1
  6
CONTINUOUS
 62
         7
100
AcDbVertex
100
AcDb3dPolylineVertex
 10
138.3288198758
 20
-269.2050943668
 30
0.0
 70
        32
  0
VERTEX
  5
1A3
100
AcDbEntity
  8
CK_LEVEL_1
  6
CONTINUOUS
 62
         7
100
AcDbVertex
100
AcDb3dPolylineVertex
 10
138.3250232097
 20
-269.2010865489
 30
0.0
 70
        32
  0
VERTEX
  5
1A5
100
AcDbEntity
  8
CK_LEVEL_1
  6
CONTINUOUS
 62
         7
100
AcDbVertex
100
AcDb3dPolylineVertex
 10
138.3211728061
 20
-269.1971351822
 30
0.0
 70
        32
  0
VERTEX
  5
1A7
100
AcDbEntity
  8
CK_LEVEL_1
  6
CONTINUOUS
 62
         7
100
AcDbVertex
100
AcDb3dPolylineVertex
 10
138.3172636238
 20
-269.1932397017
 30
0.0
 70
        32
  0
VERTEX
  5
1A9
100
AcDbEntity
  8
CK_LEVEL_1
  6
CONTINUOUS
 62
         7
100
AcDbVertex
100
AcDb3dPolylineVertex
 10
138.31329434
 20
-269.1894082265
 30
0.0
 70
        32
  0
VERTEX
  5
1AB
100
AcDbEntity
  8
CK_LEVEL_1
  6
CONTINUOUS
 62
         7
100
AcDbVertex
100
AcDb3dPolylineVertex
 10
138.3092593544
 20
-269.1856456766
 30
0.0
 70
        32
  0
VERTEX
  5
1AD
100
AcDbEntity
  8
CK_LEVEL_1
  6
CONTINUOUS
 62
         7
100
AcDbVertex
100
AcDb3dPolylineVertex
 10
138.3051530666
 20
-269.181956972
 30
0.0
 70
        32
  0
VERTEX
  5
1AF
100
AcDbEntity
  8
CK_LEVEL_1
  6
CONTINUOUS
 62
         7
100
AcDbVertex
100
AcDb3dPolylineVertex
 10
138.3009698763
 20
-269.1783470327
 30
0.0
 70
        32
  0
VERTEX
  5
1B1
100
AcDbEntity
  8
CK_LEVEL_1
  6
CONTINUOUS
 62
         7
100
AcDbVertex
100
AcDb3dPolylineVertex
 10
138.2967041832
 20
-269.1748207786
 30
0.0
 70
        32
  0
VERTEX
  5
1B3
100
AcDbEntity
  8
CK_LEVEL_1
  6
CONTINUOUS
 62
         7
100
AcDbVertex
100
AcDb3dPolylineVertex
 10
138.292350387
 20
-269.1713831297
 30
0.0
 70
        32
  0
VERTEX
  5
1B5
100
AcDbEntity
  8
CK_LEVEL_1
  6
CONTINUOUS
 62
         7
100
AcDbVertex
100
AcDb3dPolylineVertex
 10
138.2879028874
 20
-269.1680390061
 30
0.0
 70
        32
  0
VERTEX
  5
1B7
100
AcDbEntity
  8
CK_LEVEL_1
  6
CONTINUOUS
 62
         7
100
AcDbVertex
100
AcDb3dPolylineVertex
 10
138.2833560841
 20
-269.1647933275
 30
0.0
 70
        32
  0
VERTEX
  5
1B9
100
AcDbEntity
  8
CK_LEVEL_1
  6
CONTINUOUS
 62
         7
100
AcDbVertex
100
AcDb3dPolylineVertex
 10
138.2740673254
 20
-269.1586899085
 30
0.0
 70
        32
  0
VERTEX
  5
1BB
100
AcDbEntity
  8
CK_LEVEL_1
  6
CONTINUOUS
 62
         7
100
AcDbVertex
100
AcDb3dPolylineVertex
 10
138.2644141995
 20
-269.1530567102
 30
0.0
 70
        32
  0
VERTEX
  5
1BD
100
AcDbEntity
  8
CK_LEVEL_1
  6
CONTINUOUS
 62
         7
100
AcDbVertex
100
AcDb3dPolylineVertex
 10
138.2544424012
 20
-269.1479599067
 30
0.0
 70
        32
  0
VERTEX
  5
1BF
100
AcDbEntity
  8
CK_LEVEL_1
  6
CONTINUOUS
 62
         7
100
AcDbVertex
100
AcDb3dPolylineVertex
 10
138.2441976253
 20
-269.1434656722
 30
0.0
 70
        32
  0
VERTEX
  5
1C1
100
AcDbEntity
  8
CK_LEVEL_1
  6
CONTINUOUS
 62
         7
100
AcDbVertex
100
AcDb3dPolylineVertex
 10
138.2337255666
 20
-269.1396401807
 30
0.0
 70
        32
  0
VERTEX
  5
1C3
100
AcDbEntity
  8
CK_LEVEL_1
  6
CONTINUOUS
 62
         7
100
AcDbVertex
100
AcDb3dPolylineVertex
 10
138.2230719201
 20
-269.1365496065
 30
0.0
 70
        32
  0
VERTEX
  5
1C5
100
AcDbEntity
  8
CK_LEVEL_1
  6
CONTINUOUS
 62
         7
100
AcDbVertex
100
AcDb3dPolylineVertex
 10
138.2122823806
 20
-269.1342601236
 30
0.0
 70
        32
  0
VERTEX
  5
1C7
100
AcDbEntity
  8
CK_LEVEL_1
  6
CONTINUOUS
 62
         7
100
AcDbVertex
100
AcDb3dPolylineVertex
 10
138.2014026428
 20
-269.1328379062
 30
0.0
 70
        32
  0
VERTEX
  5
1C9
100
AcDbEntity
  8
CK_LEVEL_1
  6
CONTINUOUS
 62
         7
100
AcDbVertex
100
AcDb3dPolylineVertex
 10
138.1904784018
 20
-269.1323491283
 30
0.0
 70
        32
  0
SEQEND
  5
1CB
100
AcDbEntity
  8
CK_LEVEL_1
  6
CONTINUOUS
 62
         7
  0
POLYLINE
  5
1CD
100
AcDbEntity
  8
CK_LEVEL_1
  6
CONTINUOUS
 62
         7
100
AcDb3dPolyline
 66
         1
 10
0.0
 20
0.0
 30
0.0
 70
         8
  0
VERTEX
  5
1CF
100
AcDbEntity
  8
CK_LEVEL_1
  6
CONTINUOUS
 62
         7
100
AcDbVertex
100
AcDb3dPolylineVertex
 10
87.9554341395
 20
-252.6662674979
 30
0.0
 70
        32
  0
VERTEX
  5
1D1
100
AcDbEntity
  8
CK_LEVEL_1
  6
CONTINUOUS
 62
         7
100
AcDbVertex
100
AcDb3dPolylineVertex
 10
88.1427308088
 20
-252.6432364673
 30
0.0
 70
        32
  0
VERTEX
  5
1D3
100
AcDbEntity
  8
CK_LEVEL_1
  6
CONTINUOUS
 62
         7
100
AcDbVertex
100
AcDb3dPolylineVertex
 10
88.329981417
 20
-252.6198358898
 30
0.0
 70
        32
  0
VERTEX
  5
1D5
100
AcDbEntity
  8
CK_LEVEL_1
  6
CONTINUOUS
 62
         7
100
AcDbVertex
100
AcDb3dPolylineVertex
 10
88.5171828997
 20
-252.5960450929
 30
0.0
 70
        32
  0
VERTEX
  5
1D7
100
AcDbEntity
  8
CK_LEVEL_1
  6
CONTINUOUS
 62
         7
100
AcDbVertex
100
AcDb3dPolylineVertex
 10
88.7043321922
 20
-252.5718434042
 30
0.0
 70
        32
  0
VERTEX
  5
1D9
100
AcDbEntity
  8
CK_LEVEL_1
  6
CONTINUOUS
 62
         7
100
AcDbVertex
100
AcDb3dPolylineVertex
 10
88.8914262303
 20
-252.5472101514
 30
0.0
 70
        32
  0
VERTEX
  5
1DB
100
AcDbEntity
  8
CK_LEVEL_1
  6
CONTINUOUS
 62
         7
100
AcDbVertex
100
AcDb3dPolylineVertex
 10
89.0784619494
 20
-252.5221246619
 30
0.0
 70
        32
  0
VERTEX
  5
1DD
100
AcDbEntity
  8
CK_LEVEL_1
  6
CONTINUOUS
 62
         7
100
AcDbVertex
100
AcDb3dPolylineVertex
 10
89.265436285
 20
-252.4965662635
 30
0.0
 70
        32
  0
VERTEX
  5
1DF
100
AcDbEntity
  8
CK_LEVEL_1
  6
CONTINUOUS
 62
         7
100
AcDbVertex
100
AcDb3dPolylineVertex
 10
89.4523461726
 20
-252.4705142836
 30
0.0
 70
        32
  0
VERTEX
  5
1E1
100
AcDbEntity
  8
CK_LEVEL_1
  6
CONTINUOUS
 62
         7
100
AcDbVertex
100
AcDb3dPolylineVertex
 10
89.6391885478
 20
-252.4439480499
 30
0.0
 70
        32
  0
VERTEX
  5
1E3
100
AcDbEntity
  8
CK_LEVEL_1
  6
CONTINUOUS
 62
         7
100
AcDbVertex
100
AcDb3dPolylineVertex
 10
89.825920209
 20
-252.4168453575
 30
0.0
 70
        32
  0
VERTEX
  5
1E5
100
AcDbEntity
  8
CK_LEVEL_1
  6
CONTINUOUS
 62
         7
100
AcDbVertex
100
AcDb3dPolylineVertex
 10
90.0125666942
 20
-252.3891444941
 30
0.0
 70
        32
  0
VERTEX
  5
1E7
100
AcDbEntity
  8
CK_LEVEL_1
  6
CONTINUOUS
 62
         7
100
AcDbVertex
100
AcDb3dPolylineVertex
 10
90.1991133751
 20
-252.360781996
 30
0.0
 70
        32
  0
VERTEX
  5
1E9
100
AcDbEntity
  8
CK_LEVEL_1
  6
CONTINUOUS
 62
         7
100
AcDbVertex
100
AcDb3dPolylineVertex
 10
90.3855456239
 20
-252.3316943996
 30
0.0
 70
        32
  0
VERTEX
  5
1EB
100
AcDbEntity
  8
CK_LEVEL_1
  6
CONTINUOUS
 62
         7
100
AcDbVertex
100
AcDb3dPolylineVertex
 10
90.5718488123
 20
-252.3018182412
 30
0.0
 70
        32
  0
VERTEX
  5
1ED
100
AcDbEntity
  8
CK_LEVEL_1
  6
CONTINUOUS
 62
         7
100
AcDbVertex
100
AcDb3dPolylineVertex
 10
90.7580083124
 20
-252.2710900571
 30
0.0
 70
        32
  0
VERTEX
  5
1EF
100
AcDbEntity
  8
CK_LEVEL_1
  6
CONTINUOUS
 62
         7
100
AcDbVertex
100
AcDb3dPolylineVertex
 10
90.9440094961
 20
-252.2394463837
 30
0.0
 70
        32
  0
VERTEX
  5
1F1
100
AcDbEntity
  8
CK_LEVEL_1
  6
CONTINUOUS
 62
         7
100
AcDbVertex
100
AcDb3dPolylineVertex
 10
91.1298377352
 20
-252.2068237573
 30
0.0
 70
        32
  0
VERTEX
  5
1F3
100
AcDbEntity
  8
CK_LEVEL_1
  6
CONTINUOUS
 62
         7
100
AcDbVertex
100
AcDb3dPolylineVertex
 10
91.3154784018
 20
-252.1731587142
 30
0.0
 70
        32
  0
SEQEND
  5
1F5
100
AcDbEntity
  8
CK_LEVEL_1
  6
CONTINUOUS
 62
         7
  0
POLYLINE
  5
1F7
100
AcDbEntity
  8
CK_LEVEL_1
  6
CONTINUOUS
 62
         7
100
AcDb3dPolyline
 66
         1
 10
0.0
 20
0.0
 30
0.0
 70
         8
  0
VERTEX
  5
1F9
100
AcDbEntity
  8
CK_LEVEL_1
  6
CONTINUOUS
 62
         7
100
AcDbVertex
100
AcDb3dPolylineVertex
 10
91.3154784018
 20
-252.1731587142
 30
0.0
 70
        32
  0
VERTEX
  5
1FB
100
AcDbEntity
  8
CK_LEVEL_1
  6
CONTINUOUS
 62
         7
100
AcDbVertex
100
AcDb3dPolylineVertex
 10
91.326781411
 20
-252.1712253532
 30
0.0
 70
        32
  0
VERTEX
  5
1FD
100
AcDbEntity
  8
CK_LEVEL_1
  6
CONTINUOUS
 62
         7
100
AcDbVertex
100
AcDb3dPolylineVertex
 10
91.3381390821
 20
-252.1695824038
 30
0.0
 70
        32
  0
VERTEX
  5
1FF
100
AcDbEntity
  8
CK_LEVEL_1
  6
CONTINUOUS
 62
         7
100
AcDbVertex
100
AcDb3dPolylineVertex
 10
91.349542363
 20
-252.1682307223
 30
0.0
 70
        32
  0
VERTEX
  5
201
100
AcDbEntity
  8
CK_LEVEL_1
  6
CONTINUOUS
 62
         7
100
AcDbVertex
100
AcDb3dPolylineVertex
 10
91.3609822017
 20
-252.1671711653
 30
0.0
 70
        32
  0
VERTEX
  5
203
100
AcDbEntity
  8
CK_LEVEL_1
  6
CONTINUOUS
 62
         7
100
AcDbVertex
100
AcDb3dPolylineVertex
 10
91.3724495458
 20
-252.166404589
 30
0.0
 70
        32
  0
VERTEX
  5
205
100
AcDbEntity
  8
CK_LEVEL_1
  6
CONTINUOUS
 62
         7
100
AcDbVertex
100
AcDb3dPolylineVertex
 10
91.3839353432
 20
-252.1659318499
 30
0.0
 70
        32
  0
VERTEX
  5
207
100
AcDbEntity
  8
CK_LEVEL_1
  6
CONTINUOUS
 62
         7
100
AcDbVertex
100
AcDb3dPolylineVertex
 10
91.3954305419
 20
-252.1657538043
 30
0.0
 70
        32
  0
VERTEX
  5
209
100
AcDbEntity
  8
CK_LEVEL_1
  6
CONTINUOUS
 62
         7
100
AcDbVertex
100
AcDb3dPolylineVertex
 10
91.4069260895
 20
-252.1658713088
 30
0.0
 70
        32
  0
VERTEX
  5
20B
100
AcDbEntity
  8
CK_LEVEL_1
  6
CONTINUOUS
 62
         7
100
AcDbVertex
100
AcDb3dPolylineVertex
 10
91.4184129341
 20
-252.1662852195
 30
0.0
 70
        32
  0
VERTEX
  5
20D
100
AcDbEntity
  8
CK_LEVEL_1
  6
CONTINUOUS
 62
         7
100
AcDbVertex
100
AcDb3dPolylineVertex
 10
91.429792356
 20
-252.1669887451
 30
0.0
 70
        32
  0
VERTEX
  5
20F
100
AcDbEntity
  8
CK_LEVEL_1
  6
CONTINUOUS
 62
         7
100
AcDbVertex
100
AcDb3dPolylineVertex
 10
91.4411481077
 20
-252.1679803551
 30
0.0
 70
        32
  0
VERTEX
  5
211
100
AcDbEntity
  8
CK_LEVEL_1
  6
CONTINUOUS
 62
         7
100
AcDbVertex
100
AcDb3dPolylineVertex
 10
91.452473996
 20
-252.1692555288
 30
0.0
 70
        32
  0
VERTEX
  5
213
100
AcDbEntity
  8
CK_LEVEL_1
  6
CONTINUOUS
 62
         7
100
AcDbVertex
100
AcDb3dPolylineVertex
 10
91.4637638277
 20
-252.1708097454
 30
0.0
 70
        32
  0
VERTEX
  5
215
100
AcDbEntity
  8
CK_LEVEL_1
  6
CONTINUOUS
 62
         7
100
AcDbVertex
100
AcDb3dPolylineVertex
 10
91.4750114097
 20
-252.1726384839
 30
0.0
 70
        32
  0
VERTEX
  5
217
100
AcDbEntity
  8
CK_LEVEL_1
  6
CONTINUOUS
 62
         7
100
AcDbVertex
100
AcDb3dPolylineVertex
 10
91.4862105488
 20
-252.1747372235
 30
0.0
 70
        32
  0
VERTEX
  5
219
100
AcDbEntity
  8
CK_LEVEL_1
  6
CONTINUOUS
 62
         7
100
AcDbVertex
100
AcDb3dPolylineVertex
 10
91.497355052
 20
-252.1771014434
 30
0.0
 70
        32
  0
VERTEX
  5
21B
100
AcDbEntity
  8
CK_LEVEL_1
  6
CONTINUOUS
 62
         7
100
AcDbVertex
100
AcDb3dPolylineVertex
 10
91.508438726
 20
-252.1797266227
 30
0.0
 70
        32
  0
VERTEX
  5
21D
100
AcDbEntity
  8
CK_LEVEL_1
  6
CONTINUOUS
 62
         7
100
AcDbVertex
100
AcDb3dPolylineVertex
 10
91.5194553777
 20
-252.1826082406
 30
0.0
 70
        32
  0
VERTEX
  5
21F
100
AcDbEntity
  8
CK_LEVEL_1
  6
CONTINUOUS
 62
         7
100
AcDbVertex
100
AcDb3dPolylineVertex
 10
91.5407587101
 20
-252.1889532392
 30
0.0
 70
        32
  0
VERTEX
  5
221
100
AcDbEntity
  8
CK_LEVEL_1
  6
CONTINUOUS
 62
         7
100
AcDbVertex
100
AcDb3dPolylineVertex
 10
91.5617782133
 20
-252.1961991454
 30
0.0
 70
        32
  0
VERTEX
  5
223
100
AcDbEntity
  8
CK_LEVEL_1
  6
CONTINUOUS
 62
         7
100
AcDbVertex
100
AcDb3dPolylineVertex
 10
91.5825092566
 20
-252.2042862096
 30
0.0
 70
        32
  0
VERTEX
  5
225
100
AcDbEntity
  8
CK_LEVEL_1
  6
CONTINUOUS
 62
         7
100
AcDbVertex
100
AcDb3dPolylineVertex
 10
91.6029472089
 20
-252.2131546819
 30
0.0
 70
        32
  0
VERTEX
  5
227
100
AcDbEntity
  8
CK_LEVEL_1
  6
CONTINUOUS
 62
         7
100
AcDbVertex
100
AcDb3dPolylineVertex
 10
91.6230874393
 20
-252.2227448128
 30
0.0
 70
        32
  0
VERTEX
  5
229
100
AcDbEntity
  8
CK_LEVEL_1
  6
CONTINUOUS
 62
         7
100
AcDbVertex
100
AcDb3dPolylineVertex
 10
91.6429253169
 20
-252.2329968526
 30
0.0
 70
        32
  0
VERTEX
  5
22B
100
AcDbEntity
  8
CK_LEVEL_1
  6
CONTINUOUS
 62
         7
100
AcDbVertex
100
AcDb3dPolylineVertex
 10
91.6624562106
 20
-252.2438510516
 30
0.0
 70
        32
  0
VERTEX
  5
22D
100
AcDbEntity
  8
CK_LEVEL_1
  6
CONTINUOUS
 62
         7
100
AcDbVertex
100
AcDb3dPolylineVertex
 10
91.6816754895
 20
-252.25524766
 30
0.0
 70
        32
  0
VERTEX
  5
22F
100
AcDbEntity
  8
CK_LEVEL_1
  6
CONTINUOUS
 62
         7
100
AcDbVertex
100
AcDb3dPolylineVertex
 10
91.7005785227
 20
-252.2671269283
 30
0.0
 70
        32
  0
VERTEX
  5
231
100
AcDbEntity
  8
CK_LEVEL_1
  6
CONTINUOUS
 62
         7
100
AcDbVertex
100
AcDb3dPolylineVertex
 10
91.7188022751
 20
-252.2791900151
 30
0.0
 70
        32
  0
VERTEX
  5
233
100
AcDbEntity
  8
CK_LEVEL_1
  6
CONTINUOUS
 62
         7
100
AcDbVertex
100
AcDb3dPolylineVertex
 10
91.736730227
 20
-252.2916381338
 30
0.0
 70
        32
  0
VERTEX
  5
235
100
AcDbEntity
  8
CK_LEVEL_1
  6
CONTINUOUS
 62
         7
100
AcDbVertex
100
AcDb3dPolylineVertex
 10
91.7543749949
 20
-252.3044498276
 30
0.0
 70
        32
  0
VERTEX
  5
237
100
AcDbEntity
  8
CK_LEVEL_1
  6
CONTINUOUS
 62
         7
100
AcDbVertex
100
AcDb3dPolylineVertex
 10
91.7717491952
 20
-252.31760364
 30
0.0
 70
        32
  0
VERTEX
  5
239
100
AcDbEntity
  8
CK_LEVEL_1
  6
CONTINUOUS
 62
         7
100
AcDbVertex
100
AcDb3dPolylineVertex
 10
91.7888654445
 20
-252.3310781143
 30
0.0
 70
        32
  0
VERTEX
  5
23B
100
AcDbEntity
  8
CK_LEVEL_1
  6
CONTINUOUS
 62
         7
100
AcDbVertex
100
AcDb3dPolylineVertex
 10
91.8057363591
 20
-252.344851794
 30
0.0
 70
        32
  0
VERTEX
  5
23D
100
AcDbEntity
  8
CK_LEVEL_1
  6
CONTINUOUS
 62
         7
100
AcDbVertex
100
AcDb3dPolylineVertex
 10
91.8223745555
 20
-252.3589032224
 30
0.0
 70
        32
  0
VERTEX
  5
23F
100
AcDbEntity
  8
CK_LEVEL_1
  6
CONTINUOUS
 62
         7
100
AcDbVertex
100
AcDb3dPolylineVertex
 10
91.8387926502
 20
-252.373210943
 30
0.0
 70
        32
  0
VERTEX
  5
241
100
AcDbEntity
  8
CK_LEVEL_1
  6
CONTINUOUS
 62
         7
100
AcDbVertex
100
AcDb3dPolylineVertex
 10
91.8550032596
 20
-252.3877534991
 30
0.0
 70
        32
  0
VERTEX
  5
243
100
AcDbEntity
  8
CK_LEVEL_1
  6
CONTINUOUS
 62
         7
100
AcDbVertex
100
AcDb3dPolylineVertex
 10
91.8708602072
 20
-252.402364533
 30
0.0
 70
        32
  0
VERTEX
  5
245
100
AcDbEntity
  8
CK_LEVEL_1
  6
CONTINUOUS
 62
         7
100
AcDbVertex
100
AcDb3dPolylineVertex
 10
91.8865306559
 20
-252.4171761206
 30
0.0
 70
        32
  0
VERTEX
  5
247
100
AcDbEntity
  8
CK_LEVEL_1
  6
CONTINUOUS
 62
         7
100
AcDbVertex
100
AcDb3dPolylineVertex
 10
91.9020191395
 20
-252.4321796372
 30
0.0
 70
        32
  0
VERTEX
  5
249
100
AcDbEntity
  8
CK_LEVEL_1
  6
CONTINUOUS
 62
         7
100
AcDbVertex
100
AcDb3dPolylineVertex
 10
91.9173301918
 20
-252.447366458
 30
0.0
 70
        32
  0
VERTEX
  5
24B
100
AcDbEntity
  8
CK_LEVEL_1
  6
CONTINUOUS
 62
         7
100
AcDbVertex
100
AcDb3dPolylineVertex
 10
91.9324683467
 20
-252.4627279582
 30
0.0
 70
        32
  0
VERTEX
  5
24D
100
AcDbEntity
  8
CK_LEVEL_1
  6
CONTINUOUS
 62
         7
100
AcDbVertex
100
AcDb3dPolylineVertex
 10
91.947438138
 20
-252.478255513
 30
0.0
 70
        32
  0
VERTEX
  5
24F
100
AcDbEntity
  8
CK_LEVEL_1
  6
CONTINUOUS
 62
         7
100
AcDbVertex
100
AcDb3dPolylineVertex
 10
91.9622440995
 20
-252.4939404977
 30
0.0
 70
        32
  0
VERTEX
  5
251
100
AcDbEntity
  8
CK_LEVEL_1
  6
CONTINUOUS
 62
         7
100
AcDbVertex
100
AcDb3dPolylineVertex
 10
91.976890765
 20
-252.5097742876
 30
0.0
 70
        32
  0
VERTEX
  5
253
100
AcDbEntity
  8
CK_LEVEL_1
  6
CONTINUOUS
 62
         7
100
AcDbVertex
100
AcDb3dPolylineVertex
 10
91.9913826685
 20
-252.5257482578
 30
0.0
 70
        32
  0
VERTEX
  5
255
100
AcDbEntity
  8
CK_LEVEL_1
  6
CONTINUOUS
 62
         7
100
AcDbVertex
100
AcDb3dPolylineVertex
 10
92.0056524663
 20
-252.5417734144
 30
0.0
 70
        32
  0
VERTEX
  5
257
100
AcDbEntity
  8
CK_LEVEL_1
  6
CONTINUOUS
 62
         7
100
AcDbVertex
100
AcDb3dPolylineVertex
 10
92.0197763268
 20
-252.5579248786
 30
0.0
 70
        32
  0
VERTEX
  5
259
100
AcDbEntity
  8
CK_LEVEL_1
  6
CONTINUOUS
 62
         7
100
AcDbVertex
100
AcDb3dPolylineVertex
 10
92.033757037
 20
-252.5741987195
 30
0.0
 70
        32
  0
VERTEX
  5
25B
100
AcDbEntity
  8
CK_LEVEL_1
  6
CONTINUOUS
 62
         7
100
AcDbVertex
100
AcDb3dPolylineVertex
 10
92.0475973841
 20
-252.590591006
 30
0.0
 70
        32
  0
VERTEX
  5
25D
100
AcDbEntity
  8
CK_LEVEL_1
  6
CONTINUOUS
 62
         7
100
AcDbVertex
100
AcDb3dPolylineVertex
 10
92.0613001552
 20
-252.6070978072
 30
0.0
 70
        32
  0
VERTEX
  5
25F
100
AcDbEntity
  8
CK_LEVEL_1
  6
CONTINUOUS
 62
         7
100
AcDbVertex
100
AcDb3dPolylineVertex
 10
92.0748681372
 20
-252.623715192
 30
0.0
 70
        32
  0
VERTEX
  5
261
100
AcDbEntity
  8
CK_LEVEL_1
  6
CONTINUOUS
 62
         7
100
AcDbVertex
100
AcDb3dPolylineVertex
 10
92.0883041174
 20
-252.6404392295
 30
0.0
 70
        32
  0
VERTEX
  5
263
100
AcDbEntity
  8
CK_LEVEL_1
  6
CONTINUOUS
 62
         7
100
AcDbVertex
100
AcDb3dPolylineVertex
 10
92.1016108828
 20
-252.6572659887
 30
0.0
 70
        32
  0
VERTEX
  5
265
100
AcDbEntity
  8
CK_LEVEL_1
  6
CONTINUOUS
 62
         7
100
AcDbVertex
100
AcDb3dPolylineVertex
 10
92.1147912205
 20
-252.6741915385
 30
0.0
 70
        32
  0
VERTEX
  5
267
100
AcDbEntity
  8
CK_LEVEL_1
  6
CONTINUOUS
 62
         7
100
AcDbVertex
100
AcDb3dPolylineVertex
 10
92.1278142328
 20
-252.6911683635
 30
0.0
 70
        32
  0
VERTEX
  5
269
100
AcDbEntity
  8
CK_LEVEL_1
  6
CONTINUOUS
 62
         7
100
AcDbVertex
100
AcDb3dPolylineVertex
 10
92.1407154918
 20
-252.7082375757
 30
0.0
 70
        32
  0
VERTEX
  5
26B
100
AcDbEntity
  8
CK_LEVEL_1
  6
CONTINUOUS
 62
         7
100
AcDbVertex
100
AcDb3dPolylineVertex
 10
92.1534962497
 20
-252.7253971902
 30
0.0
 70
        32
  0
VERTEX
  5
26D
100
AcDbEntity
  8
CK_LEVEL_1
  6
CONTINUOUS
 62
         7
100
AcDbVertex
100
AcDb3dPolylineVertex
 10
92.1661577584
 20
-252.7426452219
 30
0.0
 70
        32
  0
VERTEX
  5
26F
100
AcDbEntity
  8
CK_LEVEL_1
  6
CONTINUOUS
 62
         7
100
AcDbVertex
100
AcDb3dPolylineVertex
 10
92.1787012699
 20
-252.7599796859
 30
0.0
 70
        32
  0
VERTEX
  5
271
100
AcDbEntity
  8
CK_LEVEL_1
  6
CONTINUOUS
 62
         7
100
AcDbVertex
100
AcDb3dPolylineVertex
 10
92.1911280364
 20
-252.7773985971
 30
0.0
 70
        32
  0
VERTEX
  5
273
100
AcDbEntity
  8
CK_LEVEL_1
  6
CONTINUOUS
 62
         7
100
AcDbVertex
100
AcDb3dPolylineVertex
 10
92.2034393098
 20
-252.7948999706
 30
0.0
 70
        32
  0
VERTEX
  5
275
100
AcDbEntity
  8
CK_LEVEL_1
  6
CONTINUOUS
 62
         7
100
AcDbVertex
100
AcDb3dPolylineVertex
 10
92.2156363421
 20
-252.8124818213
 30
0.0
 70
        32
  0
VERTEX
  5
277
100
AcDbEntity
  8
CK_LEVEL_1
  6
CONTINUOUS
 62
         7
100
AcDbVertex
100
AcDb3dPolylineVertex
 10
92.2277203855
 20
-252.8301421643
 30
0.0
 70
        32
  0
VERTEX
  5
279
100
AcDbEntity
  8
CK_LEVEL_1
  6
CONTINUOUS
 62
         7
100
AcDbVertex
100
AcDb3dPolylineVertex
 10
92.2515111056
 20
-252.8656285472
 30
0.0
 70
        32
  0
VERTEX
  5
27B
100
AcDbEntity
  8
CK_LEVEL_1
  6
CONTINUOUS
 62
         7
100
AcDbVertex
100
AcDb3dPolylineVertex
 10
92.2748567419
 20
-252.9014121051
 30
0.0
 70
        32
  0
VERTEX
  5
27D
100
AcDbEntity
  8
CK_LEVEL_1
  6
CONTINUOUS
 62
         7
100
AcDbVertex
100
AcDb3dPolylineVertex
 10
92.2977575775
 20
-252.9374850665
 30
0.0
 70
        32
  0
VERTEX
  5
27F
100
AcDbEntity
  8
CK_LEVEL_1
  6
CONTINUOUS
 62
         7
100
AcDbVertex
100
AcDb3dPolylineVertex
 10
92.3202138957
 20
-252.9738396597
 30
0.0
 70
        32
  0
VERTEX
  5
281
100
AcDbEntity
  8
CK_LEVEL_1
  6
CONTINUOUS
 62
         7
100
AcDbVertex
100
AcDb3dPolylineVertex
 10
92.3422259798
 20
-253.010468113
 30
0.0
 70
        32
  0
VERTEX
  5
283
100
AcDbEntity
  8
CK_LEVEL_1
  6
CONTINUOUS
 62
         7
100
AcDbVertex
100
AcDb3dPolylineVertex
 10
92.3637941129
 20
-253.0473626549
 30
0.0
 70
        32
  0
VERTEX
  5
285
100
AcDbEntity
  8
CK_LEVEL_1
  6
CONTINUOUS
 62
         7
100
AcDbVertex
100
AcDb3dPolylineVertex
 10
92.3849185784
 20
-253.0845155136
 30
0.0
 70
        32
  0
VERTEX
  5
287
100
AcDbEntity
  8
CK_LEVEL_1
  6
CONTINUOUS
 62
         7
100
AcDbVertex
100
AcDb3dPolylineVertex
 10
92.4055996593
 20
-253.1219189177
 30
0.0
 70
        32
  0
VERTEX
  5
289
100
AcDbEntity
  8
CK_LEVEL_1
  6
CONTINUOUS
 62
         7
100
AcDbVertex
100
AcDb3dPolylineVertex
 10
92.4258376389
 20
-253.1595650955
 30
0.0
 70
        32
  0
VERTEX
  5
28B
100
AcDbEntity
  8
CK_LEVEL_1
  6
CONTINUOUS
 62
         7
100
AcDbVertex
100
AcDb3dPolylineVertex
 10
92.445642351
 20
-253.1974668844
 30
0.0
 70
        32
  0
VERTEX
  5
28D
100
AcDbEntity
  8
CK_LEVEL_1
  6
CONTINUOUS
 62
         7
100
AcDbVertex
100
AcDb3dPolylineVertex
 10
92.4649990058
 20
-253.2355987522
 30
0.0
 70
        32
  0
VERTEX
  5
28F
100
AcDbEntity
  8
CK_LEVEL_1
  6
CONTINUOUS
 62
         7
100
AcDbVertex
100
AcDb3dPolylineVertex
 10
92.4839028343
 20
-253.2739555263
 30
0.0
 70
        32
  0
VERTEX
  5
291
100
AcDbEntity
  8
CK_LEVEL_1
  6
CONTINUOUS
 62
         7
100
AcDbVertex
100
AcDb3dPolylineVertex
 10
92.5023490678
 20
-253.312532034
 30
0.0
 70
        32
  0
VERTEX
  5
293
100
AcDbEntity
  8
CK_LEVEL_1
  6
CONTINUOUS
 62
         7
100
AcDbVertex
100
AcDb3dPolylineVertex
 10
92.5203329374
 20
-253.3513231025
 30
0.0
 70
        32
  0
VERTEX
  5
295
100
AcDbEntity
  8
CK_LEVEL_1
  6
CONTINUOUS
 62
         7
100
AcDbVertex
100
AcDb3dPolylineVertex
 10
92.5378496741
 20
-253.3903235592
 30
0.0
 70
        32
  0
VERTEX
  5
297
100
AcDbEntity
  8
CK_LEVEL_1
  6
CONTINUOUS
 62
         7
100
AcDbVertex
100
AcDb3dPolylineVertex
 10
92.5548945091
 20
-253.4295282313
 30
0.0
 70
        32
  0
VERTEX
  5
299
100
AcDbEntity
  8
CK_LEVEL_1
  6
CONTINUOUS
 62
         7
100
AcDbVertex
100
AcDb3dPolylineVertex
 10
92.5714626734
 20
-253.4689319462
 30
0.0
 70
        32
  0
VERTEX
  5
29B
100
AcDbEntity
  8
CK_LEVEL_1
  6
CONTINUOUS
 62
         7
100
AcDbVertex
100
AcDb3dPolylineVertex
 10
92.5875493982
 20
-253.5085295311
 30
0.0
 70
        32
  0
VERTEX
  5
29D
100
AcDbEntity
  8
CK_LEVEL_1
  6
CONTINUOUS
 62
         7
100
AcDbVertex
100
AcDb3dPolylineVertex
 10
92.6031897759
 20
-253.5484207145
 30
0.0
 70
        32
  0
VERTEX
  5
29F
100
AcDbEntity
  8
CK_LEVEL_1
  6
CONTINUOUS
 62
         7
100
AcDbVertex
100
AcDb3dPolylineVertex
 10
92.6183348816
 20
-253.5885001856
 30
0.0
 70
        32
  0
VERTEX
  5
2A1
100
AcDbEntity
  8
CK_LEVEL_1
  6
CONTINUOUS
 62
         7
100
AcDbVertex
100
AcDb3dPolylineVertex
 10
92.6329781976
 20
-253.6287665468
 30
0.0
 70
        32
  0
VERTEX
  5
2A3
100
AcDbEntity
  8
CK_LEVEL_1
  6
CONTINUOUS
 62
         7
100
AcDbVertex
100
AcDb3dPolylineVertex
 10
92.6471132059
 20
-253.6692184005
 30
0.0
 70
        32
  0
VERTEX
  5
2A5
100
AcDbEntity
  8
CK_LEVEL_1
  6
CONTINUOUS
 62
         7
100
AcDbVertex
100
AcDb3dPolylineVertex
 10
92.6607333888
 20
-253.7098543491
 30
0.0
 70
        32
  0
VERTEX
  5
2A7
100
AcDbEntity
  8
CK_LEVEL_1
  6
CONTINUOUS
 62
         7
100
AcDbVertex
100
AcDb3dPolylineVertex
 10
92.6738322283
 20
-253.7506729949
 30
0.0
 70
        32
  0
VERTEX
  5
2A9
100
AcDbEntity
  8
CK_LEVEL_1
  6
CONTINUOUS
 62
         7
100
AcDbVertex
100
AcDb3dPolylineVertex
 10
92.6864032068
 20
-253.7916729405
 30
0.0
 70
        32
  0
VERTEX
  5
2AB
100
AcDbEntity
  8
CK_LEVEL_1
  6
CONTINUOUS
 62
         7
100
AcDbVertex
100
AcDb3dPolylineVertex
 10
92.6984398063
 20
-253.832852788
 30
0.0
 70
        32
  0
VERTEX
  5
2AD
100
AcDbEntity
  8
CK_LEVEL_1
  6
CONTINUOUS
 62
         7
100
AcDbVertex
100
AcDb3dPolylineVertex
 10
92.7099355091
 20
-253.8742111399
 30
0.0
 70
        32
  0
VERTEX
  5
2AF
100
AcDbEntity
  8
CK_LEVEL_1
  6
CONTINUOUS
 62
         7
100
AcDbVertex
100
AcDb3dPolylineVertex
 10
92.731390477
 20
-253.957917433
 30
0.0
 70
        32
  0
VERTEX
  5
2B1
100
AcDbEntity
  8
CK_LEVEL_1
  6
CONTINUOUS
 62
         7
100
AcDbVertex
100
AcDb3dPolylineVertex
 10
92.750565702
 20
-254.0422504675
 30
0.0
 70
        32
  0
VERTEX
  5
2B3
100
AcDbEntity
  8
CK_LEVEL_1
  6
CONTINUOUS
 62
         7
100
AcDbVertex
100
AcDb3dPolylineVertex
 10
92.7673959333
 20
-254.1271205231
 30
0.0
 70
        32
  0
VERTEX
  5
2B5
100
AcDbEntity
  8
CK_LEVEL_1
  6
CONTINUOUS
 62
         7
100
AcDbVertex
100
AcDb3dPolylineVertex
 10
92.7818159199
 20
-254.2124378794
 30
0.0
 70
        32
  0
VERTEX
  5
2B7
100
AcDbEntity
  8
CK_LEVEL_1
  6
CONTINUOUS
 62
         7
100
AcDbVertex
100
AcDb3dPolylineVertex
 10
92.793760411
 20
-254.2981128163
 30
0.0
 70
        32
  0
VERTEX
  5
2B9
100
AcDbEntity
  8
CK_LEVEL_1
  6
CONTINUOUS
 62
         7
100
AcDbVertex
100
AcDb3dPolylineVertex
 10
92.8031641556
 20
-254.3840556133
 30
0.0
 70
        32
  0
VERTEX
  5
2BB
100
AcDbEntity
  8
CK_LEVEL_1
  6
CONTINUOUS
 62
         7
100
AcDbVertex
100
AcDb3dPolylineVertex
 10
92.8099619029
 20
-254.4701765502
 30
0.0
 70
        32
  0
VERTEX
  5
2BD
100
AcDbEntity
  8
CK_LEVEL_1
  6
CONTINUOUS
 62
         7
100
AcDbVertex
100
AcDb3dPolylineVertex
 10
92.8140884019
 20
-254.5563859068
 30
0.0
 70
        32
  0
VERTEX
  5
2BF
100
AcDbEntity
  8
CK_LEVEL_1
  6
CONTINUOUS
 62
         7
100
AcDbVertex
100
AcDb3dPolylineVertex
 10
92.8154784018
 20
-254.6425939626
 30
0.0
 70
        32
  0
SEQEND
  5
2C1
100
AcDbEntity
  8
CK_LEVEL_1
  6
CONTINUOUS
 62
         7
  0
POLYLINE
  5
2C3
100
AcDbEntity
  8
CK_LEVEL_1
  6
CONTINUOUS
 62
         7
100
AcDb3dPolyline
 66
         1
 10
0.0
 20
0.0
 30
0.0
 70
         8
  0
VERTEX
  5
2C5
100
AcDbEntity
  8
CK_LEVEL_1
  6
CONTINUOUS
 62
         7
100
AcDbVertex
100
AcDb3dPolylineVertex
 10
135.0552771627
 20
-253.7838799
 30
0.0
 70
        32
  0
VERTEX
  5
2C7
100
AcDbEntity
  8
CK_LEVEL_1
  6
CONTINUOUS
 62
         7
100
AcDbVertex
100
AcDb3dPolylineVertex
 10
135.0604867893
 20
-253.8053349228
 30
0.0
 70
        32
  0
VERTEX
  5
2C9
100
AcDbEntity
  8
CK_LEVEL_1
  6
CONTINUOUS
 62
         7
100
AcDbVertex
100
AcDb3dPolylineVertex
 10
135.0658482247
 20
-253.8267531707
 30
0.0
 70
        32
  0
VERTEX
  5
2CB
100
AcDbEntity
  8
CK_LEVEL_1
  6
CONTINUOUS
 62
         7
100
AcDbVertex
100
AcDb3dPolylineVertex
 10
135.071367069
 20
-253.8481320533
 30
0.0
 70
        32
  0
VERTEX
  5
2CD
100
AcDbEntity
  8
CK_LEVEL_1
  6
CONTINUOUS
 62
         7
100
AcDbVertex
100
AcDb3dPolylineVertex
 10
135.0770489219
 20
-253.8694689804
 30
0.0
 70
        32
  0
VERTEX
  5
2CF
100
AcDbEntity
  8
CK_LEVEL_1
  6
CONTINUOUS
 62
         7
100
AcDbVertex
100
AcDb3dPolylineVertex
 10
135.0828993833
 20
-253.8907613616
 30
0.0
 70
        32
  0
VERTEX
  5
2D1
100
AcDbEntity
  8
CK_LEVEL_1
  6
CONTINUOUS
 62
         7
100
AcDbVertex
100
AcDb3dPolylineVertex
 10
135.088924053
 20
-253.9120066067
 30
0.0
 70
        32
  0
VERTEX
  5
2D3
100
AcDbEntity
  8
CK_LEVEL_1
  6
CONTINUOUS
 62
         7
100
AcDbVertex
100
AcDb3dPolylineVertex
 10
135.0951285308
 20
-253.9332021253
 30
0.0
 70
        32
  0
VERTEX
  5
2D5
100
AcDbEntity
  8
CK_LEVEL_1
  6
CONTINUOUS
 62
         7
100
AcDbVertex
100
AcDb3dPolylineVertex
 10
135.1015184166
 20
-253.9543453272
 30
0.0
 70
        32
  0
VERTEX
  5
2D7
100
AcDbEntity
  8
CK_LEVEL_1
  6
CONTINUOUS
 62
         7
100
AcDbVertex
100
AcDb3dPolylineVertex
 10
135.1080993102
 20
-253.975433622
 30
0.0
 70
        32
  0
VERTEX
  5
2D9
100
AcDbEntity
  8
CK_LEVEL_1
  6
CONTINUOUS
 62
         7
100
AcDbVertex
100
AcDb3dPolylineVertex
 10
135.1148766299
 20
-253.9964580782
 30
0.0
 70
        32
  0
VERTEX
  5
2DB
100
AcDbEntity
  8
CK_LEVEL_1
  6
CONTINUOUS
 62
         7
100
AcDbVertex
100
AcDb3dPolylineVertex
 10
135.1218650764
 20
-254.0174152982
 30
0.0
 70
        32
  0
VERTEX
  5
2DD
100
AcDbEntity
  8
CK_LEVEL_1
  6
CONTINUOUS
 62
         7
100
AcDbVertex
100
AcDb3dPolylineVertex
 10
135.1290792651
 20
-254.0382955151
 30
0.0
 70
        32
  0
VERTEX
  5
2DF
100
AcDbEntity
  8
CK_LEVEL_1
  6
CONTINUOUS
 62
         7
100
AcDbVertex
100
AcDb3dPolylineVertex
 10
135.1365338115
 20
-254.0590889619
 30
0.0
 70
        32
  0
VERTEX
  5
2E1
100
AcDbEntity
  8
CK_LEVEL_1
  6
CONTINUOUS
 62
         7
100
AcDbVertex
100
AcDb3dPolylineVertex
 10
135.144243331
 20
-254.0797858715
 30
0.0
 70
        32
  0
VERTEX
  5
2E3
100
AcDbEntity
  8
CK_LEVEL_1
  6
CONTINUOUS
 62
         7
100
AcDbVertex
100
AcDb3dPolylineVertex
 10
135.1522224392
 20
-254.1003764771
 30
0.0
 70
        32
  0
VERTEX
  5
2E5
100
AcDbEntity
  8
CK_LEVEL_1
  6
CONTINUOUS
 62
         7
100
AcDbVertex
100
AcDb3dPolylineVertex
 10
135.1604857514
 20
-254.1208510117
 30
0.0
 70
        32
  0
VERTEX
  5
2E7
100
AcDbEntity
  8
CK_LEVEL_1
  6
CONTINUOUS
 62
         7
100
AcDbVertex
100
AcDb3dPolylineVertex
 10
135.169047883
 20
-254.1411997082
 30
0.0
 70
        32
  0
VERTEX
  5
2E9
100
AcDbEntity
  8
CK_LEVEL_1
  6
CONTINUOUS
 62
         7
100
AcDbVertex
100
AcDb3dPolylineVertex
 10
135.1779234497
 20
-254.1614127997
 30
0.0
 70
        32
  0
VERTEX
  5
2EB
100
AcDbEntity
  8
CK_LEVEL_1
  6
CONTINUOUS
 62
         7
100
AcDbVertex
100
AcDb3dPolylineVertex
 10
135.1824851779
 20
-254.1714683663
 30
0.0
 70
        32
  0
VERTEX
  5
2ED
100
AcDbEntity
  8
CK_LEVEL_1
  6
CONTINUOUS
 62
         7
100
AcDbVertex
100
AcDb3dPolylineVertex
 10
135.1871330066
 20
-254.18148464
 30
0.0
 70
        32
  0
VERTEX
  5
2EF
100
AcDbEntity
  8
CK_LEVEL_1
  6
CONTINUOUS
 62
         7
100
AcDbVertex
100
AcDb3dPolylineVertex
 10
135.1918709715
 20
-254.1914586944
 30
0.0
 70
        32
  0
VERTEX
  5
2F1
100
AcDbEntity
  8
CK_LEVEL_1
  6
CONTINUOUS
 62
         7
100
AcDbVertex
100
AcDb3dPolylineVertex
 10
135.1967031081
 20
-254.2013876029
 30
0.0
 70
        32
  0
VERTEX
  5
2F3
100
AcDbEntity
  8
CK_LEVEL_1
  6
CONTINUOUS
 62
         7
100
AcDbVertex
100
AcDb3dPolylineVertex
 10
135.2016334519
 20
-254.211268439
 30
0.0
 70
        32
  0
VERTEX
  5
2F5
100
AcDbEntity
  8
CK_LEVEL_1
  6
CONTINUOUS
 62
         7
100
AcDbVertex
100
AcDb3dPolylineVertex
 10
135.2066660385
 20
-254.221098276
 30
0.0
 70
        32
  0
VERTEX
  5
2F7
100
AcDbEntity
  8
CK_LEVEL_1
  6
CONTINUOUS
 62
         7
100
AcDbVertex
100
AcDb3dPolylineVertex
 10
135.2118049034
 20
-254.2308741875
 30
0.0
 70
        32
  0
VERTEX
  5
2F9
100
AcDbEntity
  8
CK_LEVEL_1
  6
CONTINUOUS
 62
         7
100
AcDbVertex
100
AcDb3dPolylineVertex
 10
135.2170540821
 20
-254.2405932469
 30
0.0
 70
        32
  0
VERTEX
  5
2FB
100
AcDbEntity
  8
CK_LEVEL_1
  6
CONTINUOUS
 62
         7
100
AcDbVertex
100
AcDb3dPolylineVertex
 10
135.2224176102
 20
-254.2502525276
 30
0.0
 70
        32
  0
VERTEX
  5
2FD
100
AcDbEntity
  8
CK_LEVEL_1
  6
CONTINUOUS
 62
         7
100
AcDbVertex
100
AcDb3dPolylineVertex
 10
135.2278987688
 20
-254.2598455341
 30
0.0
 70
        32
  0
VERTEX
  5
2FF
100
AcDbEntity
  8
CK_LEVEL_1
  6
CONTINUOUS
 62
         7
100
AcDbVertex
100
AcDb3dPolylineVertex
 10
135.2335065803
 20
-254.2693667584
 30
0.0
 70
        32
  0
VERTEX
  5
301
100
AcDbEntity
  8
CK_LEVEL_1
  6
CONTINUOUS
 62
         7
100
AcDbVertex
100
AcDb3dPolylineVertex
 10
135.2392493756
 20
-254.2788070907
 30
0.0
 70
        32
  0
VERTEX
  5
303
100
AcDbEntity
  8
CK_LEVEL_1
  6
CONTINUOUS
 62
         7
100
AcDbVertex
100
AcDb3dPolylineVertex
 10
135.2451354854
 20
-254.2881574206
 30
0.0
 70
        32
  0
VERTEX
  5
305
100
AcDbEntity
  8
CK_LEVEL_1
  6
CONTINUOUS
 62
         7
100
AcDbVertex
100
AcDb3dPolylineVertex
 10
135.2511732407
 20
-254.2974086382
 30
0.0
 70
        32
  0
VERTEX
  5
307
100
AcDbEntity
  8
CK_LEVEL_1
  6
CONTINUOUS
 62
         7
100
AcDbVertex
100
AcDb3dPolylineVertex
 10
135.2573709722
 20
-254.3065516332
 30
0.0
 70
        32
  0
VERTEX
  5
309
100
AcDbEntity
  8
CK_LEVEL_1
  6
CONTINUOUS
 62
         7
100
AcDbVertex
100
AcDb3dPolylineVertex
 10
135.2637370107
 20
-254.3155772957
 30
0.0
 70
        32
  0
VERTEX
  5
30B
100
AcDbEntity
  8
CK_LEVEL_1
  6
CONTINUOUS
 62
         7
100
AcDbVertex
100
AcDb3dPolylineVertex
 10
135.2702796871
 20
-254.3244765154
 30
0.0
 70
        32
  0
VERTEX
  5
30D
100
AcDbEntity
  8
CK_LEVEL_1
  6
CONTINUOUS
 62
         7
100
AcDbVertex
100
AcDb3dPolylineVertex
 10
135.2770073323
 20
-254.3332401823
 30
0.0
 70
        32
  0
VERTEX
  5
30F
100
AcDbEntity
  8
CK_LEVEL_1
  6
CONTINUOUS
 62
         7
100
AcDbVertex
100
AcDb3dPolylineVertex
 10
135.2804465307
 20
-254.3375724316
 30
0.0
 70
        32
  0
VERTEX
  5
311
100
AcDbEntity
  8
CK_LEVEL_1
  6
CONTINUOUS
 62
         7
100
AcDbVertex
100
AcDb3dPolylineVertex
 10
135.2839348133
 20
-254.3418659184
 30
0.0
 70
        32
  0
VERTEX
  5
313
100
AcDbEntity
  8
CK_LEVEL_1
  6
CONTINUOUS
 62
         7
100
AcDbVertex
100
AcDb3dPolylineVertex
 10
135.2874728422
 20
-254.3461181186
 30
0.0
 70
        32
  0
VERTEX
  5
315
100
AcDbEntity
  8
CK_LEVEL_1
  6
CONTINUOUS
 62
         7
100
AcDbVertex
100
AcDb3dPolylineVertex
 10
135.2910612797
 20
-254.3503265081
 30
0.0
 70
        32
  0
VERTEX
  5
317
100
AcDbEntity
  8
CK_LEVEL_1
  6
CONTINUOUS
 62
         7
100
AcDbVertex
100
AcDb3dPolylineVertex
 10
135.2947007881
 20
-254.3544885629
 30
0.0
 70
        32
  0
VERTEX
  5
319
100
AcDbEntity
  8
CK_LEVEL_1
  6
CONTINUOUS
 62
         7
100
AcDbVertex
100
AcDb3dPolylineVertex
 10
135.2983920294
 20
-254.3586017588
 30
0.0
 70
        32
  0
VERTEX
  5
31B
100
AcDbEntity
  8
CK_LEVEL_1
  6
CONTINUOUS
 62
         7
100
AcDbVertex
100
AcDb3dPolylineVertex
 10
135.302135666
 20
-254.3626635718
 30
0.0
 70
        32
  0
VERTEX
  5
31D
100
AcDbEntity
  8
CK_LEVEL_1
  6
CONTINUOUS
 62
         7
100
AcDbVertex
100
AcDb3dPolylineVertex
 10
135.30593236
 20
-254.3666714776
 30
0.0
 70
        32
  0
VERTEX
  5
31F
100
AcDbEntity
  8
CK_LEVEL_1
  6
CONTINUOUS
 62
         7
100
AcDbVertex
100
AcDb3dPolylineVertex
 10
135.3097827737
 20
-254.3706229523
 30
0.0
 70
        32
  0
VERTEX
  5
321
100
AcDbEntity
  8
CK_LEVEL_1
  6
CONTINUOUS
 62
         7
100
AcDbVertex
100
AcDb3dPolylineVertex
 10
135.3136916671
 20
-254.3745182889
 30
0.0
 70
        32
  0
VERTEX
  5
323
100
AcDbEntity
  8
CK_LEVEL_1
  6
CONTINUOUS
 62
         7
100
AcDbVertex
100
AcDb3dPolylineVertex
 10
135.317660637
 20
-254.378349648
 30
0.0
 70
        32
  0
VERTEX
  5
325
100
AcDbEntity
  8
CK_LEVEL_1
  6
CONTINUOUS
 62
         7
100
AcDbVertex
100
AcDb3dPolylineVertex
 10
135.3216952876
 20
-254.3821121058
 30
0.0
 70
        32
  0
VERTEX
  5
327
100
AcDbEntity
  8
CK_LEVEL_1
  6
CONTINUOUS
 62
         7
100
AcDbVertex
100
AcDb3dPolylineVertex
 10
135.325801223
 20
-254.3858007382
 30
0.0
 70
        32
  0
VERTEX
  5
329
100
AcDbEntity
  8
CK_LEVEL_1
  6
CONTINUOUS
 62
         7
100
AcDbVertex
100
AcDb3dPolylineVertex
 10
135.3299840473
 20
-254.3894106214
 30
0.0
 70
        32
  0
VERTEX
  5
32B
100
AcDbEntity
  8
CK_LEVEL_1
  6
CONTINUOUS
 62
         7
100
AcDbVertex
100
AcDb3dPolylineVertex
 10
135.3342493646
 20
-254.3929368315
 30
0.0
 70
        32
  0
VERTEX
  5
32D
100
AcDbEntity
  8
CK_LEVEL_1
  6
CONTINUOUS
 62
         7
100
AcDbVertex
100
AcDb3dPolylineVertex
 10
135.338602779
 20
-254.3963744444
 30
0.0
 70
        32
  0
VERTEX
  5
32F
100
AcDbEntity
  8
CK_LEVEL_1
  6
CONTINUOUS
 62
         7
100
AcDbVertex
100
AcDb3dPolylineVertex
 10
135.3430498946
 20
-254.3997185363
 30
0.0
 70
        32
  0
VERTEX
  5
331
100
AcDbEntity
  8
CK_LEVEL_1
  6
CONTINUOUS
 62
         7
100
AcDbVertex
100
AcDb3dPolylineVertex
 10
135.3475963154
 20
-254.4029641832
 30
0.0
 70
        32
  0
VERTEX
  5
333
100
AcDbEntity
  8
CK_LEVEL_1
  6
CONTINUOUS
 62
         7
100
AcDbVertex
100
AcDb3dPolylineVertex
 10
135.356885343
 20
-254.4090681617
 30
0.0
 70
        32
  0
VERTEX
  5
335
100
AcDbEntity
  8
CK_LEVEL_1
  6
CONTINUOUS
 62
         7
100
AcDbVertex
100
AcDb3dPolylineVertex
 10
135.3665388302
 20
-254.414701826
 30
0.0
 70
        32
  0
VERTEX
  5
337
100
AcDbEntity
  8
CK_LEVEL_1
  6
CONTINUOUS
 62
         7
100
AcDbVertex
100
AcDb3dPolylineVertex
 10
135.3765110661
 20
-254.4197990092
 30
0.0
 70
        32
  0
VERTEX
  5
339
100
AcDbEntity
  8
CK_LEVEL_1
  6
CONTINUOUS
 62
         7
100
AcDbVertex
100
AcDb3dPolylineVertex
 10
135.3867563401
 20
-254.4242935447
 30
0.0
 70
        32
  0
VERTEX
  5
33B
100
AcDbEntity
  8
CK_LEVEL_1
  6
CONTINUOUS
 62
         7
100
AcDbVertex
100
AcDb3dPolylineVertex
 10
135.3972289413
 20
-254.4281192658
 30
0.0
 70
        32
  0
VERTEX
  5
33D
100
AcDbEntity
  8
CK_LEVEL_1
  6
CONTINUOUS
 62
         7
100
AcDbVertex
100
AcDb3dPolylineVertex
 10
135.4078831589
 20
-254.4312100058
 30
0.0
 70
        32
  0
VERTEX
  5
33F
100
AcDbEntity
  8
CK_LEVEL_1
  6
CONTINUOUS
 62
         7
100
AcDbVertex
100
AcDb3dPolylineVertex
 10
135.4186732821
 20
-254.4334995979
 30
0.0
 70
        32
  0
VERTEX
  5
341
100
AcDbEntity
  8
CK_LEVEL_1
  6
CONTINUOUS
 62
         7
100
AcDbVertex
100
AcDb3dPolylineVertex
 10
135.4295536
 20
-254.4349218754
 30
0.0
 70
        32
  0
VERTEX
  5
343
100
AcDbEntity
  8
CK_LEVEL_1
  6
CONTINUOUS
 62
         7
100
AcDbVertex
100
AcDb3dPolylineVertex
 10
135.4404784018
 20
-254.4354106716
 30
0.0
 70
        32
  0
SEQEND
  5
345
100
AcDbEntity
  8
CK_LEVEL_1
  6
CONTINUOUS
 62
         7
  0
POLYLINE
  5
347
100
AcDbEntity
  8
CK_LEVEL_1
  6
CONTINUOUS
 62
         7
100
AcDb3dPolyline
 66
         1
 10
0.0
 20
0.0
 30
0.0
 70
         8
  0
VERTEX
  5
349
100
AcDbEntity
  8
CK_LEVEL_1
  6
CONTINUOUS
 62
         7
100
AcDbVertex
100
AcDb3dPolylineVertex
 10
92.8154784018
 20
-268.9251658373
 30
0.0
 70
        32
  0
VERTEX
  5
34B
100
AcDbEntity
  8
CK_LEVEL_1
  6
CONTINUOUS
 62
         7
100
AcDbVertex
100
AcDb3dPolylineVertex
 10
92.8140884035
 20
-269.0113738582
 30
0.0
 70
        32
  0
VERTEX
  5
34D
100
AcDbEntity
  8
CK_LEVEL_1
  6
CONTINUOUS
 62
         7
100
AcDbVertex
100
AcDb3dPolylineVertex
 10
92.809961909
 20
-269.09758318
 30
0.0
 70
        32
  0
VERTEX
  5
34F
100
AcDbEntity
  8
CK_LEVEL_1
  6
CONTINUOUS
 62
         7
100
AcDbVertex
100
AcDb3dPolylineVertex
 10
92.8031641688
 20
-269.1837040824
 30
0.0
 70
        32
  0
VERTEX
  5
351
100
AcDbEntity
  8
CK_LEVEL_1
  6
CONTINUOUS
 62
         7
100
AcDbVertex
100
AcDb3dPolylineVertex
 10
92.7937604335
 20
-269.2696468452
 30
0.0
 70
        32
  0
VERTEX
  5
353
100
AcDbEntity
  8
CK_LEVEL_1
  6
CONTINUOUS
 62
         7
100
AcDbVertex
100
AcDb3dPolylineVertex
 10
92.7818159536
 20
-269.355321748
 30
0.0
 70
        32
  0
VERTEX
  5
355
100
AcDbEntity
  8
CK_LEVEL_1
  6
CONTINUOUS
 62
         7
100
AcDbVertex
100
AcDb3dPolylineVertex
 10
92.7673959797
 20
-269.4406390705
 30
0.0
 70
        32
  0
VERTEX
  5
357
100
AcDbEntity
  8
CK_LEVEL_1
  6
CONTINUOUS
 62
         7
100
AcDbVertex
100
AcDb3dPolylineVertex
 10
92.7505657625
 20
-269.5255090926
 30
0.0
 70
        32
  0
VERTEX
  5
359
100
AcDbEntity
  8
CK_LEVEL_1
  6
CONTINUOUS
 62
         7
100
AcDbVertex
100
AcDb3dPolylineVertex
 10
92.7313905523
 20
-269.6098420938
 30
0.0
 70
        32
  0
VERTEX
  5
35B
100
AcDbEntity
  8
CK_LEVEL_1
  6
CONTINUOUS
 62
         7
100
AcDbVertex
100
AcDb3dPolylineVertex
 10
92.7099355998
 20
-269.6935483539
 30
0.0
 70
        32
  0
VERTEX
  5
35D
100
AcDbEntity
  8
CK_LEVEL_1
  6
CONTINUOUS
 62
         7
100
AcDbVertex
100
AcDb3dPolylineVertex
 10
92.6984399099
 20
-269.7349066718
 30
0.0
 70
        32
  0
VERTEX
  5
35F
100
AcDbEntity
  8
CK_LEVEL_1
  6
CONTINUOUS
 62
         7
100
AcDbVertex
100
AcDb3dPolylineVertex
 10
92.6864033238
 20
-269.7760864856
 30
0.0
 70
        32
  0
VERTEX
  5
361
100
AcDbEntity
  8
CK_LEVEL_1
  6
CONTINUOUS
 62
         7
100
AcDbVertex
100
AcDb3dPolylineVertex
 10
92.6738323594
 20
-269.8170863976
 30
0.0
 70
        32
  0
VERTEX
  5
363
100
AcDbEntity
  8
CK_LEVEL_1
  6
CONTINUOUS
 62
         7
100
AcDbVertex
100
AcDb3dPolylineVertex
 10
92.6607335346
 20
-269.8579050104
 30
0.0
 70
        32
  0
VERTEX
  5
365
100
AcDbEntity
  8
CK_LEVEL_1
  6
CONTINUOUS
 62
         7
100
AcDbVertex
100
AcDb3dPolylineVertex
 10
92.6471133673
 20
-269.8985409264
 30
0.0
 70
        32
  0
VERTEX
  5
367
100
AcDbEntity
  8
CK_LEVEL_1
  6
CONTINUOUS
 62
         7
100
AcDbVertex
100
AcDb3dPolylineVertex
 10
92.6329783755
 20
-269.9389927479
 30
0.0
 70
        32
  0
VERTEX
  5
369
100
AcDbEntity
  8
CK_LEVEL_1
  6
CONTINUOUS
 62
         7
100
AcDbVertex
100
AcDb3dPolylineVertex
 10
92.6183350769
 20
-269.9792590774
 30
0.0
 70
        32
  0
VERTEX
  5
36B
100
AcDbEntity
  8
CK_LEVEL_1
  6
CONTINUOUS
 62
         7
100
AcDbVertex
100
AcDb3dPolylineVertex
 10
92.6031899895
 20
-270.0193385173
 30
0.0
 70
        32
  0
VERTEX
  5
36D
100
AcDbEntity
  8
CK_LEVEL_1
  6
CONTINUOUS
 62
         7
100
AcDbVertex
100
AcDb3dPolylineVertex
 10
92.5875496312
 20
-270.0592296701
 30
0.0
 70
        32
  0
VERTEX
  5
36F
100
AcDbEntity
  8
CK_LEVEL_1
  6
CONTINUOUS
 62
         7
100
AcDbVertex
100
AcDb3dPolylineVertex
 10
92.5714629278
 20
-270.0988272229
 30
0.0
 70
        32
  0
VERTEX
  5
371
100
AcDbEntity
  8
CK_LEVEL_1
  6
CONTINUOUS
 62
         7
100
AcDbVertex
100
AcDb3dPolylineVertex
 10
92.5548947859
 20
-270.1382309063
 30
0.0
 70
        32
  0
VERTEX
  5
373
100
AcDbEntity
  8
CK_LEVEL_1
  6
CONTINUOUS
 62
         7
100
AcDbVertex
100
AcDb3dPolylineVertex
 10
92.5378499745
 20
-270.1774355473
 30
0.0
 70
        32
  0
VERTEX
  5
375
100
AcDbEntity
  8
CK_LEVEL_1
  6
CONTINUOUS
 62
         7
100
AcDbVertex
100
AcDb3dPolylineVertex
 10
92.5203332623
 20
-270.2164359734
 30
0.0
 70
        32
  0
VERTEX
  5
377
100
AcDbEntity
  8
CK_LEVEL_1
  6
CONTINUOUS
 62
         7
100
AcDbVertex
100
AcDb3dPolylineVertex
 10
92.5023494181
 20
-270.2552270117
 30
0.0
 70
        32
  0
VERTEX
  5
379
100
AcDbEntity
  8
CK_LEVEL_1
  6
CONTINUOUS
 62
         7
100
AcDbVertex
100
AcDb3dPolylineVertex
 10
92.4839032107
 20
-270.2938034894
 30
0.0
 70
        32
  0
VERTEX
  5
37B
100
AcDbEntity
  8
CK_LEVEL_1
  6
CONTINUOUS
 62
         7
100
AcDbVertex
100
AcDb3dPolylineVertex
 10
92.4649994091
 20
-270.3321602337
 30
0.0
 70
        32
  0
VERTEX
  5
37D
100
AcDbEntity
  8
CK_LEVEL_1
  6
CONTINUOUS
 62
         7
100
AcDbVertex
100
AcDb3dPolylineVertex
 10
92.4456427819
 20
-270.3702920719
 30
0.0
 70
        32
  0
VERTEX
  5
37F
100
AcDbEntity
  8
CK_LEVEL_1
  6
CONTINUOUS
 62
         7
100
AcDbVertex
100
AcDb3dPolylineVertex
 10
92.425838098
 20
-270.4081938312
 30
0.0
 70
        32
  0
VERTEX
  5
381
100
AcDbEntity
  8
CK_LEVEL_1
  6
CONTINUOUS
 62
         7
100
AcDbVertex
100
AcDb3dPolylineVertex
 10
92.4056001496
 20
-270.4458399747
 30
0.0
 70
        32
  0
VERTEX
  5
383
100
AcDbEntity
  8
CK_LEVEL_1
  6
CONTINUOUS
 62
         7
100
AcDbVertex
100
AcDb3dPolylineVertex
 10
92.3849191008
 20
-270.4832433449
 30
0.0
 70
        32
  0
VERTEX
  5
385
100
AcDbEntity
  8
CK_LEVEL_1
  6
CONTINUOUS
 62
         7
100
AcDbVertex
100
AcDb3dPolylineVertex
 10
92.3637946684
 20
-270.5203961706
 30
0.0
 70
        32
  0
VERTEX
  5
387
100
AcDbEntity
  8
CK_LEVEL_1
  6
CONTINUOUS
 62
         7
100
AcDbVertex
100
AcDb3dPolylineVertex
 10
92.3422265694
 20
-270.5572906805
 30
0.0
 70
        32
  0
VERTEX
  5
389
100
AcDbEntity
  8
CK_LEVEL_1
  6
CONTINUOUS
 62
         7
100
AcDbVertex
100
AcDb3dPolylineVertex
 10
92.3202145208
 20
-270.5939191034
 30
0.0
 70
        32
  0
VERTEX
  5
38B
100
AcDbEntity
  8
CK_LEVEL_1
  6
CONTINUOUS
 62
         7
100
AcDbVertex
100
AcDb3dPolylineVertex
 10
92.2977582394
 20
-270.6302736679
 30
0.0
 70
        32
  0
VERTEX
  5
38D
100
AcDbEntity
  8
CK_LEVEL_1
  6
CONTINUOUS
 62
         7
100
AcDbVertex
100
AcDb3dPolylineVertex
 10
92.2748574423
 20
-270.6663466029
 30
0.0
 70
        32
  0
VERTEX
  5
38F
100
AcDbEntity
  8
CK_LEVEL_1
  6
CONTINUOUS
 62
         7
100
AcDbVertex
100
AcDb3dPolylineVertex
 10
92.2515118463
 20
-270.7021301371
 30
0.0
 70
        32
  0
VERTEX
  5
391
100
AcDbEntity
  8
CK_LEVEL_1
  6
CONTINUOUS
 62
         7
100
AcDbVertex
100
AcDb3dPolylineVertex
 10
92.2277211684
 20
-270.7376164992
 30
0.0
 70
        32
  0
VERTEX
  5
393
100
AcDbEntity
  8
CK_LEVEL_1
  6
CONTINUOUS
 62
         7
100
AcDbVertex
100
AcDb3dPolylineVertex
 10
92.2156371444
 20
-270.7552768363
 30
0.0
 70
        32
  0
VERTEX
  5
395
100
AcDbEntity
  8
CK_LEVEL_1
  6
CONTINUOUS
 62
         7
100
AcDbVertex
100
AcDb3dPolylineVertex
 10
92.2034401318
 20
-270.7728586816
 30
0.0
 70
        32
  0
VERTEX
  5
397
100
AcDbEntity
  8
CK_LEVEL_1
  6
CONTINUOUS
 62
         7
100
AcDbVertex
100
AcDb3dPolylineVertex
 10
92.1911288781
 20
-270.7903600496
 30
0.0
 70
        32
  0
VERTEX
  5
399
100
AcDbEntity
  8
CK_LEVEL_1
  6
CONTINUOUS
 62
         7
100
AcDbVertex
100
AcDb3dPolylineVertex
 10
92.1787021311
 20
-270.8077789547
 30
0.0
 70
        32
  0
VERTEX
  5
39B
100
AcDbEntity
  8
CK_LEVEL_1
  6
CONTINUOUS
 62
         7
100
AcDbVertex
100
AcDb3dPolylineVertex
 10
92.1661586387
 20
-270.8251134117
 30
0.0
 70
        32
  0
VERTEX
  5
39D
100
AcDbEntity
  8
CK_LEVEL_1
  6
CONTINUOUS
 62
         7
100
AcDbVertex
100
AcDb3dPolylineVertex
 10
92.1534971484
 20
-270.842361435
 30
0.0
 70
        32
  0
VERTEX
  5
39F
100
AcDbEntity
  8
CK_LEVEL_1
  6
CONTINUOUS
 62
         7
100
AcDbVertex
100
AcDb3dPolylineVertex
 10
92.140716408
 20
-270.8595210392
 30
0.0
 70
        32
  0
VERTEX
  5
3A1
100
AcDbEntity
  8
CK_LEVEL_1
  6
CONTINUOUS
 62
         7
100
AcDbVertex
100
AcDb3dPolylineVertex
 10
92.1278151653
 20
-270.8765902388
 30
0.0
 70
        32
  0
VERTEX
  5
3A3
100
AcDbEntity
  8
CK_LEVEL_1
  6
CONTINUOUS
 62
         7
100
AcDbVertex
100
AcDb3dPolylineVertex
 10
92.1147921679
 20
-270.8935670485
 30
0.0
 70
        32
  0
VERTEX
  5
3A5
100
AcDbEntity
  8
CK_LEVEL_1
  6
CONTINUOUS
 62
         7
100
AcDbVertex
100
AcDb3dPolylineVertex
 10
92.1016118571
 20
-270.9104925632
 30
0.0
 70
        32
  0
VERTEX
  5
3A7
100
AcDbEntity
  8
CK_LEVEL_1
  6
CONTINUOUS
 62
         7
100
AcDbVertex
100
AcDb3dPolylineVertex
 10
92.0883051183
 20
-270.9273192862
 30
0.0
 70
        32
  0
VERTEX
  5
3A9
100
AcDbEntity
  8
CK_LEVEL_1
  6
CONTINUOUS
 62
         7
100
AcDbVertex
100
AcDb3dPolylineVertex
 10
92.0748691655
 20
-270.9440432883
 30
0.0
 70
        32
  0
VERTEX
  5
3AB
100
AcDbEntity
  8
CK_LEVEL_1
  6
CONTINUOUS
 62
         7
100
AcDbVertex
100
AcDb3dPolylineVertex
 10
92.0613012125
 20
-270.9606606406
 30
0.0
 70
        32
  0
VERTEX
  5
3AD
100
AcDbEntity
  8
CK_LEVEL_1
  6
CONTINUOUS
 62
         7
100
AcDbVertex
100
AcDb3dPolylineVertex
 10
92.0475984735
 20
-270.9771674139
 30
0.0
 70
        32
  0
VERTEX
  5
3AF
100
AcDbEntity
  8
CK_LEVEL_1
  6
CONTINUOUS
 62
         7
100
AcDbVertex
100
AcDb3dPolylineVertex
 10
92.0337581623
 20
-270.9935596792
 30
0.0
 70
        32
  0
VERTEX
  5
3B1
100
AcDbEntity
  8
CK_LEVEL_1
  6
CONTINUOUS
 62
         7
100
AcDbVertex
100
AcDb3dPolylineVertex
 10
92.0197774928
 20
-271.0098335075
 30
0.0
 70
        32
  0
VERTEX
  5
3B3
100
AcDbEntity
  8
CK_LEVEL_1
  6
CONTINUOUS
 62
         7
100
AcDbVertex
100
AcDb3dPolylineVertex
 10
92.0056536792
 20
-271.0259849696
 30
0.0
 70
        32
  0
VERTEX
  5
3B5
100
AcDbEntity
  8
CK_LEVEL_1
  6
CONTINUOUS
 62
         7
100
AcDbVertex
100
AcDb3dPolylineVertex
 10
91.9913839353
 20
-271.0420101366
 30
0.0
 70
        32
  0
VERTEX
  5
3B7
100
AcDbEntity
  8
CK_LEVEL_1
  6
CONTINUOUS
 62
         7
100
AcDbVertex
100
AcDb3dPolylineVertex
 10
91.9768920485
 20
-271.0579841793
 30
0.0
 70
        32
  0
VERTEX
  5
3B9
100
AcDbEntity
  8
CK_LEVEL_1
  6
CONTINUOUS
 62
         7
100
AcDbVertex
100
AcDb3dPolylineVertex
 10
91.9622454033
 20
-271.0738180487
 30
0.0
 70
        32
  0
VERTEX
  5
3BB
100
AcDbEntity
  8
CK_LEVEL_1
  6
CONTINUOUS
 62
         7
100
AcDbVertex
100
AcDb3dPolylineVertex
 10
91.9474394625
 20
-271.0895031132
 30
0.0
 70
        32
  0
VERTEX
  5
3BD
100
AcDbEntity
  8
CK_LEVEL_1
  6
CONTINUOUS
 62
         7
100
AcDbVertex
100
AcDb3dPolylineVertex
 10
91.9324696887
 20
-271.1050307413
 30
0.0
 70
        32
  0
VERTEX
  5
3BF
100
AcDbEntity
  8
CK_LEVEL_1
  6
CONTINUOUS
 62
         7
100
AcDbVertex
100
AcDb3dPolylineVertex
 10
91.9173315447
 20
-271.1203923015
 30
0.0
 70
        32
  0
VERTEX
  5
3C1
100
AcDbEntity
  8
CK_LEVEL_1
  6
CONTINUOUS
 62
         7
100
AcDbVertex
100
AcDb3dPolylineVertex
 10
91.9020204931
 20
-271.1355791622
 30
0.0
 70
        32
  0
VERTEX
  5
3C3
100
AcDbEntity
  8
CK_LEVEL_1
  6
CONTINUOUS
 62
         7
100
AcDbVertex
100
AcDb3dPolylineVertex
 10
91.8865319966
 20
-271.1505826921
 30
0.0
 70
        32
  0
VERTEX
  5
3C5
100
AcDbEntity
  8
CK_LEVEL_1
  6
CONTINUOUS
 62
         7
100
AcDbVertex
100
AcDb3dPolylineVertex
 10
91.8708615179
 20
-271.1653942595
 30
0.0
 70
        32
  0
VERTEX
  5
3C7
100
AcDbEntity
  8
CK_LEVEL_1
  6
CONTINUOUS
 62
         7
100
AcDbVertex
100
AcDb3dPolylineVertex
 10
91.8550045197
 20
-271.180005233
 30
0.0
 70
        32
  0
VERTEX
  5
3C9
100
AcDbEntity
  8
CK_LEVEL_1
  6
CONTINUOUS
 62
         7
100
AcDbVertex
100
AcDb3dPolylineVertex
 10
91.8387940565
 20
-271.1945474902
 30
0.0
 70
        32
  0
VERTEX
  5
3CB
100
AcDbEntity
  8
CK_LEVEL_1
  6
CONTINUOUS
 62
         7
100
AcDbVertex
100
AcDb3dPolylineVertex
 10
91.8223760969
 20
-271.2088548896
 30
0.0
 70
        32
  0
VERTEX
  5
3CD
100
AcDbEntity
  8
CK_LEVEL_1
  6
CONTINUOUS
 62
         7
100
AcDbVertex
100
AcDb3dPolylineVertex
 10
91.8057380327
 20
-271.2229059941
 30
0.0
 70
        32
  0
VERTEX
  5
3CF
100
AcDbEntity
  8
CK_LEVEL_1
  6
CONTINUOUS
 62
         7
100
AcDbVertex
100
AcDb3dPolylineVertex
 10
91.7888672555
 20
-271.2366793671
 30
0.0
 70
        32
  0
VERTEX
  5
3D1
100
AcDbEntity
  8
CK_LEVEL_1
  6
CONTINUOUS
 62
         7
100
AcDbVertex
100
AcDb3dPolylineVertex
 10
91.7717511573
 20
-271.2501535717
 30
0.0
 70
        32
  0
VERTEX
  5
3D3
100
AcDbEntity
  8
CK_LEVEL_1
  6
CONTINUOUS
 62
         7
100
AcDbVertex
100
AcDb3dPolylineVertex
 10
91.7543771296
 20
-271.263307171
 30
0.0
 70
        32
  0
VERTEX
  5
3D5
100
AcDbEntity
  8
CK_LEVEL_1
  6
CONTINUOUS
 62
         7
100
AcDbVertex
100
AcDb3dPolylineVertex
 10
91.7367325643
 20
-271.2761187282
 30
0.0
 70
        32
  0
VERTEX
  5
3D7
100
AcDbEntity
  8
CK_LEVEL_1
  6
CONTINUOUS
 62
         7
100
AcDbVertex
100
AcDb3dPolylineVertex
 10
91.718804853
 20
-271.2885668066
 30
0.0
 70
        32
  0
VERTEX
  5
3D9
100
AcDbEntity
  8
CK_LEVEL_1
  6
CONTINUOUS
 62
         7
100
AcDbVertex
100
AcDb3dPolylineVertex
 10
91.7005813875
 20
-271.3006299691
 30
0.0
 70
        32
  0
VERTEX
  5
3DB
100
AcDbEntity
  8
CK_LEVEL_1
  6
CONTINUOUS
 62
         7
100
AcDbVertex
100
AcDb3dPolylineVertex
 10
91.6816783922
 20
-271.3125096322
 30
0.0
 70
        32
  0
VERTEX
  5
3DD
100
AcDbEntity
  8
CK_LEVEL_1
  6
CONTINUOUS
 62
         7
100
AcDbVertex
100
AcDb3dPolylineVertex
 10
91.6624591852
 20
-271.3239067201
 30
0.0
 70
        32
  0
VERTEX
  5
3DF
100
AcDbEntity
  8
CK_LEVEL_1
  6
CONTINUOUS
 62
         7
100
AcDbVertex
100
AcDb3dPolylineVertex
 10
91.6429283849
 20
-271.3347614399
 30
0.0
 70
        32
  0
VERTEX
  5
3E1
100
AcDbEntity
  8
CK_LEVEL_1
  6
CONTINUOUS
 62
         7
100
AcDbVertex
100
AcDb3dPolylineVertex
 10
91.6230906102
 20
-271.3450139987
 30
0.0
 70
        32
  0
VERTEX
  5
3E3
100
AcDbEntity
  8
CK_LEVEL_1
  6
CONTINUOUS
 62
         7
100
AcDbVertex
100
AcDb3dPolylineVertex
 10
91.6029504794
 20
-271.3546046039
 30
0.0
 70
        32
  0
VERTEX
  5
3E5
100
AcDbEntity
  8
CK_LEVEL_1
  6
CONTINUOUS
 62
         7
100
AcDbVertex
100
AcDb3dPolylineVertex
 10
91.5825126113
 20
-271.3634734626
 30
0.0
 70
        32
  0
VERTEX
  5
3E7
100
AcDbEntity
  8
CK_LEVEL_1
  6
CONTINUOUS
 62
         7
100
AcDbVertex
100
AcDb3dPolylineVertex
 10
91.5617816244
 20
-271.371560782
 30
0.0
 70
        32
  0
VERTEX
  5
3E9
100
AcDbEntity
  8
CK_LEVEL_1
  6
CONTINUOUS
 62
         7
100
AcDbVertex
100
AcDb3dPolylineVertex
 10
91.5407621374
 20
-271.3788067693
 30
0.0
 70
        32
  0
VERTEX
  5
3EB
100
AcDbEntity
  8
CK_LEVEL_1
  6
CONTINUOUS
 62
         7
100
AcDbVertex
100
AcDb3dPolylineVertex
 10
91.5194587688
 20
-271.3851516318
 30
0.0
 70
        32
  0
VERTEX
  5
3ED
100
AcDbEntity
  8
CK_LEVEL_1
  6
CONTINUOUS
 62
         7
100
AcDbVertex
100
AcDb3dPolylineVertex
 10
91.508441887
 20
-271.3880331329
 30
0.0
 70
        32
  0
VERTEX
  5
3EF
100
AcDbEntity
  8
CK_LEVEL_1
  6
CONTINUOUS
 62
         7
100
AcDbVertex
100
AcDb3dPolylineVertex
 10
91.4973579664
 20
-271.3906581379
 30
0.0
 70
        32
  0
VERTEX
  5
3F1
100
AcDbEntity
  8
CK_LEVEL_1
  6
CONTINUOUS
 62
         7
100
AcDbVertex
100
AcDb3dPolylineVertex
 10
91.4862132033
 20
-271.3930221455
 30
0.0
 70
        32
  0
VERTEX
  5
3F3
100
AcDbEntity
  8
CK_LEVEL_1
  6
CONTINUOUS
 62
         7
100
AcDbVertex
100
AcDb3dPolylineVertex
 10
91.4750137938
 20
-271.3951206542
 30
0.0
 70
        32
  0
VERTEX
  5
3F5
100
AcDbEntity
  8
CK_LEVEL_1
  6
CONTINUOUS
 62
         7
100
AcDbVertex
100
AcDb3dPolylineVertex
 10
91.463765934
 20
-271.3969491624
 30
0.0
 70
        32
  0
VERTEX
  5
3F7
100
AcDbEntity
  8
CK_LEVEL_1
  6
CONTINUOUS
 62
         7
100
AcDbVertex
100
AcDb3dPolylineVertex
 10
91.4524758202
 20
-271.3985031688
 30
0.0
 70
        32
  0
VERTEX
  5
3F9
100
AcDbEntity
  8
CK_LEVEL_1
  6
CONTINUOUS
 62
         7
100
AcDbVertex
100
AcDb3dPolylineVertex
 10
91.4411496486
 20
-271.399778172
 30
0.0
 70
        32
  0
VERTEX
  5
3FB
100
AcDbEntity
  8
CK_LEVEL_1
  6
CONTINUOUS
 62
         7
100
AcDbVertex
100
AcDb3dPolylineVertex
 10
91.4297936153
 20
-271.4007696703
 30
0.0
 70
        32
  0
VERTEX
  5
3FD
100
AcDbEntity
  8
CK_LEVEL_1
  6
CONTINUOUS
 62
         7
100
AcDbVertex
100
AcDb3dPolylineVertex
 10
91.4184139165
 20
-271.4014731625
 30
0.0
 70
        32
  0
VERTEX
  5
3FF
100
AcDbEntity
  8
CK_LEVEL_1
  6
CONTINUOUS
 62
         7
100
AcDbVertex
100
AcDb3dPolylineVertex
 10
91.4069269418
 20
-271.4018871279
 30
0.0
 70
        32
  0
VERTEX
  5
401
100
AcDbEntity
  8
CK_LEVEL_1
  6
CONTINUOUS
 62
         7
100
AcDbVertex
100
AcDb3dPolylineVertex
 10
91.3954312714
 20
-271.4020047693
 30
0.0
 70
        32
  0
VERTEX
  5
403
100
AcDbEntity
  8
CK_LEVEL_1
  6
CONTINUOUS
 62
         7
100
AcDbVertex
100
AcDb3dPolylineVertex
 10
91.3839359566
 20
-271.4018269189
 30
0.0
 70
        32
  0
VERTEX
  5
405
100
AcDbEntity
  8
CK_LEVEL_1
  6
CONTINUOUS
 62
         7
100
AcDbVertex
100
AcDb3dPolylineVertex
 10
91.3724500485
 20
-271.4013544086
 30
0.0
 70
        32
  0
VERTEX
  5
407
100
AcDbEntity
  8
CK_LEVEL_1
  6
CONTINUOUS
 62
         7
100
AcDbVertex
100
AcDb3dPolylineVertex
 10
91.3609825983
 20
-271.4005880707
 30
0.0
 70
        32
  0
VERTEX
  5
409
100
AcDbEntity
  8
CK_LEVEL_1
  6
CONTINUOUS
 62
         7
100
AcDbVertex
100
AcDb3dPolylineVertex
 10
91.3495426574
 20
-271.3995287374
 30
0.0
 70
        32
  0
VERTEX
  5
40B
100
AcDbEntity
  8
CK_LEVEL_1
  6
CONTINUOUS
 62
         7
100
AcDbVertex
100
AcDb3dPolylineVertex
 10
91.3381392768
 20
-271.3981772407
 30
0.0
 70
        32
  0
VERTEX
  5
40D
100
AcDbEntity
  8
CK_LEVEL_1
  6
CONTINUOUS
 62
         7
100
AcDbVertex
100
AcDb3dPolylineVertex
 10
91.3267815079
 20
-271.3965344127
 30
0.0
 70
        32
  0
VERTEX
  5
40F
100
AcDbEntity
  8
CK_LEVEL_1
  6
CONTINUOUS
 62
         7
100
AcDbVertex
100
AcDb3dPolylineVertex
 10
91.3154784018
 20
-271.3946010857
 30
0.0
 70
        32
  0
SEQEND
  5
411
100
AcDbEntity
  8
CK_LEVEL_1
  6
CONTINUOUS
 62
         7
  0
POLYLINE
  5
413
100
AcDbEntity
  8
CK_LEVEL_1
  6
CONTINUOUS
 62
         7
100
AcDb3dPolyline
 66
         1
 10
0.0
 20
0.0
 30
0.0
 70
         8
  0
VERTEX
  5
415
100
AcDbEntity
  8
CK_LEVEL_1
  6
CONTINUOUS
 62
         7
100
AcDbVertex
100
AcDb3dPolylineVertex
 10
135.4404784018
 20
-269.1323491283
 30
0.0
 70
        32
  0
VERTEX
  5
417
100
AcDbEntity
  8
CK_LEVEL_1
  6
CONTINUOUS
 62
         7
100
AcDbVertex
100
AcDb3dPolylineVertex
 10
135.4295532808
 20
-269.1328379725
 30
0.0
 70
        32
  0
VERTEX
  5
419
100
AcDbEntity
  8
CK_LEVEL_1
  6
CONTINUOUS
 62
         7
100
AcDbVertex
100
AcDb3dPolylineVertex
 10
135.4186726568
 20
-269.134260385
 30
0.0
 70
        32
  0
VERTEX
  5
41B
100
AcDbEntity
  8
CK_LEVEL_1
  6
CONTINUOUS
 62
         7
100
AcDbVertex
100
AcDb3dPolylineVertex
 10
135.4078822424
 20
-269.1365501858
 30
0.0
 70
        32
  0
VERTEX
  5
41D
100
AcDbEntity
  8
CK_LEVEL_1
  6
CONTINUOUS
 62
         7
100
AcDbVertex
100
AcDb3dPolylineVertex
 10
135.3972277505
 20
-269.1396411948
 30
0.0
 70
        32
  0
VERTEX
  5
41F
100
AcDbEntity
  8
CK_LEVEL_1
  6
CONTINUOUS
 62
         7
100
AcDbVertex
100
AcDb3dPolylineVertex
 10
135.3867548936
 20
-269.1434672321
 30
0.0
 70
        32
  0
VERTEX
  5
421
100
AcDbEntity
  8
CK_LEVEL_1
  6
CONTINUOUS
 62
         7
100
AcDbVertex
100
AcDb3dPolylineVertex
 10
135.3765093845
 20
-269.1479621175
 30
0.0
 70
        32
  0
VERTEX
  5
423
100
AcDbEntity
  8
CK_LEVEL_1
  6
CONTINUOUS
 62
         7
100
AcDbVertex
100
AcDb3dPolylineVertex
 10
135.3665369359
 20
-269.1530596711
 30
0.0
 70
        32
  0
VERTEX
  5
425
100
AcDbEntity
  8
CK_LEVEL_1
  6
CONTINUOUS
 62
         7
100
AcDbVertex
100
AcDb3dPolylineVertex
 10
135.3568832606
 20
-269.1586937128
 30
0.0
 70
        32
  0
VERTEX
  5
427
100
AcDbEntity
  8
CK_LEVEL_1
  6
CONTINUOUS
 62
         7
100
AcDbVertex
100
AcDb3dPolylineVertex
 10
135.3475940711
 20
-269.1647980625
 30
0.0
 70
        32
  0
VERTEX
  5
429
100
AcDbEntity
  8
CK_LEVEL_1
  6
CONTINUOUS
 62
         7
100
AcDbVertex
100
AcDb3dPolylineVertex
 10
135.3430482429
 20
-269.1680434037
 30
0.0
 70
        32
  0
VERTEX
  5
42B
100
AcDbEntity
  8
CK_LEVEL_1
  6
CONTINUOUS
 62
         7
100
AcDbVertex
100
AcDb3dPolylineVertex
 10
135.3386016959
 20
-269.1713871557
 30
0.0
 70
        32
  0
VERTEX
  5
42D
100
AcDbEntity
  8
CK_LEVEL_1
  6
CONTINUOUS
 62
         7
100
AcDbVertex
100
AcDb3dPolylineVertex
 10
135.3342488256
 20
-269.1748243964
 30
0.0
 70
        32
  0
VERTEX
  5
42F
100
AcDbEntity
  8
CK_LEVEL_1
  6
CONTINUOUS
 62
         7
100
AcDbVertex
100
AcDb3dPolylineVertex
 10
135.3299840276
 20
-269.1783502032
 30
0.0
 70
        32
  0
VERTEX
  5
431
100
AcDbEntity
  8
CK_LEVEL_1
  6
CONTINUOUS
 62
         7
100
AcDbVertex
100
AcDb3dPolylineVertex
 10
135.3258016976
 20
-269.1819596538
 30
0.0
 70
        32
  0
VERTEX
  5
433
100
AcDbEntity
  8
CK_LEVEL_1
  6
CONTINUOUS
 62
         7
100
AcDbVertex
100
AcDb3dPolylineVertex
 10
135.3216962311
 20
-269.1856478258
 30
0.0
 70
        32
  0
VERTEX
  5
435
100
AcDbEntity
  8
CK_LEVEL_1
  6
CONTINUOUS
 62
         7
100
AcDbVertex
100
AcDb3dPolylineVertex
 10
135.3176620237
 20
-269.1894097967
 30
0.0
 70
        32
  0
VERTEX
  5
437
100
AcDbEntity
  8
CK_LEVEL_1
  6
CONTINUOUS
 62
         7
100
AcDbVertex
100
AcDb3dPolylineVertex
 10
135.313693471
 20
-269.1932406441
 30
0.0
 70
        32
  0
VERTEX
  5
439
100
AcDbEntity
  8
CK_LEVEL_1
  6
CONTINUOUS
 62
         7
100
AcDbVertex
100
AcDb3dPolylineVertex
 10
135.3097849685
 20
-269.1971354457
 30
0.0
 70
        32
  0
VERTEX
  5
43B
100
AcDbEntity
  8
CK_LEVEL_1
  6
CONTINUOUS
 62
         7
100
AcDbVertex
100
AcDb3dPolylineVertex
 10
135.3059345286
 20
-269.2010867711
 30
0.0
 70
        32
  0
VERTEX
  5
43D
100
AcDbEntity
  8
CK_LEVEL_1
  6
CONTINUOUS
 62
         7
100
AcDbVertex
100
AcDb3dPolylineVertex
 10
135.302137796
 20
-269.2050945202
 30
0.0
 70
        32
  0
VERTEX
  5
43F
100
AcDbEntity
  8
CK_LEVEL_1
  6
CONTINUOUS
 62
         7
100
AcDbVertex
100
AcDb3dPolylineVertex
 10
135.2983941114
 20
-269.2091561712
 30
0.0
 70
        32
  0
VERTEX
  5
441
100
AcDbEntity
  8
CK_LEVEL_1
  6
CONTINUOUS
 62
         7
100
AcDbVertex
100
AcDb3dPolylineVertex
 10
135.2947028157
 20
-269.2132692021
 30
0.0
 70
        32
  0
VERTEX
  5
443
100
AcDbEntity
  8
CK_LEVEL_1
  6
CONTINUOUS
 62
         7
100
AcDbVertex
100
AcDb3dPolylineVertex
 10
135.2910632496
 20
-269.2174310911
 30
0.0
 70
        32
  0
VERTEX
  5
445
100
AcDbEntity
  8
CK_LEVEL_1
  6
CONTINUOUS
 62
         7
100
AcDbVertex
100
AcDb3dPolylineVertex
 10
135.2874747541
 20
-269.2216393163
 30
0.0
 70
        32
  0
VERTEX
  5
447
100
AcDbEntity
  8
CK_LEVEL_1
  6
CONTINUOUS
 62
         7
100
AcDbVertex
100
AcDb3dPolylineVertex
 10
135.2839366699
 20
-269.2258913558
 30
0.0
 70
        32
  0
VERTEX
  5
449
100
AcDbEntity
  8
CK_LEVEL_1
  6
CONTINUOUS
 62
         7
100
AcDbVertex
100
AcDb3dPolylineVertex
 10
135.2804483379
 20
-269.2301846877
 30
0.0
 70
        32
  0
VERTEX
  5
44B
100
AcDbEntity
  8
CK_LEVEL_1
  6
CONTINUOUS
 62
         7
100
AcDbVertex
100
AcDb3dPolylineVertex
 10
135.2770090989
 20
-269.2345167901
 30
0.0
 70
        32
  0
VERTEX
  5
44D
100
AcDbEntity
  8
CK_LEVEL_1
  6
CONTINUOUS
 62
         7
100
AcDbVertex
100
AcDb3dPolylineVertex
 10
135.2702813398
 20
-269.243280281
 30
0.0
 70
        32
  0
VERTEX
  5
44F
100
AcDbEntity
  8
CK_LEVEL_1
  6
CONTINUOUS
 62
         7
100
AcDbVertex
100
AcDb3dPolylineVertex
 10
135.2637385935
 20
-269.2521793625
 30
0.0
 70
        32
  0
VERTEX
  5
451
100
AcDbEntity
  8
CK_LEVEL_1
  6
CONTINUOUS
 62
         7
100
AcDbVertex
100
AcDb3dPolylineVertex
 10
135.2573725219
 20
-269.2612049185
 30
0.0
 70
        32
  0
VERTEX
  5
453
100
AcDbEntity
  8
CK_LEVEL_1
  6
CONTINUOUS
 62
         7
100
AcDbVertex
100
AcDb3dPolylineVertex
 10
135.2511747868
 20
-269.2703478327
 30
0.0
 70
        32
  0
VERTEX
  5
455
100
AcDbEntity
  8
CK_LEVEL_1
  6
CONTINUOUS
 62
         7
100
AcDbVertex
100
AcDb3dPolylineVertex
 10
135.2451370503
 20
-269.279598989
 30
0.0
 70
        32
  0
VERTEX
  5
457
100
AcDbEntity
  8
CK_LEVEL_1
  6
CONTINUOUS
 62
         7
100
AcDbVertex
100
AcDb3dPolylineVertex
 10
135.2392509742
 20
-269.2889492711
 30
0.0
 70
        32
  0
VERTEX
  5
459
100
AcDbEntity
  8
CK_LEVEL_1
  6
CONTINUOUS
 62
         7
100
AcDbVertex
100
AcDb3dPolylineVertex
 10
135.2335082204
 20
-269.2983895628
 30
0.0
 70
        32
  0
VERTEX
  5
45B
100
AcDbEntity
  8
CK_LEVEL_1
  6
CONTINUOUS
 62
         7
100
AcDbVertex
100
AcDb3dPolylineVertex
 10
135.2279004509
 20
-269.3079107479
 30
0.0
 70
        32
  0
VERTEX
  5
45D
100
AcDbEntity
  8
CK_LEVEL_1
  6
CONTINUOUS
 62
         7
100
AcDbVertex
100
AcDb3dPolylineVertex
 10
135.2224193276
 20
-269.3175037101
 30
0.0
 70
        32
  0
VERTEX
  5
45F
100
AcDbEntity
  8
CK_LEVEL_1
  6
CONTINUOUS
 62
         7
100
AcDbVertex
100
AcDb3dPolylineVertex
 10
135.217055813
 20
-269.3271629537
 30
0.0
 70
        32
  0
VERTEX
  5
461
100
AcDbEntity
  8
CK_LEVEL_1
  6
CONTINUOUS
 62
         7
100
AcDbVertex
100
AcDb3dPolylineVertex
 10
135.2118066359
 20
-269.3368819667
 30
0.0
 70
        32
  0
VERTEX
  5
463
100
AcDbEntity
  8
CK_LEVEL_1
  6
CONTINUOUS
 62
         7
100
AcDbVertex
100
AcDb3dPolylineVertex
 10
135.2066677621
 20
-269.3466578238
 30
0.0
 70
        32
  0
VERTEX
  5
465
100
AcDbEntity
  8
CK_LEVEL_1
  6
CONTINUOUS
 62
         7
100
AcDbVertex
100
AcDb3dPolylineVertex
 10
135.2016351579
 20
-269.3564875999
 30
0.0
 70
        32
  0
VERTEX
  5
467
100
AcDbEntity
  8
CK_LEVEL_1
  6
CONTINUOUS
 62
         7
100
AcDbVertex
100
AcDb3dPolylineVertex
 10
135.1967047891
 20
-269.3663683698
 30
0.0
 70
        32
  0
VERTEX
  5
469
100
AcDbEntity
  8
CK_LEVEL_1
  6
CONTINUOUS
 62
         7
100
AcDbVertex
100
AcDb3dPolylineVertex
 10
135.1918726219
 20
-269.3762972085
 30
0.0
 70
        32
  0
VERTEX
  5
46B
100
AcDbEntity
  8
CK_LEVEL_1
  6
CONTINUOUS
 62
         7
100
AcDbVertex
100
AcDb3dPolylineVertex
 10
135.1871346222
 20
-269.3862711908
 30
0.0
 70
        32
  0
VERTEX
  5
46D
100
AcDbEntity
  8
CK_LEVEL_1
  6
CONTINUOUS
 62
         7
100
AcDbVertex
100
AcDb3dPolylineVertex
 10
135.1824867562
 20
-269.3962873916
 30
0.0
 70
        32
  0
VERTEX
  5
46F
100
AcDbEntity
  8
CK_LEVEL_1
  6
CONTINUOUS
 62
         7
100
AcDbVertex
100
AcDb3dPolylineVertex
 10
135.1779249898
 20
-269.4063428856
 30
0.0
 70
        32
  0
VERTEX
  5
471
100
AcDbEntity
  8
CK_LEVEL_1
  6
CONTINUOUS
 62
         7
100
AcDbVertex
100
AcDb3dPolylineVertex
 10
135.1690492606
 20
-269.426556042
 30
0.0
 70
        32
  0
VERTEX
  5
473
100
AcDbEntity
  8
CK_LEVEL_1
  6
CONTINUOUS
 62
         7
100
AcDbVertex
100
AcDb3dPolylineVertex
 10
135.1604869767
 20
-269.4469048134
 30
0.0
 70
        32
  0
VERTEX
  5
475
100
AcDbEntity
  8
CK_LEVEL_1
  6
CONTINUOUS
 62
         7
100
AcDbVertex
100
AcDb3dPolylineVertex
 10
135.152223524
 20
-269.467379432
 30
0.0
 70
        32
  0
VERTEX
  5
477
100
AcDbEntity
  8
CK_LEVEL_1
  6
CONTINUOUS
 62
         7
100
AcDbVertex
100
AcDb3dPolylineVertex
 10
135.1442442882
 20
-269.4879701303
 30
0.0
 70
        32
  0
VERTEX
  5
479
100
AcDbEntity
  8
CK_LEVEL_1
  6
CONTINUOUS
 62
         7
100
AcDbVertex
100
AcDb3dPolylineVertex
 10
135.1365346551
 20
-269.5086671406
 30
0.0
 70
        32
  0
VERTEX
  5
47B
100
AcDbEntity
  8
CK_LEVEL_1
  6
CONTINUOUS
 62
         7
100
AcDbVertex
100
AcDb3dPolylineVertex
 10
135.1290800105
 20
-269.5294606952
 30
0.0
 70
        32
  0
VERTEX
  5
47D
100
AcDbEntity
  8
CK_LEVEL_1
  6
CONTINUOUS
 62
         7
100
AcDbVertex
100
AcDb3dPolylineVertex
 10
135.1218657401
 20
-269.5503410266
 30
0.0
 70
        32
  0
VERTEX
  5
47F
100
AcDbEntity
  8
CK_LEVEL_1
  6
CONTINUOUS
 62
         7
100
AcDbVertex
100
AcDb3dPolylineVertex
 10
135.1148772297
 20
-269.571298367
 30
0.0
 70
        32
  0
VERTEX
  5
481
100
AcDbEntity
  8
CK_LEVEL_1
  6
CONTINUOUS
 62
         7
100
AcDbVertex
100
AcDb3dPolylineVertex
 10
135.1080998651
 20
-269.5923229488
 30
0.0
 70
        32
  0
VERTEX
  5
483
100
AcDbEntity
  8
CK_LEVEL_1
  6
CONTINUOUS
 62
         7
100
AcDbVertex
100
AcDb3dPolylineVertex
 10
135.1015188777
 20
-269.6134115953
 30
0.0
 70
        32
  0
VERTEX
  5
485
100
AcDbEntity
  8
CK_LEVEL_1
  6
CONTINUOUS
 62
         7
100
AcDbVertex
100
AcDb3dPolylineVertex
 10
135.0951289176
 20
-269.6345551535
 30
0.0
 70
        32
  0
VERTEX
  5
487
100
AcDbEntity
  8
CK_LEVEL_1
  6
CONTINUOUS
 62
         7
100
AcDbVertex
100
AcDb3dPolylineVertex
 10
135.08892438
 20
-269.6557510318
 30
0.0
 70
        32
  0
VERTEX
  5
489
100
AcDbEntity
  8
CK_LEVEL_1
  6
CONTINUOUS
 62
         7
100
AcDbVertex
100
AcDb3dPolylineVertex
 10
135.0828996602
 20
-269.6769966387
 30
0.0
 70
        32
  0
VERTEX
  5
48B
100
AcDbEntity
  8
CK_LEVEL_1
  6
CONTINUOUS
 62
         7
100
AcDbVertex
100
AcDb3dPolylineVertex
 10
135.0770491535
 20
-269.6982893827
 30
0.0
 70
        32
  0
VERTEX
  5
48D
100
AcDbEntity
  8
CK_LEVEL_1
  6
CONTINUOUS
 62
         7
100
AcDbVertex
100
AcDb3dPolylineVertex
 10
135.0713672551
 20
-269.7196266724
 30
0.0
 70
        32
  0
VERTEX
  5
48F
100
AcDbEntity
  8
CK_LEVEL_1
  6
CONTINUOUS
 62
         7
100
AcDbVertex
100
AcDb3dPolylineVertex
 10
135.0658483604
 20
-269.7410059162
 30
0.0
 70
        32
  0
VERTEX
  5
491
100
AcDbEntity
  8
CK_LEVEL_1
  6
CONTINUOUS
 62
         7
100
AcDbVertex
100
AcDb3dPolylineVertex
 10
135.0604868645
 20
-269.7624245225
 30
0.0
 70
        32
  0
VERTEX
  5
493
100
AcDbEntity
  8
CK_LEVEL_1
  6
CONTINUOUS
 62
         7
100
AcDbVertex
100
AcDb3dPolylineVertex
 10
135.0552771627
 20
-269.7838799
 30
0.0
 70
        32
  0
SEQEND
  5
495
100
AcDbEntity
  8
CK_LEVEL_1
  6
CONTINUOUS
 62
         7
  0
POLYLINE
  5
497
100
AcDbEntity
  8
CK_LEVEL_1
  6
CONTINUOUS
 62
         7
100
AcDb3dPolyline
 66
         1
 10
0.0
 20
0.0
 30
0.0
 70
         8
  0
VERTEX
  5
499
100
AcDbEntity
  8
CK_LEVEL_1
  6
CONTINUOUS
 62
         7
100
AcDbVertex
100
AcDb3dPolylineVertex
 10
91.3154784018
 20
-271.3946010857
 30
0.0
 70
        32
  0
VERTEX
  5
49B
100
AcDbEntity
  8
CK_LEVEL_1
  6
CONTINUOUS
 62
         7
100
AcDbVertex
100
AcDb3dPolylineVertex
 10
91.1298377496
 20
-271.3609360427
 30
0.0
 70
        32
  0
VERTEX
  5
49D
100
AcDbEntity
  8
CK_LEVEL_1
  6
CONTINUOUS
 62
         7
100
AcDbVertex
100
AcDb3dPolylineVertex
 10
90.9440095255
 20
-271.3283134121
 30
0.0
 70
        32
  0
VERTEX
  5
49F
100
AcDbEntity
  8
CK_LEVEL_1
  6
CONTINUOUS
 62
         7
100
AcDbVertex
100
AcDb3dPolylineVertex
 10
90.7580083574
 20
-271.2966697314
 30
0.0
 70
        32
  0
VERTEX
  5
4A1
100
AcDbEntity
  8
CK_LEVEL_1
  6
CONTINUOUS
 62
         7
100
AcDbVertex
100
AcDb3dPolylineVertex
 10
90.5718488732
 20
-271.2659415382
 30
0.0
 70
        32
  0
VERTEX
  5
4A3
100
AcDbEntity
  8
CK_LEVEL_1
  6
CONTINUOUS
 62
         7
100
AcDbVertex
100
AcDb3dPolylineVertex
 10
90.3855457007
 20
-271.2360653699
 30
0.0
 70
        32
  0
VERTEX
  5
4A5
100
AcDbEntity
  8
CK_LEVEL_1
  6
CONTINUOUS
 62
         7
100
AcDbVertex
100
AcDb3dPolylineVertex
 10
90.1991134678
 20
-271.2069777641
 30
0.0
 70
        32
  0
VERTEX
  5
4A7
100
AcDbEntity
  8
CK_LEVEL_1
  6
CONTINUOUS
 62
         7
100
AcDbVertex
100
AcDb3dPolylineVertex
 10
90.0125668025
 20
-271.1786152583
 30
0.0
 70
        32
  0
VERTEX
  5
4A9
100
AcDbEntity
  8
CK_LEVEL_1
  6
CONTINUOUS
 62
         7
100
AcDbVertex
100
AcDb3dPolylineVertex
 10
89.8259203327
 20
-271.1509143901
 30
0.0
 70
        32
  0
VERTEX
  5
4AB
100
AcDbEntity
  8
CK_LEVEL_1
  6
CONTINUOUS
 62
         7
100
AcDbVertex
100
AcDb3dPolylineVertex
 10
89.6391886861
 20
-271.1238116969
 30
0.0
 70
        32
  0
VERTEX
  5
4AD
100
AcDbEntity
  8
CK_LEVEL_1
  6
CONTINUOUS
 62
         7
100
AcDbVertex
100
AcDb3dPolylineVertex
 10
89.4523462965
 20
-271.0972454633
 30
0.0
 70
        32
  0
VERTEX
  5
4AF
100
AcDbEntity
  8
CK_LEVEL_1
  6
CONTINUOUS
 62
         7
100
AcDbVertex
100
AcDb3dPolylineVertex
 10
89.2654363937
 20
-271.0711934877
 30
0.0
 70
        32
  0
VERTEX
  5
4B1
100
AcDbEntity
  8
CK_LEVEL_1
  6
CONTINUOUS
 62
         7
100
AcDbVertex
100
AcDb3dPolylineVertex
 10
89.0784620426
 20
-271.0456350966
 30
0.0
 70
        32
  0
VERTEX
  5
4B3
100
AcDbEntity
  8
CK_LEVEL_1
  6
CONTINUOUS
 62
         7
100
AcDbVertex
100
AcDb3dPolylineVertex
 10
88.8914263077
 20
-271.0205496163
 30
0.0
 70
        32
  0
VERTEX
  5
4B5
100
AcDbEntity
  8
CK_LEVEL_1
  6
CONTINUOUS
 62
         7
100
AcDbVertex
100
AcDb3dPolylineVertex
 10
88.7043322537
 20
-270.9959163733
 30
0.0
 70
        32
  0
VERTEX
  5
4B7
100
AcDbEntity
  8
CK_LEVEL_1
  6
CONTINUOUS
 62
         7
100
AcDbVertex
100
AcDb3dPolylineVertex
 10
88.5171829453
 20
-270.971714694
 30
0.0
 70
        32
  0
VERTEX
  5
4B9
100
AcDbEntity
  8
CK_LEVEL_1
  6
CONTINUOUS
 62
         7
100
AcDbVertex
100
AcDb3dPolylineVertex
 10
88.329981447
 20
-270.9479239047
 30
0.0
 70
        32
  0
VERTEX
  5
4BB
100
AcDbEntity
  8
CK_LEVEL_1
  6
CONTINUOUS
 62
         7
100
AcDbVertex
100
AcDb3dPolylineVertex
 10
88.1427308235
 20
-270.924523332
 30
0.0
 70
        32
  0
VERTEX
  5
4BD
100
AcDbEntity
  8
CK_LEVEL_1
  6
CONTINUOUS
 62
         7
100
AcDbVertex
100
AcDb3dPolylineVertex
 10
87.9554341395
 20
-270.9014923021
 30
0.0
 70
        32
  0
SEQEND
  5
4BF
100
AcDbEntity
  8
CK_LEVEL_1
  6
CONTINUOUS
 62
         7
  0
POLYLINE
  5
4C1
100
AcDbEntity
  8
CK_LEVEL_1
  6
CONTINUOUS
 62
         7
100
AcDb3dPolyline
 66
         1
 10
0.0
 20
0.0
 30
0.0
 70
         8
  0
VERTEX
  5
4C3
100
AcDbEntity
  8
CK_LEVEL_1
  6
CONTINUOUS
 62
         7
100
AcDbVertex
100
AcDb3dPolylineVertex
 10
144.8154784018
 20
-284.8110377793
 30
0.0
 70
        32
  0
VERTEX
  5
4C5
100
AcDbEntity
  8
CK_LEVEL_1
  6
CONTINUOUS
 62
         7
100
AcDbVertex
100
AcDb3dPolylineVertex
 10
144.8147556554
 20
-284.8615039318
 30
0.0
 70
        32
  0
VERTEX
  5
4C7
100
AcDbEntity
  8
CK_LEVEL_1
  6
CONTINUOUS
 62
         7
100
AcDbVertex
100
AcDb3dPolylineVertex
 10
144.8125784264
 20
-284.9119721082
 30
0.0
 70
        32
  0
VERTEX
  5
4C9
100
AcDbEntity
  8
CK_LEVEL_1
  6
CONTINUOUS
 62
         7
100
AcDbVertex
100
AcDb3dPolylineVertex
 10
144.8089332301
 20
-284.9623921392
 30
0.0
 70
        32
  0
VERTEX
  5
4CB
100
AcDbEntity
  8
CK_LEVEL_1
  6
CONTINUOUS
 62
         7
100
AcDbVertex
100
AcDb3dPolylineVertex
 10
144.8038065818
 20
-285.0127138554
 30
0.0
 70
        32
  0
VERTEX
  5
4CD
100
AcDbEntity
  8
CK_LEVEL_1
  6
CONTINUOUS
 62
         7
100
AcDbVertex
100
AcDb3dPolylineVertex
 10
144.7971849969
 20
-285.0628870876
 30
0.0
 70
        32
  0
VERTEX
  5
4CF
100
AcDbEntity
  8
CK_LEVEL_1
  6
CONTINUOUS
 62
         7
100
AcDbVertex
100
AcDb3dPolylineVertex
 10
144.7890549907
 20
-285.1128616664
 30
0.0
 70
        32
  0
VERTEX
  5
4D1
100
AcDbEntity
  8
CK_LEVEL_1
  6
CONTINUOUS
 62
         7
100
AcDbVertex
100
AcDb3dPolylineVertex
 10
144.7794030786
 20
-285.1625874226
 30
0.0
 70
        32
  0
VERTEX
  5
4D3
100
AcDbEntity
  8
CK_LEVEL_1
  6
CONTINUOUS
 62
         7
100
AcDbVertex
100
AcDb3dPolylineVertex
 10
144.7682157758
 20
-285.2120141869
 30
0.0
 70
        32
  0
VERTEX
  5
4D5
100
AcDbEntity
  8
CK_LEVEL_1
  6
CONTINUOUS
 62
         7
100
AcDbVertex
100
AcDb3dPolylineVertex
 10
144.7554795976
 20
-285.26109179
 30
0.0
 70
        32
  0
VERTEX
  5
4D7
100
AcDbEntity
  8
CK_LEVEL_1
  6
CONTINUOUS
 62
         7
100
AcDbVertex
100
AcDb3dPolylineVertex
 10
144.7411934443
 20
-285.3097252768
 30
0.0
 70
        32
  0
VERTEX
  5
4D9
100
AcDbEntity
  8
CK_LEVEL_1
  6
CONTINUOUS
 62
         7
100
AcDbVertex
100
AcDb3dPolylineVertex
 10
144.7253343065
 20
-285.3578791969
 30
0.0
 70
        32
  0
VERTEX
  5
4DB
100
AcDbEntity
  8
CK_LEVEL_1
  6
CONTINUOUS
 62
         7
100
AcDbVertex
100
AcDb3dPolylineVertex
 10
144.7078890048
 20
-285.4054726611
 30
0.0
 70
        32
  0
VERTEX
  5
4DD
100
AcDbEntity
  8
CK_LEVEL_1
  6
CONTINUOUS
 62
         7
100
AcDbVertex
100
AcDb3dPolylineVertex
 10
144.6888443595
 20
-285.4524247801
 30
0.0
 70
        32
  0
VERTEX
  5
4DF
100
AcDbEntity
  8
CK_LEVEL_1
  6
CONTINUOUS
 62
         7
100
AcDbVertex
100
AcDb3dPolylineVertex
 10
144.6681871911
 20
-285.4986546648
 30
0.0
 70
        32
  0
VERTEX
  5
4E1
100
AcDbEntity
  8
CK_LEVEL_1
  6
CONTINUOUS
 62
         7
100
AcDbVertex
100
AcDb3dPolylineVertex
 10
144.64590432
 20
-285.5440814258
 30
0.0
 70
        32
  0
VERTEX
  5
4E3
100
AcDbEntity
  8
CK_LEVEL_1
  6
CONTINUOUS
 62
         7
100
AcDbVertex
100
AcDb3dPolylineVertex
 10
144.6219825666
 20
-285.588624174
 30
0.0
 70
        32
  0
VERTEX
  5
4E5
100
AcDbEntity
  8
CK_LEVEL_1
  6
CONTINUOUS
 62
         7
100
AcDbVertex
100
AcDb3dPolylineVertex
 10
144.5964087514
 20
-285.6322020201
 30
0.0
 70
        32
  0
VERTEX
  5
4E7
100
AcDbEntity
  8
CK_LEVEL_1
  6
CONTINUOUS
 62
         7
100
AcDbVertex
100
AcDb3dPolylineVertex
 10
144.5691696947
 20
-285.6747340748
 30
0.0
 70
        32
  0
VERTEX
  5
4E9
100
AcDbEntity
  8
CK_LEVEL_1
  6
CONTINUOUS
 62
         7
100
AcDbVertex
100
AcDb3dPolylineVertex
 10
144.5548773533
 20
-285.6956454723
 30
0.0
 70
        32
  0
VERTEX
  5
4EB
100
AcDbEntity
  8
CK_LEVEL_1
  6
CONTINUOUS
 62
         7
100
AcDbVertex
100
AcDb3dPolylineVertex
 10
144.540162159
 20
-285.7162587692
 30
0.0
 70
        32
  0
VERTEX
  5
4ED
100
AcDbEntity
  8
CK_LEVEL_1
  6
CONTINUOUS
 62
         7
100
AcDbVertex
100
AcDb3dPolylineVertex
 10
144.5250234446
 20
-285.7365592675
 30
0.0
 70
        32
  0
VERTEX
  5
4EF
100
AcDbEntity
  8
CK_LEVEL_1
  6
CONTINUOUS
 62
         7
100
AcDbVertex
100
AcDb3dPolylineVertex
 10
144.5094605431
 20
-285.756532269
 30
0.0
 70
        32
  0
VERTEX
  5
4F1
100
AcDbEntity
  8
CK_LEVEL_1
  6
CONTINUOUS
 62
         7
100
AcDbVertex
100
AcDb3dPolylineVertex
 10
144.4934727875
 20
-285.7761630755
 30
0.0
 70
        32
  0
VERTEX
  5
4F3
100
AcDbEntity
  8
CK_LEVEL_1
  6
CONTINUOUS
 62
         7
100
AcDbVertex
100
AcDb3dPolylineVertex
 10
144.4770595106
 20
-285.7954369891
 30
0.0
 70
        32
  0
VERTEX
  5
4F5
100
AcDbEntity
  8
CK_LEVEL_1
  6
CONTINUOUS
 62
         7
100
AcDbVertex
100
AcDb3dPolylineVertex
 10
144.4602200454
 20
-285.8143393116
 30
0.0
 70
        32
  0
VERTEX
  5
4F7
100
AcDbEntity
  8
CK_LEVEL_1
  6
CONTINUOUS
 62
         7
100
AcDbVertex
100
AcDb3dPolylineVertex
 10
144.4429537248
 20
-285.8328553448
 30
0.0
 70
        32
  0
VERTEX
  5
4F9
100
AcDbEntity
  8
CK_LEVEL_1
  6
CONTINUOUS
 62
         7
100
AcDbVertex
100
AcDb3dPolylineVertex
 10
144.4252598817
 20
-285.8509703908
 30
0.0
 70
        32
  0
VERTEX
  5
4FB
100
AcDbEntity
  8
CK_LEVEL_1
  6
CONTINUOUS
 62
         7
100
AcDbVertex
100
AcDb3dPolylineVertex
 10
144.4071430389
 20
-285.8686650088
 30
0.0
 70
        32
  0
VERTEX
  5
4FD
100
AcDbEntity
  8
CK_LEVEL_1
  6
CONTINUOUS
 62
         7
100
AcDbVertex
100
AcDb3dPolylineVertex
 10
144.388604008
 20
-285.8859245043
 30
0.0
 70
        32
  0
VERTEX
  5
4FF
100
AcDbEntity
  8
CK_LEVEL_1
  6
CONTINUOUS
 62
         7
100
AcDbVertex
100
AcDb3dPolylineVertex
 10
144.3696485988
 20
-285.9027292536
 30
0.0
 70
        32
  0
VERTEX
  5
501
100
AcDbEntity
  8
CK_LEVEL_1
  6
CONTINUOUS
 62
         7
100
AcDbVertex
100
AcDb3dPolylineVertex
 10
144.3502826209
 20
-285.9190596332
 30
0.0
 70
        32
  0
VERTEX
  5
503
100
AcDbEntity
  8
CK_LEVEL_1
  6
CONTINUOUS
 62
         7
100
AcDbVertex
100
AcDb3dPolylineVertex
 10
144.3305118838
 20
-285.9348960195
 30
0.0
 70
        32
  0
VERTEX
  5
505
100
AcDbEntity
  8
CK_LEVEL_1
  6
CONTINUOUS
 62
         7
100
AcDbVertex
100
AcDb3dPolylineVertex
 10
144.3103421971
 20
-285.9502187891
 30
0.0
 70
        32
  0
VERTEX
  5
507
100
AcDbEntity
  8
CK_LEVEL_1
  6
CONTINUOUS
 62
         7
100
AcDbVertex
100
AcDb3dPolylineVertex
 10
144.2897793705
 20
-285.9650083183
 30
0.0
 70
        32
  0
VERTEX
  5
509
100
AcDbEntity
  8
CK_LEVEL_1
  6
CONTINUOUS
 62
         7
100
AcDbVertex
100
AcDb3dPolylineVertex
 10
144.2688292135
 20
-285.9792449837
 30
0.0
 70
        32
  0
VERTEX
  5
50B
100
AcDbEntity
  8
CK_LEVEL_1
  6
CONTINUOUS
 62
         7
100
AcDbVertex
100
AcDb3dPolylineVertex
 10
144.2474975358
 20
-285.9929091617
 30
0.0
 70
        32
  0
VERTEX
  5
50D
100
AcDbEntity
  8
CK_LEVEL_1
  6
CONTINUOUS
 62
         7
100
AcDbVertex
100
AcDb3dPolylineVertex
 10
144.2257986239
 20
-286.0059771526
 30
0.0
 70
        32
  0
VERTEX
  5
50F
100
AcDbEntity
  8
CK_LEVEL_1
  6
CONTINUOUS
 62
         7
100
AcDbVertex
100
AcDb3dPolylineVertex
 10
144.2037386632
 20
-286.0184339916
 30
0.0
 70
        32
  0
VERTEX
  5
511
100
AcDbEntity
  8
CK_LEVEL_1
  6
CONTINUOUS
 62
         7
100
AcDbVertex
100
AcDb3dPolylineVertex
 10
144.1813320744
 20
-286.0302602573
 30
0.0
 70
        32
  0
VERTEX
  5
513
100
AcDbEntity
  8
CK_LEVEL_1
  6
CONTINUOUS
 62
         7
100
AcDbVertex
100
AcDb3dPolylineVertex
 10
144.1585932781
 20
-286.0414365278
 30
0.0
 70
        32
  0
VERTEX
  5
515
100
AcDbEntity
  8
CK_LEVEL_1
  6
CONTINUOUS
 62
         7
100
AcDbVertex
100
AcDb3dPolylineVertex
 10
144.135536695
 20
-286.0519433816
 30
0.0
 70
        32
  0
VERTEX
  5
517
100
AcDbEntity
  8
CK_LEVEL_1
  6
CONTINUOUS
 62
         7
100
AcDbVertex
100
AcDb3dPolylineVertex
 10
144.1121767459
 20
-286.0617613971
 30
0.0
 70
        32
  0
VERTEX
  5
519
100
AcDbEntity
  8
CK_LEVEL_1
  6
CONTINUOUS
 62
         7
100
AcDbVertex
100
AcDb3dPolylineVertex
 10
144.0885278513
 20
-286.0708711525
 30
0.0
 70
        32
  0
VERTEX
  5
51B
100
AcDbEntity
  8
CK_LEVEL_1
  6
CONTINUOUS
 62
         7
100
AcDbVertex
100
AcDb3dPolylineVertex
 10
144.064604432
 20
-286.0792532263
 30
0.0
 70
        32
  0
VERTEX
  5
51D
100
AcDbEntity
  8
CK_LEVEL_1
  6
CONTINUOUS
 62
         7
100
AcDbVertex
100
AcDb3dPolylineVertex
 10
144.0404209087
 20
-286.0868881967
 30
0.0
 70
        32
  0
VERTEX
  5
51F
100
AcDbEntity
  8
CK_LEVEL_1
  6
CONTINUOUS
 62
         7
100
AcDbVertex
100
AcDb3dPolylineVertex
 10
144.0159974978
 20
-286.0937576051
 30
0.0
 70
        32
  0
VERTEX
  5
521
100
AcDbEntity
  8
CK_LEVEL_1
  6
CONTINUOUS
 62
         7
100
AcDbVertex
100
AcDb3dPolylineVertex
 10
143.9913593862
 20
-286.0998518631
 30
0.0
 70
        32
  0
VERTEX
  5
523
100
AcDbEntity
  8
CK_LEVEL_1
  6
CONTINUOUS
 62
         7
100
AcDbVertex
100
AcDb3dPolylineVertex
 10
143.9665374954
 20
-286.1051621551
 30
0.0
 70
        32
  0
VERTEX
  5
525
100
AcDbEntity
  8
CK_LEVEL_1
  6
CONTINUOUS
 62
         7
100
AcDbVertex
100
AcDb3dPolylineVertex
 10
143.9415627472
 20
-286.1096796655
 30
0.0
 70
        32
  0
VERTEX
  5
527
100
AcDbEntity
  8
CK_LEVEL_1
  6
CONTINUOUS
 62
         7
100
AcDbVertex
100
AcDb3dPolylineVertex
 10
143.9164660632
 20
-286.1133955786
 30
0.0
 70
        32
  0
VERTEX
  5
529
100
AcDbEntity
  8
CK_LEVEL_1
  6
CONTINUOUS
 62
         7
100
AcDbVertex
100
AcDb3dPolylineVertex
 10
143.891278365
 20
-286.116301079
 30
0.0
 70
        32
  0
VERTEX
  5
52B
100
AcDbEntity
  8
CK_LEVEL_1
  6
CONTINUOUS
 62
         7
100
AcDbVertex
100
AcDb3dPolylineVertex
 10
143.8660305743
 20
-286.1183873509
 30
0.0
 70
        32
  0
VERTEX
  5
52D
100
AcDbEntity
  8
CK_LEVEL_1
  6
CONTINUOUS
 62
         7
100
AcDbVertex
100
AcDb3dPolylineVertex
 10
143.8407536127
 20
-286.1196455789
 30
0.0
 70
        32
  0
VERTEX
  5
52F
100
AcDbEntity
  8
CK_LEVEL_1
  6
CONTINUOUS
 62
         7
100
AcDbVertex
100
AcDb3dPolylineVertex
 10
143.8154784018
 20
-286.1200669472
 30
0.0
 70
        32
  0
SEQEND
  5
531
100
AcDbEntity
  8
CK_LEVEL_1
  6
CONTINUOUS
 62
         7
  0
POLYLINE
  5
533
100
AcDbEntity
  8
CK_LEVEL_1
  6
CONTINUOUS
 62
         7
100
AcDb3dPolyline
 66
         1
 10
0.0
 20
0.0
 30
0.0
 70
         8
  0
VERTEX
  5
535
100
AcDbEntity
  8
CK_LEVEL_1
  6
CONTINUOUS
 62
         7
100
AcDbVertex
100
AcDb3dPolylineVertex
 10
108.0510865776
 20
-265.0928709079
 30
0.0
 70
        32
  0
VERTEX
  5
537
100
AcDbEntity
  8
CK_LEVEL_1
  6
CONTINUOUS
 62
         7
100
AcDbVertex
100
AcDb3dPolylineVertex
 10
107.9497886005
 20
-265.0394873165
 30
0.0
 70
        32
  0
VERTEX
  5
539
100
AcDbEntity
  8
CK_LEVEL_1
  6
CONTINUOUS
 62
         7
100
AcDbVertex
100
AcDb3dPolylineVertex
 10
107.8499180891
 20
-264.9832656737
 30
0.0
 70
        32
  0
VERTEX
  5
53B
100
AcDbEntity
  8
CK_LEVEL_1
  6
CONTINUOUS
 62
         7
100
AcDbVertex
100
AcDb3dPolylineVertex
 10
107.7515755162
 20
-264.9242483208
 30
0.0
 70
        32
  0
VERTEX
  5
53D
100
AcDbEntity
  8
CK_LEVEL_1
  6
CONTINUOUS
 62
         7
100
AcDbVertex
100
AcDb3dPolylineVertex
 10
107.6548613543
 20
-264.8624775993
 30
0.0
 70
        32
  0
VERTEX
  5
53F
100
AcDbEntity
  8
CK_LEVEL_1
  6
CONTINUOUS
 62
         7
100
AcDbVertex
100
AcDb3dPolylineVertex
 10
107.559876076
 20
-264.7979958505
 30
0.0
 70
        32
  0
VERTEX
  5
541
100
AcDbEntity
  8
CK_LEVEL_1
  6
CONTINUOUS
 62
         7
100
AcDbVertex
100
AcDb3dPolylineVertex
 10
107.4667201541
 20
-264.7308454159
 30
0.0
 70
        32
  0
VERTEX
  5
543
100
AcDbEntity
  8
CK_LEVEL_1
  6
CONTINUOUS
 62
         7
100
AcDbVertex
100
AcDb3dPolylineVertex
 10
107.375494061
 20
-264.6610686369
 30
0.0
 70
        32
  0
VERTEX
  5
545
100
AcDbEntity
  8
CK_LEVEL_1
  6
CONTINUOUS
 62
         7
100
AcDbVertex
100
AcDb3dPolylineVertex
 10
107.2862982694
 20
-264.5887078548
 30
0.0
 70
        32
  0
VERTEX
  5
547
100
AcDbEntity
  8
CK_LEVEL_1
  6
CONTINUOUS
 62
         7
100
AcDbVertex
100
AcDb3dPolylineVertex
 10
107.199233252
 20
-264.513805411
 30
0.0
 70
        32
  0
VERTEX
  5
549
100
AcDbEntity
  8
CK_LEVEL_1
  6
CONTINUOUS
 62
         7
100
AcDbVertex
100
AcDb3dPolylineVertex
 10
107.1144614315
 20
-264.4364678424
 30
0.0
 70
        32
  0
VERTEX
  5
54B
100
AcDbEntity
  8
CK_LEVEL_1
  6
CONTINUOUS
 62
         7
100
AcDbVertex
100
AcDb3dPolylineVertex
 10
107.031998284
 20
-264.3566948146
 30
0.0
 70
        32
  0
VERTEX
  5
54D
100
AcDbEntity
  8
CK_LEVEL_1
  6
CONTINUOUS
 62
         7
100
AcDbVertex
100
AcDb3dPolylineVertex
 10
106.9519247097
 20
-264.2745462973
 30
0.0
 70
        32
  0
VERTEX
  5
54F
100
AcDbEntity
  8
CK_LEVEL_1
  6
CONTINUOUS
 62
         7
100
AcDbVertex
100
AcDb3dPolylineVertex
 10
106.8743216089
 20
-264.1900822603
 30
0.0
 70
        32
  0
VERTEX
  5
551
100
AcDbEntity
  8
CK_LEVEL_1
  6
CONTINUOUS
 62
         7
100
AcDbVertex
100
AcDb3dPolylineVertex
 10
106.7992698818
 20
-264.1033626731
 30
0.0
 70
        32
  0
VERTEX
  5
553
100
AcDbEntity
  8
CK_LEVEL_1
  6
CONTINUOUS
 62
         7
100
AcDbVertex
100
AcDb3dPolylineVertex
 10
106.7268504287
 20
-264.0144475055
 30
0.0
 70
        32
  0
VERTEX
  5
555
100
AcDbEntity
  8
CK_LEVEL_1
  6
CONTINUOUS
 62
         7
100
AcDbVertex
100
AcDb3dPolylineVertex
 10
106.6571441498
 20
-263.9233967273
 30
0.0
 70
        32
  0
VERTEX
  5
557
100
AcDbEntity
  8
CK_LEVEL_1
  6
CONTINUOUS
 62
         7
100
AcDbVertex
100
AcDb3dPolylineVertex
 10
106.5902319454
 20
-263.830270308
 30
0.0
 70
        32
  0
VERTEX
  5
559
100
AcDbEntity
  8
CK_LEVEL_1
  6
CONTINUOUS
 62
         7
100
AcDbVertex
100
AcDb3dPolylineVertex
 10
106.5261947156
 20
-263.7351282175
 30
0.0
 70
        32
  0
VERTEX
  5
55B
100
AcDbEntity
  8
CK_LEVEL_1
  6
CONTINUOUS
 62
         7
100
AcDbVertex
100
AcDb3dPolylineVertex
 10
106.4651085053
 20
-263.6380319364
 30
0.0
 70
        32
  0
VERTEX
  5
55D
100
AcDbEntity
  8
CK_LEVEL_1
  6
CONTINUOUS
 62
         7
100
AcDbVertex
100
AcDb3dPolylineVertex
 10
106.4070465973
 20
-263.5390757738
 30
0.0
 70
        32
  0
VERTEX
  5
55F
100
AcDbEntity
  8
CK_LEVEL_1
  6
CONTINUOUS
 62
         7
100
AcDbVertex
100
AcDb3dPolylineVertex
 10
106.3520771481
 20
-263.438355729
 30
0.0
 70
        32
  0
VERTEX
  5
561
100
AcDbEntity
  8
CK_LEVEL_1
  6
CONTINUOUS
 62
         7
100
AcDbVertex
100
AcDb3dPolylineVertex
 10
106.3002683142
 20
-263.3359678015
 30
0.0
 70
        32
  0
VERTEX
  5
563
100
AcDbEntity
  8
CK_LEVEL_1
  6
CONTINUOUS
 62
         7
100
AcDbVertex
100
AcDb3dPolylineVertex
 10
106.2516882522
 20
-263.2320079905
 30
0.0
 70
        32
  0
VERTEX
  5
565
100
AcDbEntity
  8
CK_LEVEL_1
  6
CONTINUOUS
 62
         7
100
AcDbVertex
100
AcDb3dPolylineVertex
 10
106.2064051185
 20
-263.1265722954
 30
0.0
 70
        32
  0
VERTEX
  5
567
100
AcDbEntity
  8
CK_LEVEL_1
  6
CONTINUOUS
 62
         7
100
AcDbVertex
100
AcDb3dPolylineVertex
 10
106.1644870696
 20
-263.0197567154
 30
0.0
 70
        32
  0
VERTEX
  5
569
100
AcDbEntity
  8
CK_LEVEL_1
  6
CONTINUOUS
 62
         7
100
AcDbVertex
100
AcDb3dPolylineVertex
 10
106.1260022621
 20
-262.91165725
 30
0.0
 70
        32
  0
VERTEX
  5
56B
100
AcDbEntity
  8
CK_LEVEL_1
  6
CONTINUOUS
 62
         7
100
AcDbVertex
100
AcDb3dPolylineVertex
 10
106.0910188525
 20
-262.8023698984
 30
0.0
 70
        32
  0
VERTEX
  5
56D
100
AcDbEntity
  8
CK_LEVEL_1
  6
CONTINUOUS
 62
         7
100
AcDbVertex
100
AcDb3dPolylineVertex
 10
106.0595877622
 20
-262.6919563721
 30
0.0
 70
        32
  0
VERTEX
  5
56F
100
AcDbEntity
  8
CK_LEVEL_1
  6
CONTINUOUS
 62
         7
100
AcDbVertex
100
AcDb3dPolylineVertex
 10
106.0317552029
 20
-262.580571605
 30
0.0
 70
        32
  0
VERTEX
  5
571
100
AcDbEntity
  8
CK_LEVEL_1
  6
CONTINUOUS
 62
         7
100
AcDbVertex
100
AcDb3dPolylineVertex
 10
106.0075476719
 20
-262.4683370019
 30
0.0
 70
        32
  0
VERTEX
  5
573
100
AcDbEntity
  8
CK_LEVEL_1
  6
CONTINUOUS
 62
         7
100
AcDbVertex
100
AcDb3dPolylineVertex
 10
105.9869916664
 20
-262.3553739672
 30
0.0
 70
        32
  0
VERTEX
  5
575
100
AcDbEntity
  8
CK_LEVEL_1
  6
CONTINUOUS
 62
         7
100
AcDbVertex
100
AcDb3dPolylineVertex
 10
105.9701136837
 20
-262.2418039055
 30
0.0
 70
        32
  0
VERTEX
  5
577
100
AcDbEntity
  8
CK_LEVEL_1
  6
CONTINUOUS
 62
         7
100
AcDbVertex
100
AcDb3dPolylineVertex
 10
105.956940221
 20
-262.1277482212
 30
0.0
 70
        32
  0
VERTEX
  5
579
100
AcDbEntity
  8
CK_LEVEL_1
  6
CONTINUOUS
 62
         7
100
AcDbVertex
100
AcDb3dPolylineVertex
 10
105.9474977757
 20
-262.0133283191
 30
0.0
 70
        32
  0
VERTEX
  5
57B
100
AcDbEntity
  8
CK_LEVEL_1
  6
CONTINUOUS
 62
         7
100
AcDbVertex
100
AcDb3dPolylineVertex
 10
105.9418128449
 20
-261.8986656036
 30
0.0
 70
        32
  0
VERTEX
  5
57D
100
AcDbEntity
  8
CK_LEVEL_1
  6
CONTINUOUS
 62
         7
100
AcDbVertex
100
AcDb3dPolylineVertex
 10
105.9399119259
 20
-261.7838814792
 30
0.0
 70
        32
  0
VERTEX
  5
57F
100
AcDbEntity
  8
CK_LEVEL_1
  6
CONTINUOUS
 62
         7
100
AcDbVertex
100
AcDb3dPolylineVertex
 10
105.9418126874
 20
-261.6690972465
 30
0.0
 70
        32
  0
VERTEX
  5
581
100
AcDbEntity
  8
CK_LEVEL_1
  6
CONTINUOUS
 62
         7
100
AcDbVertex
100
AcDb3dPolylineVertex
 10
105.9474974692
 20
-261.5544344156
 30
0.0
 70
        32
  0
VERTEX
  5
583
100
AcDbEntity
  8
CK_LEVEL_1
  6
CONTINUOUS
 62
         7
100
AcDbVertex
100
AcDb3dPolylineVertex
 10
105.9569397757
 20
-261.4400143928
 30
0.0
 70
        32
  0
VERTEX
  5
585
100
AcDbEntity
  8
CK_LEVEL_1
  6
CONTINUOUS
 62
         7
100
AcDbVertex
100
AcDb3dPolylineVertex
 10
105.9701131112
 20
-261.3259585842
 30
0.0
 70
        32
  0
VERTEX
  5
587
100
AcDbEntity
  8
CK_LEVEL_1
  6
CONTINUOUS
 62
         7
100
AcDbVertex
100
AcDb3dPolylineVertex
 10
105.9869909802
 20
-261.2123883959
 30
0.0
 70
        32
  0
VERTEX
  5
589
100
AcDbEntity
  8
CK_LEVEL_1
  6
CONTINUOUS
 62
         7
100
AcDbVertex
100
AcDb3dPolylineVertex
 10
106.007546887
 20
-261.0994252341
 30
0.0
 70
        32
  0
VERTEX
  5
58B
100
AcDbEntity
  8
CK_LEVEL_1
  6
CONTINUOUS
 62
         7
100
AcDbVertex
100
AcDb3dPolylineVertex
 10
106.0317543358
 20
-260.987190505
 30
0.0
 70
        32
  0
VERTEX
  5
58D
100
AcDbEntity
  8
CK_LEVEL_1
  6
CONTINUOUS
 62
         7
100
AcDbVertex
100
AcDb3dPolylineVertex
 10
106.0595868311
 20
-260.8758056146
 30
0.0
 70
        32
  0
VERTEX
  5
58F
100
AcDbEntity
  8
CK_LEVEL_1
  6
CONTINUOUS
 62
         7
100
AcDbVertex
100
AcDb3dPolylineVertex
 10
106.0910178772
 20
-260.7653919693
 30
0.0
 70
        32
  0
VERTEX
  5
591
100
AcDbEntity
  8
CK_LEVEL_1
  6
CONTINUOUS
 62
         7
100
AcDbVertex
100
AcDb3dPolylineVertex
 10
106.1260011451
 20
-260.6561048542
 30
0.0
 70
        32
  0
VERTEX
  5
593
100
AcDbEntity
  8
CK_LEVEL_1
  6
CONTINUOUS
 62
         7
100
AcDbVertex
100
AcDb3dPolylineVertex
 10
106.1644858074
 20
-260.5480056224
 30
0.0
 70
        32
  0
VERTEX
  5
595
100
AcDbEntity
  8
CK_LEVEL_1
  6
CONTINUOUS
 62
         7
100
AcDbVertex
100
AcDb3dPolylineVertex
 10
106.2064037056
 20
-260.4411902718
 30
0.0
 70
        32
  0
VERTEX
  5
597
100
AcDbEntity
  8
CK_LEVEL_1
  6
CONTINUOUS
 62
         7
100
AcDbVertex
100
AcDb3dPolylineVertex
 10
106.2516866813
 20
-260.3357548
 30
0.0
 70
        32
  0
VERTEX
  5
599
100
AcDbEntity
  8
CK_LEVEL_1
  6
CONTINUOUS
 62
         7
100
AcDbVertex
100
AcDb3dPolylineVertex
 10
106.3002665761
 20
-260.2317952048
 30
0.0
 70
        32
  0
VERTEX
  5
59B
100
AcDbEntity
  8
CK_LEVEL_1
  6
CONTINUOUS
 62
         7
100
AcDbVertex
100
AcDb3dPolylineVertex
 10
106.3520752315
 20
-260.1294074839
 30
0.0
 70
        32
  0
VERTEX
  5
59D
100
AcDbEntity
  8
CK_LEVEL_1
  6
CONTINUOUS
 62
         7
100
AcDbVertex
100
AcDb3dPolylineVertex
 10
106.4070444891
 20
-260.0286876349
 30
0.0
 70
        32
  0
VERTEX
  5
59F
100
AcDbEntity
  8
CK_LEVEL_1
  6
CONTINUOUS
 62
         7
100
AcDbVertex
100
AcDb3dPolylineVertex
 10
106.4651061904
 20
-259.9297316557
 30
0.0
 70
        32
  0
VERTEX
  5
5A1
100
AcDbEntity
  8
CK_LEVEL_1
  6
CONTINUOUS
 62
         7
100
AcDbVertex
100
AcDb3dPolylineVertex
 10
106.5261921771
 20
-259.8326355438
 30
0.0
 70
        32
  0
VERTEX
  5
5A3
100
AcDbEntity
  8
CK_LEVEL_1
  6
CONTINUOUS
 62
         7
100
AcDbVertex
100
AcDb3dPolylineVertex
 10
106.5902294376
 20
-259.7374932151
 30
0.0
 70
        32
  0
VERTEX
  5
5A5
100
AcDbEntity
  8
CK_LEVEL_1
  6
CONTINUOUS
 62
         7
100
AcDbVertex
100
AcDb3dPolylineVertex
 10
106.657141679
 20
-259.6443665589
 30
0.0
 70
        32
  0
VERTEX
  5
5A7
100
AcDbEntity
  8
CK_LEVEL_1
  6
CONTINUOUS
 62
         7
100
AcDbVertex
100
AcDb3dPolylineVertex
 10
106.7268480015
 20
-259.5533155453
 30
0.0
 70
        32
  0
VERTEX
  5
5A9
100
AcDbEntity
  8
CK_LEVEL_1
  6
CONTINUOUS
 62
         7
100
AcDbVertex
100
AcDb3dPolylineVertex
 10
106.7992675055
 20
-259.4644001448
 30
0.0
 70
        32
  0
VERTEX
  5
5AB
100
AcDbEntity
  8
CK_LEVEL_1
  6
CONTINUOUS
 62
         7
100
AcDbVertex
100
AcDb3dPolylineVertex
 10
106.874319291
 20
-259.3776803275
 30
0.0
 70
        32
  0
VERTEX
  5
5AD
100
AcDbEntity
  8
CK_LEVEL_1
  6
CONTINUOUS
 62
         7
100
AcDbVertex
100
AcDb3dPolylineVertex
 10
106.9519224585
 20
-259.2932160637
 30
0.0
 70
        32
  0
VERTEX
  5
5AF
100
AcDbEntity
  8
CK_LEVEL_1
  6
CONTINUOUS
 62
         7
100
AcDbVertex
100
AcDb3dPolylineVertex
 10
107.0319961082
 20
-259.2110673237
 30
0.0
 70
        32
  0
VERTEX
  5
5B1
100
AcDbEntity
  8
CK_LEVEL_1
  6
CONTINUOUS
 62
         7
100
AcDbVertex
100
AcDb3dPolylineVertex
 10
107.1144593402
 20
-259.1312940776
 30
0.0
 70
        32
  0
VERTEX
  5
5B3
100
AcDbEntity
  8
CK_LEVEL_1
  6
CONTINUOUS
 62
         7
100
AcDbVertex
100
AcDb3dPolylineVertex
 10
107.1992312549
 20
-259.0539562959
 30
0.0
 70
        32
  0
VERTEX
  5
5B5
100
AcDbEntity
  8
CK_LEVEL_1
  6
CONTINUOUS
 62
         7
100
AcDbVertex
100
AcDb3dPolylineVertex
 10
107.2862964463
 20
-258.9790535864
 30
0.0
 70
        32
  0
VERTEX
  5
5B7
100
AcDbEntity
  8
CK_LEVEL_1
  6
CONTINUOUS
 62
         7
100
AcDbVertex
100
AcDb3dPolylineVertex
 10
107.375492425
 20
-258.9066925493
 30
0.0
 70
        32
  0
VERTEX
  5
5B9
100
AcDbEntity
  8
CK_LEVEL_1
  6
CONTINUOUS
 62
         7
100
AcDbVertex
100
AcDb3dPolylineVertex
 10
107.4667187179
 20
-258.8369155271
 30
0.0
 70
        32
  0
VERTEX
  5
5BB
100
AcDbEntity
  8
CK_LEVEL_1
  6
CONTINUOUS
 62
         7
100
AcDbVertex
100
AcDb3dPolylineVertex
 10
107.5598748518
 20
-258.7697648625
 30
0.0
 70
        32
  0
VERTEX
  5
5BD
100
AcDbEntity
  8
CK_LEVEL_1
  6
CONTINUOUS
 62
         7
100
AcDbVertex
100
AcDb3dPolylineVertex
 10
107.6548603537
 20
-258.705282898
 30
0.0
 70
        32
  0
VERTEX
  5
5BF
100
AcDbEntity
  8
CK_LEVEL_1
  6
CONTINUOUS
 62
         7
100
AcDbVertex
100
AcDb3dPolylineVertex
 10
107.7515747503
 20
-258.6435119762
 30
0.0
 70
        32
  0
VERTEX
  5
5C1
100
AcDbEntity
  8
CK_LEVEL_1
  6
CONTINUOUS
 62
         7
100
AcDbVertex
100
AcDb3dPolylineVertex
 10
107.8499175686
 20
-258.5844944395
 30
0.0
 70
        32
  0
VERTEX
  5
5C3
100
AcDbEntity
  8
CK_LEVEL_1
  6
CONTINUOUS
 62
         7
100
AcDbVertex
100
AcDb3dPolylineVertex
 10
107.9497883354
 20
-258.5282726306
 30
0.0
 70
        32
  0
VERTEX
  5
5C5
100
AcDbEntity
  8
CK_LEVEL_1
  6
CONTINUOUS
 62
         7
100
AcDbVertex
100
AcDb3dPolylineVertex
 10
108.0510865776
 20
-258.474888892
 30
0.0
 70
        32
  0
SEQEND
  5
5C7
100
AcDbEntity
  8
CK_LEVEL_1
  6
CONTINUOUS
 62
         7
  0
POLYLINE
  5
5C9
100
AcDbEntity
  8
CK_LEVEL_1
  6
CONTINUOUS
 62
         7
100
AcDb3dPolyline
 66
         1
 10
0.0
 20
0.0
 30
0.0
 70
         8
  0
VERTEX
  5
5CB
100
AcDbEntity
  8
CK_LEVEL_1
  6
CONTINUOUS
 62
         7
100
AcDbVertex
100
AcDb3dPolylineVertex
 10
87.9554341395
 20
-270.9014923021
 30
0.0
 70
        32
  0
VERTEX
  5
5CD
100
AcDbEntity
  8
CK_LEVEL_1
  6
CONTINUOUS
 62
         7
100
AcDbVertex
100
AcDb3dPolylineVertex
 10
87.9394982457
 20
-270.8992852813
 30
0.0
 70
        32
  0
VERTEX
  5
5CF
100
AcDbEntity
  8
CK_LEVEL_1
  6
CONTINUOUS
 62
         7
100
AcDbVertex
100
AcDb3dPolylineVertex
 10
87.9236203496
 20
-270.8965696683
 30
0.0
 70
        32
  0
VERTEX
  5
5D1
100
AcDbEntity
  8
CK_LEVEL_1
  6
CONTINUOUS
 62
         7
100
AcDbVertex
100
AcDb3dPolylineVertex
 10
87.9078168724
 20
-270.8933624214
 30
0.0
 70
        32
  0
VERTEX
  5
5D3
100
AcDbEntity
  8
CK_LEVEL_1
  6
CONTINUOUS
 62
         7
100
AcDbVertex
100
AcDb3dPolylineVertex
 10
87.8921042355
 20
-270.8896804987
 30
0.0
 70
        32
  0
VERTEX
  5
5D5
100
AcDbEntity
  8
CK_LEVEL_1
  6
CONTINUOUS
 62
         7
100
AcDbVertex
100
AcDb3dPolylineVertex
 10
87.8764988602
 20
-270.8855408585
 30
0.0
 70
        32
  0
VERTEX
  5
5D7
100
AcDbEntity
  8
CK_LEVEL_1
  6
CONTINUOUS
 62
         7
100
AcDbVertex
100
AcDb3dPolylineVertex
 10
87.8610171678
 20
-270.8809604588
 30
0.0
 70
        32
  0
VERTEX
  5
5D9
100
AcDbEntity
  8
CK_LEVEL_1
  6
CONTINUOUS
 62
         7
100
AcDbVertex
100
AcDb3dPolylineVertex
 10
87.8456755798
 20
-270.8759562579
 30
0.0
 70
        32
  0
VERTEX
  5
5DB
100
AcDbEntity
  8
CK_LEVEL_1
  6
CONTINUOUS
 62
         7
100
AcDbVertex
100
AcDb3dPolylineVertex
 10
87.8304905173
 20
-270.8705452139
 30
0.0
 70
        32
  0
VERTEX
  5
5DD
100
AcDbEntity
  8
CK_LEVEL_1
  6
CONTINUOUS
 62
         7
100
AcDbVertex
100
AcDb3dPolylineVertex
 10
87.8154784018
 20
-270.864744285
 30
0.0
 70
        32
  0
SEQEND
  5
5DF
100
AcDbEntity
  8
CK_LEVEL_1
  6
CONTINUOUS
 62
         7
  0
POLYLINE
  5
5E1
100
AcDbEntity
  8
CK_LEVEL_1
  6
CONTINUOUS
 62
         7
100
AcDb3dPolyline
 66
         1
 10
0.0
 20
0.0
 30
0.0
 70
         8
  0
VERTEX
  5
5E3
100
AcDbEntity
  8
CK_LEVEL_1
  6
CONTINUOUS
 62
         7
100
AcDbVertex
100
AcDb3dPolylineVertex
 10
87.7946488653
 20
-270.9017265446
 30
0.0
 70
        32
  0
VERTEX
  5
5E5
100
AcDbEntity
  8
CK_LEVEL_1
  6
CONTINUOUS
 62
         7
100
AcDbVertex
100
AcDb3dPolylineVertex
 10
87.783450226
 20
-270.9214330005
 30
0.0
 70
        32
  0
VERTEX
  5
5E7
100
AcDbEntity
  8
CK_LEVEL_1
  6
CONTINUOUS
 62
         7
100
AcDbVertex
100
AcDb3dPolylineVertex
 10
87.7721108997
 20
-270.9410617552
 30
0.0
 70
        32
  0
VERTEX
  5
5E9
100
AcDbEntity
  8
CK_LEVEL_1
  6
CONTINUOUS
 62
         7
100
AcDbVertex
100
AcDb3dPolylineVertex
 10
87.7606256081
 20
-270.9606072764
 30
0.0
 70
        32
  0
VERTEX
  5
5EB
100
AcDbEntity
  8
CK_LEVEL_1
  6
CONTINUOUS
 62
         7
100
AcDbVertex
100
AcDb3dPolylineVertex
 10
87.7489890728
 20
-270.9800640317
 30
0.0
 70
        32
  0
VERTEX
  5
5ED
100
AcDbEntity
  8
CK_LEVEL_1
  6
CONTINUOUS
 62
         7
100
AcDbVertex
100
AcDb3dPolylineVertex
 10
87.7371960155
 20
-270.9994264886
 30
0.0
 70
        32
  0
VERTEX
  5
5EF
100
AcDbEntity
  8
CK_LEVEL_1
  6
CONTINUOUS
 62
         7
100
AcDbVertex
100
AcDb3dPolylineVertex
 10
87.7252411576
 20
-271.0186891147
 30
0.0
 70
        32
  0
VERTEX
  5
5F1
100
AcDbEntity
  8
CK_LEVEL_1
  6
CONTINUOUS
 62
         7
100
AcDbVertex
100
AcDb3dPolylineVertex
 10
87.713119221
 20
-271.0378463775
 30
0.0
 70
        32
  0
VERTEX
  5
5F3
100
AcDbEntity
  8
CK_LEVEL_1
  6
CONTINUOUS
 62
         7
100
AcDbVertex
100
AcDb3dPolylineVertex
 10
87.7008249272
 20
-271.0568927446
 30
0.0
 70
        32
  0
VERTEX
  5
5F5
100
AcDbEntity
  8
CK_LEVEL_1
  6
CONTINUOUS
 62
         7
100
AcDbVertex
100
AcDb3dPolylineVertex
 10
87.6883529978
 20
-271.0758226836
 30
0.0
 70
        32
  0
VERTEX
  5
5F7
100
AcDbEntity
  8
CK_LEVEL_1
  6
CONTINUOUS
 62
         7
100
AcDbVertex
100
AcDb3dPolylineVertex
 10
87.6760934981
 20
-271.0940473109
 30
0.0
 70
        32
  0
VERTEX
  5
5F9
100
AcDbEntity
  8
CK_LEVEL_1
  6
CONTINUOUS
 62
         7
100
AcDbVertex
100
AcDb3dPolylineVertex
 10
87.6636527893
 20
-271.1121483204
 30
0.0
 70
        32
  0
VERTEX
  5
5FB
100
AcDbEntity
  8
CK_LEVEL_1
  6
CONTINUOUS
 62
         7
100
AcDbVertex
100
AcDb3dPolylineVertex
 10
87.6510213831
 20
-271.1301165914
 30
0.0
 70
        32
  0
VERTEX
  5
5FD
100
AcDbEntity
  8
CK_LEVEL_1
  6
CONTINUOUS
 62
         7
100
AcDbVertex
100
AcDb3dPolylineVertex
 10
87.6381897908
 20
-271.1479430033
 30
0.0
 70
        32
  0
VERTEX
  5
5FF
100
AcDbEntity
  8
CK_LEVEL_1
  6
CONTINUOUS
 62
         7
100
AcDbVertex
100
AcDb3dPolylineVertex
 10
87.6251485242
 20
-271.1656184355
 30
0.0
 70
        32
  0
VERTEX
  5
601
100
AcDbEntity
  8
CK_LEVEL_1
  6
CONTINUOUS
 62
         7
100
AcDbVertex
100
AcDb3dPolylineVertex
 10
87.6118880946
 20
-271.1831337672
 30
0.0
 70
        32
  0
VERTEX
  5
603
100
AcDbEntity
  8
CK_LEVEL_1
  6
CONTINUOUS
 62
         7
100
AcDbVertex
100
AcDb3dPolylineVertex
 10
87.5983990136
 20
-271.2004798779
 30
0.0
 70
        32
  0
VERTEX
  5
605
100
AcDbEntity
  8
CK_LEVEL_1
  6
CONTINUOUS
 62
         7
100
AcDbVertex
100
AcDb3dPolylineVertex
 10
87.5846717927
 20
-271.2176476469
 30
0.0
 70
        32
  0
VERTEX
  5
607
100
AcDbEntity
  8
CK_LEVEL_1
  6
CONTINUOUS
 62
         7
100
AcDbVertex
100
AcDb3dPolylineVertex
 10
87.5706969434
 20
-271.2346279537
 30
0.0
 70
        32
  0
VERTEX
  5
609
100
AcDbEntity
  8
CK_LEVEL_1
  6
CONTINUOUS
 62
         7
100
AcDbVertex
100
AcDb3dPolylineVertex
 10
87.5571550819
 20
-271.2506046404
 30
0.0
 70
        32
  0
VERTEX
  5
60B
100
AcDbEntity
  8
CK_LEVEL_1
  6
CONTINUOUS
 62
         7
100
AcDbVertex
100
AcDb3dPolylineVertex
 10
87.5433647053
 20
-271.2663743294
 30
0.0
 70
        32
  0
VERTEX
  5
60D
100
AcDbEntity
  8
CK_LEVEL_1
  6
CONTINUOUS
 62
         7
100
AcDbVertex
100
AcDb3dPolylineVertex
 10
87.5293102498
 20
-271.2819081298
 30
0.0
 70
        32
  0
VERTEX
  5
60F
100
AcDbEntity
  8
CK_LEVEL_1
  6
CONTINUOUS
 62
         7
100
AcDbVertex
100
AcDb3dPolylineVertex
 10
87.5149761517
 20
-271.2971771509
 30
0.0
 70
        32
  0
VERTEX
  5
611
100
AcDbEntity
  8
CK_LEVEL_1
  6
CONTINUOUS
 62
         7
100
AcDbVertex
100
AcDb3dPolylineVertex
 10
87.5003468475
 20
-271.3121525018
 30
0.0
 70
        32
  0
VERTEX
  5
613
100
AcDbEntity
  8
CK_LEVEL_1
  6
CONTINUOUS
 62
         7
100
AcDbVertex
100
AcDb3dPolylineVertex
 10
87.4854067733
 20
-271.3268052917
 30
0.0
 70
        32
  0
VERTEX
  5
615
100
AcDbEntity
  8
CK_LEVEL_1
  6
CONTINUOUS
 62
         7
100
AcDbVertex
100
AcDb3dPolylineVertex
 10
87.4701403656
 20
-271.3411066299
 30
0.0
 70
        32
  0
VERTEX
  5
617
100
AcDbEntity
  8
CK_LEVEL_1
  6
CONTINUOUS
 62
         7
100
AcDbVertex
100
AcDb3dPolylineVertex
 10
87.4545320607
 20
-271.3550276255
 30
0.0
 70
        32
  0
VERTEX
  5
619
100
AcDbEntity
  8
CK_LEVEL_1
  6
CONTINUOUS
 62
         7
100
AcDbVertex
100
AcDb3dPolylineVertex
 10
87.4385662948
 20
-271.3685393877
 30
0.0
 70
        32
  0
VERTEX
  5
61B
100
AcDbEntity
  8
CK_LEVEL_1
  6
CONTINUOUS
 62
         7
100
AcDbVertex
100
AcDb3dPolylineVertex
 10
87.4308667338
 20
-271.374793638
 30
0.0
 70
        32
  0
VERTEX
  5
61D
100
AcDbEntity
  8
CK_LEVEL_1
  6
CONTINUOUS
 62
         7
100
AcDbVertex
100
AcDb3dPolylineVertex
 10
87.4230805989
 20
-271.3809412321
 30
0.0
 70
        32
  0
VERTEX
  5
61F
100
AcDbEntity
  8
CK_LEVEL_1
  6
CONTINUOUS
 62
         7
100
AcDbVertex
100
AcDb3dPolylineVertex
 10
87.4152051747
 20
-271.3869740072
 30
0.0
 70
        32
  0
VERTEX
  5
621
100
AcDbEntity
  8
CK_LEVEL_1
  6
CONTINUOUS
 62
         7
100
AcDbVertex
100
AcDb3dPolylineVertex
 10
87.4072377457
 20
-271.3928838005
 30
0.0
 70
        32
  0
VERTEX
  5
623
100
AcDbEntity
  8
CK_LEVEL_1
  6
CONTINUOUS
 62
         7
100
AcDbVertex
100
AcDb3dPolylineVertex
 10
87.3991755964
 20
-271.3986624492
 30
0.0
 70
        32
  0
VERTEX
  5
625
100
AcDbEntity
  8
CK_LEVEL_1
  6
CONTINUOUS
 62
         7
100
AcDbVertex
100
AcDb3dPolylineVertex
 10
87.3910160116
 20
-271.4043017904
 30
0.0
 70
        32
  0
VERTEX
  5
627
100
AcDbEntity
  8
CK_LEVEL_1
  6
CONTINUOUS
 62
         7
100
AcDbVertex
100
AcDb3dPolylineVertex
 10
87.3827562757
 20
-271.4097936612
 30
0.0
 70
        32
  0
VERTEX
  5
629
100
AcDbEntity
  8
CK_LEVEL_1
  6
CONTINUOUS
 62
         7
100
AcDbVertex
100
AcDb3dPolylineVertex
 10
87.3743936733
 20
-271.4151298989
 30
0.0
 70
        32
  0
VERTEX
  5
62B
100
AcDbEntity
  8
CK_LEVEL_1
  6
CONTINUOUS
 62
         7
100
AcDbVertex
100
AcDb3dPolylineVertex
 10
87.3659254889
 20
-271.4203023406
 30
0.0
 70
        32
  0
VERTEX
  5
62D
100
AcDbEntity
  8
CK_LEVEL_1
  6
CONTINUOUS
 62
         7
100
AcDbVertex
100
AcDb3dPolylineVertex
 10
87.3577444106
 20
-271.4250767475
 30
0.0
 70
        32
  0
VERTEX
  5
62F
100
AcDbEntity
  8
CK_LEVEL_1
  6
CONTINUOUS
 62
         7
100
AcDbVertex
100
AcDb3dPolylineVertex
 10
87.3494642685
 20
-271.4296815073
 30
0.0
 70
        32
  0
VERTEX
  5
631
100
AcDbEntity
  8
CK_LEVEL_1
  6
CONTINUOUS
 62
         7
100
AcDbVertex
100
AcDb3dPolylineVertex
 10
87.3410846062
 20
-271.4341035456
 30
0.0
 70
        32
  0
VERTEX
  5
633
100
AcDbEntity
  8
CK_LEVEL_1
  6
CONTINUOUS
 62
         7
100
AcDbVertex
100
AcDb3dPolylineVertex
 10
87.3326049673
 20
-271.4383297882
 30
0.0
 70
        32
  0
VERTEX
  5
635
100
AcDbEntity
  8
CK_LEVEL_1
  6
CONTINUOUS
 62
         7
100
AcDbVertex
100
AcDb3dPolylineVertex
 10
87.3240248956
 20
-271.4423471607
 30
0.0
 70
        32
  0
VERTEX
  5
637
100
AcDbEntity
  8
CK_LEVEL_1
  6
CONTINUOUS
 62
         7
100
AcDbVertex
100
AcDb3dPolylineVertex
 10
87.3153439344
 20
-271.4461425888
 30
0.0
 70
        32
  0
VERTEX
  5
639
100
AcDbEntity
  8
CK_LEVEL_1
  6
CONTINUOUS
 62
         7
100
AcDbVertex
100
AcDb3dPolylineVertex
 10
87.3065616276
 20
-271.449702998
 30
0.0
 70
        32
  0
VERTEX
  5
63B
100
AcDbEntity
  8
CK_LEVEL_1
  6
CONTINUOUS
 62
         7
100
AcDbVertex
100
AcDb3dPolylineVertex
 10
87.2976775186
 20
-271.4530153142
 30
0.0
 70
        32
  0
VERTEX
  5
63D
100
AcDbEntity
  8
CK_LEVEL_1
  6
CONTINUOUS
 62
         7
100
AcDbVertex
100
AcDb3dPolylineVertex
 10
87.2886911511
 20
-271.4560664628
 30
0.0
 70
        32
  0
VERTEX
  5
63F
100
AcDbEntity
  8
CK_LEVEL_1
  6
CONTINUOUS
 62
         7
100
AcDbVertex
100
AcDb3dPolylineVertex
 10
87.2799731235
 20
-271.4587356783
 30
0.0
 70
        32
  0
VERTEX
  5
641
100
AcDbEntity
  8
CK_LEVEL_1
  6
CONTINUOUS
 62
         7
100
AcDbVertex
100
AcDb3dPolylineVertex
 10
87.271170618
 20
-271.4611350908
 30
0.0
 70
        32
  0
VERTEX
  5
643
100
AcDbEntity
  8
CK_LEVEL_1
  6
CONTINUOUS
 62
         7
100
AcDbVertex
100
AcDb3dPolylineVertex
 10
87.2622937375
 20
-271.4632474215
 30
0.0
 70
        32
  0
VERTEX
  5
645
100
AcDbEntity
  8
CK_LEVEL_1
  6
CONTINUOUS
 62
         7
100
AcDbVertex
100
AcDb3dPolylineVertex
 10
87.2533525849
 20
-271.4650553918
 30
0.0
 70
        32
  0
VERTEX
  5
647
100
AcDbEntity
  8
CK_LEVEL_1
  6
CONTINUOUS
 62
         7
100
AcDbVertex
100
AcDb3dPolylineVertex
 10
87.2443572632
 20
-271.4665417231
 30
0.0
 70
        32
  0
VERTEX
  5
649
100
AcDbEntity
  8
CK_LEVEL_1
  6
CONTINUOUS
 62
         7
100
AcDbVertex
100
AcDb3dPolylineVertex
 10
87.2353178753
 20
-271.4676891368
 30
0.0
 70
        32
  0
VERTEX
  5
64B
100
AcDbEntity
  8
CK_LEVEL_1
  6
CONTINUOUS
 62
         7
100
AcDbVertex
100
AcDb3dPolylineVertex
 10
87.2262445242
 20
-271.4684803543
 30
0.0
 70
        32
  0
VERTEX
  5
64D
100
AcDbEntity
  8
CK_LEVEL_1
  6
CONTINUOUS
 62
         7
100
AcDbVertex
100
AcDb3dPolylineVertex
 10
87.2171473126
 20
-271.4688980968
 30
0.0
 70
        32
  0
VERTEX
  5
64F
100
AcDbEntity
  8
CK_LEVEL_1
  6
CONTINUOUS
 62
         7
100
AcDbVertex
100
AcDb3dPolylineVertex
 10
87.2080363437
 20
-271.4689250859
 30
0.0
 70
        32
  0
VERTEX
  5
651
100
AcDbEntity
  8
CK_LEVEL_1
  6
CONTINUOUS
 62
         7
100
AcDbVertex
100
AcDb3dPolylineVertex
 10
87.1988933187
 20
-271.4685457002
 30
0.0
 70
        32
  0
VERTEX
  5
653
100
AcDbEntity
  8
CK_LEVEL_1
  6
CONTINUOUS
 62
         7
100
AcDbVertex
100
AcDb3dPolylineVertex
 10
87.1897667047
 20
-271.4677597846
 30
0.0
 70
        32
  0
VERTEX
  5
655
100
AcDbEntity
  8
CK_LEVEL_1
  6
CONTINUOUS
 62
         7
100
AcDbVertex
100
AcDb3dPolylineVertex
 10
87.1806765914
 20
-271.4665715367
 30
0.0
 70
        32
  0
VERTEX
  5
657
100
AcDbEntity
  8
CK_LEVEL_1
  6
CONTINUOUS
 62
         7
100
AcDbVertex
100
AcDb3dPolylineVertex
 10
87.1716430686
 20
-271.4649851538
 30
0.0
 70
        32
  0
VERTEX
  5
659
100
AcDbEntity
  8
CK_LEVEL_1
  6
CONTINUOUS
 62
         7
100
AcDbVertex
100
AcDb3dPolylineVertex
 10
87.1626862258
 20
-271.4630048336
 30
0.0
 70
        32
  0
VERTEX
  5
65B
100
AcDbEntity
  8
CK_LEVEL_1
  6
CONTINUOUS
 62
         7
100
AcDbVertex
100
AcDb3dPolylineVertex
 10
87.1538261528
 20
-271.4606347737
 30
0.0
 70
        32
  0
VERTEX
  5
65D
100
AcDbEntity
  8
CK_LEVEL_1
  6
CONTINUOUS
 62
         7
100
AcDbVertex
100
AcDb3dPolylineVertex
 10
87.1450829392
 20
-271.4578791715
 30
0.0
 70
        32
  0
VERTEX
  5
65F
100
AcDbEntity
  8
CK_LEVEL_1
  6
CONTINUOUS
 62
         7
100
AcDbVertex
100
AcDb3dPolylineVertex
 10
87.1364766748
 20
-271.4547422245
 30
0.0
 70
        32
  0
VERTEX
  5
661
100
AcDbEntity
  8
CK_LEVEL_1
  6
CONTINUOUS
 62
         7
100
AcDbVertex
100
AcDb3dPolylineVertex
 10
87.1280274492
 20
-271.4512281304
 30
0.0
 70
        32
  0
VERTEX
  5
663
100
AcDbEntity
  8
CK_LEVEL_1
  6
CONTINUOUS
 62
         7
100
AcDbVertex
100
AcDb3dPolylineVertex
 10
87.1191191777
 20
-271.4470280259
 30
0.0
 70
        32
  0
VERTEX
  5
665
100
AcDbEntity
  8
CK_LEVEL_1
  6
CONTINUOUS
 62
         7
100
AcDbVertex
100
AcDb3dPolylineVertex
 10
87.1104189108
 20
-271.4424198716
 30
0.0
 70
        32
  0
VERTEX
  5
667
100
AcDbEntity
  8
CK_LEVEL_1
  6
CONTINUOUS
 62
         7
100
AcDbVertex
100
AcDb3dPolylineVertex
 10
87.1019290398
 20
-271.4374285434
 30
0.0
 70
        32
  0
VERTEX
  5
669
100
AcDbEntity
  8
CK_LEVEL_1
  6
CONTINUOUS
 62
         7
100
AcDbVertex
100
AcDb3dPolylineVertex
 10
87.0936519562
 20
-271.4320789168
 30
0.0
 70
        32
  0
VERTEX
  5
66B
100
AcDbEntity
  8
CK_LEVEL_1
  6
CONTINUOUS
 62
         7
100
AcDbVertex
100
AcDb3dPolylineVertex
 10
87.085590051
 20
-271.4263958675
 30
0.0
 70
        32
  0
VERTEX
  5
66D
100
AcDbEntity
  8
CK_LEVEL_1
  6
CONTINUOUS
 62
         7
100
AcDbVertex
100
AcDb3dPolylineVertex
 10
87.0777457157
 20
-271.4204042714
 30
0.0
 70
        32
  0
VERTEX
  5
66F
100
AcDbEntity
  8
CK_LEVEL_1
  6
CONTINUOUS
 62
         7
100
AcDbVertex
100
AcDb3dPolylineVertex
 10
87.0701213416
 20
-271.4141290039
 30
0.0
 70
        32
  0
VERTEX
  5
671
100
AcDbEntity
  8
CK_LEVEL_1
  6
CONTINUOUS
 62
         7
100
AcDbVertex
100
AcDb3dPolylineVertex
 10
87.06271932
 20
-271.407594941
 30
0.0
 70
        32
  0
VERTEX
  5
673
100
AcDbEntity
  8
CK_LEVEL_1
  6
CONTINUOUS
 62
         7
100
AcDbVertex
100
AcDb3dPolylineVertex
 10
87.0555420421
 20
-271.4008269581
 30
0.0
 70
        32
  0
VERTEX
  5
675
100
AcDbEntity
  8
CK_LEVEL_1
  6
CONTINUOUS
 62
         7
100
AcDbVertex
100
AcDb3dPolylineVertex
 10
87.0479060951
 20
-271.3931375724
 30
0.0
 70
        32
  0
VERTEX
  5
677
100
AcDbEntity
  8
CK_LEVEL_1
  6
CONTINUOUS
 62
         7
100
AcDbVertex
100
AcDb3dPolylineVertex
 10
87.0405353355
 20
-271.3852112145
 30
0.0
 70
        32
  0
VERTEX
  5
679
100
AcDbEntity
  8
CK_LEVEL_1
  6
CONTINUOUS
 62
         7
100
AcDbVertex
100
AcDb3dPolylineVertex
 10
87.033420028
 20
-271.3770639384
 30
0.0
 70
        32
  0
VERTEX
  5
67B
100
AcDbEntity
  8
CK_LEVEL_1
  6
CONTINUOUS
 62
         7
100
AcDbVertex
100
AcDb3dPolylineVertex
 10
87.0265504369
 20
-271.3687117978
 30
0.0
 70
        32
  0
VERTEX
  5
67D
100
AcDbEntity
  8
CK_LEVEL_1
  6
CONTINUOUS
 62
         7
100
AcDbVertex
100
AcDb3dPolylineVertex
 10
87.0199168268
 20
-271.3601708465
 30
0.0
 70
        32
  0
VERTEX
  5
67F
100
AcDbEntity
  8
CK_LEVEL_1
  6
CONTINUOUS
 62
         7
100
AcDbVertex
100
AcDb3dPolylineVertex
 10
87.0135094621
 20
-271.3514571382
 30
0.0
 70
        32
  0
VERTEX
  5
681
100
AcDbEntity
  8
CK_LEVEL_1
  6
CONTINUOUS
 62
         7
100
AcDbVertex
100
AcDb3dPolylineVertex
 10
87.0073186074
 20
-271.3425867269
 30
0.0
 70
        32
  0
VERTEX
  5
683
100
AcDbEntity
  8
CK_LEVEL_1
  6
CONTINUOUS
 62
         7
100
AcDbVertex
100
AcDb3dPolylineVertex
 10
87.001334527
 20
-271.3335756662
 30
0.0
 70
        32
  0
VERTEX
  5
685
100
AcDbEntity
  8
CK_LEVEL_1
  6
CONTINUOUS
 62
         7
100
AcDbVertex
100
AcDb3dPolylineVertex
 10
86.9955474856
 20
-271.32444001
 30
0.0
 70
        32
  0
VERTEX
  5
687
100
AcDbEntity
  8
CK_LEVEL_1
  6
CONTINUOUS
 62
         7
100
AcDbVertex
100
AcDb3dPolylineVertex
 10
86.9895577576
 20
-271.3145338144
 30
0.0
 70
        32
  0
VERTEX
  5
689
100
AcDbEntity
  8
CK_LEVEL_1
  6
CONTINUOUS
 62
         7
100
AcDbVertex
100
AcDb3dPolylineVertex
 10
86.9837749571
 20
-271.3045105967
 30
0.0
 70
        32
  0
VERTEX
  5
68B
100
AcDbEntity
  8
CK_LEVEL_1
  6
CONTINUOUS
 62
         7
100
AcDbVertex
100
AcDb3dPolylineVertex
 10
86.9781911708
 20
-271.2943778345
 30
0.0
 70
        32
  0
VERTEX
  5
68D
100
AcDbEntity
  8
CK_LEVEL_1
  6
CONTINUOUS
 62
         7
100
AcDbVertex
100
AcDb3dPolylineVertex
 10
86.9727984854
 20
-271.2841430053
 30
0.0
 70
        32
  0
VERTEX
  5
68F
100
AcDbEntity
  8
CK_LEVEL_1
  6
CONTINUOUS
 62
         7
100
AcDbVertex
100
AcDb3dPolylineVertex
 10
86.9675889875
 20
-271.2738135866
 30
0.0
 70
        32
  0
VERTEX
  5
691
100
AcDbEntity
  8
CK_LEVEL_1
  6
CONTINUOUS
 62
         7
100
AcDbVertex
100
AcDb3dPolylineVertex
 10
86.9625547638
 20
-271.263397056
 30
0.0
 70
        32
  0
VERTEX
  5
693
100
AcDbEntity
  8
CK_LEVEL_1
  6
CONTINUOUS
 62
         7
100
AcDbVertex
100
AcDb3dPolylineVertex
 10
86.9576879008
 20
-271.2529008911
 30
0.0
 70
        32
  0
VERTEX
  5
695
100
AcDbEntity
  8
CK_LEVEL_1
  6
CONTINUOUS
 62
         7
100
AcDbVertex
100
AcDb3dPolylineVertex
 10
86.9529804853
 20
-271.2423325695
 30
0.0
 70
        32
  0
VERTEX
  5
697
100
AcDbEntity
  8
CK_LEVEL_1
  6
CONTINUOUS
 62
         7
100
AcDbVertex
100
AcDb3dPolylineVertex
 10
86.9484246038
 20
-271.2316995686
 30
0.0
 70
        32
  0
VERTEX
  5
699
100
AcDbEntity
  8
CK_LEVEL_1
  6
CONTINUOUS
 62
         7
100
AcDbVertex
100
AcDb3dPolylineVertex
 10
86.9438347796
 20
-271.2205686963
 30
0.0
 70
        32
  0
VERTEX
  5
69B
100
AcDbEntity
  8
CK_LEVEL_1
  6
CONTINUOUS
 62
         7
100
AcDbVertex
100
AcDb3dPolylineVertex
 10
86.9393950272
 20
-271.2093792167
 30
0.0
 70
        32
  0
VERTEX
  5
69D
100
AcDbEntity
  8
CK_LEVEL_1
  6
CONTINUOUS
 62
         7
100
AcDbVertex
100
AcDb3dPolylineVertex
 10
86.9350997678
 20
-271.1981345158
 30
0.0
 70
        32
  0
VERTEX
  5
69F
100
AcDbEntity
  8
CK_LEVEL_1
  6
CONTINUOUS
 62
         7
100
AcDbVertex
100
AcDb3dPolylineVertex
 10
86.9309434225
 20
-271.1868379792
 30
0.0
 70
        32
  0
VERTEX
  5
6A1
100
AcDbEntity
  8
CK_LEVEL_1
  6
CONTINUOUS
 62
         7
100
AcDbVertex
100
AcDb3dPolylineVertex
 10
86.9269204126
 20
-271.1754929928
 30
0.0
 70
        32
  0
VERTEX
  5
6A3
100
AcDbEntity
  8
CK_LEVEL_1
  6
CONTINUOUS
 62
         7
100
AcDbVertex
100
AcDb3dPolylineVertex
 10
86.9230251591
 20
-271.1641029423
 30
0.0
 70
        32
  0
VERTEX
  5
6A5
100
AcDbEntity
  8
CK_LEVEL_1
  6
CONTINUOUS
 62
         7
100
AcDbVertex
100
AcDb3dPolylineVertex
 10
86.9192520832
 20
-271.1526712136
 30
0.0
 70
        32
  0
VERTEX
  5
6A7
100
AcDbEntity
  8
CK_LEVEL_1
  6
CONTINUOUS
 62
         7
100
AcDbVertex
100
AcDb3dPolylineVertex
 10
86.915595606
 20
-271.1412011924
 30
0.0
 70
        32
  0
VERTEX
  5
6A9
100
AcDbEntity
  8
CK_LEVEL_1
  6
CONTINUOUS
 62
         7
100
AcDbVertex
100
AcDb3dPolylineVertex
 10
86.9120501489
 20
-271.1296962646
 30
0.0
 70
        32
  0
VERTEX
  5
6AB
100
AcDbEntity
  8
CK_LEVEL_1
  6
CONTINUOUS
 62
         7
100
AcDbVertex
100
AcDb3dPolylineVertex
 10
86.905078852
 20
-271.1059043525
 30
0.0
 70
        32
  0
VERTEX
  5
6AD
100
AcDbEntity
  8
CK_LEVEL_1
  6
CONTINUOUS
 62
         7
100
AcDbVertex
100
AcDb3dPolylineVertex
 10
86.8985319344
 20
-271.0819908451
 30
0.0
 70
        32
  0
VERTEX
  5
6AF
100
AcDbEntity
  8
CK_LEVEL_1
  6
CONTINUOUS
 62
         7
100
AcDbVertex
100
AcDb3dPolylineVertex
 10
86.8923865781
 20
-271.0579678339
 30
0.0
 70
        32
  0
VERTEX
  5
6B1
100
AcDbEntity
  8
CK_LEVEL_1
  6
CONTINUOUS
 62
         7
100
AcDbVertex
100
AcDb3dPolylineVertex
 10
86.886619965
 20
-271.0338474102
 30
0.0
 70
        32
  0
VERTEX
  5
6B3
100
AcDbEntity
  8
CK_LEVEL_1
  6
CONTINUOUS
 62
         7
100
AcDbVertex
100
AcDb3dPolylineVertex
 10
86.881209277
 20
-271.0096416652
 30
0.0
 70
        32
  0
VERTEX
  5
6B5
100
AcDbEntity
  8
CK_LEVEL_1
  6
CONTINUOUS
 62
         7
100
AcDbVertex
100
AcDb3dPolylineVertex
 10
86.8761316962
 20
-270.9853626904
 30
0.0
 70
        32
  0
VERTEX
  5
6B7
100
AcDbEntity
  8
CK_LEVEL_1
  6
CONTINUOUS
 62
         7
100
AcDbVertex
100
AcDb3dPolylineVertex
 10
86.8713644045
 20
-270.961022577
 30
0.0
 70
        32
  0
VERTEX
  5
6B9
100
AcDbEntity
  8
CK_LEVEL_1
  6
CONTINUOUS
 62
         7
100
AcDbVertex
100
AcDb3dPolylineVertex
 10
86.8668845838
 20
-270.9366334165
 30
0.0
 70
        32
  0
VERTEX
  5
6BB
100
AcDbEntity
  8
CK_LEVEL_1
  6
CONTINUOUS
 62
         7
100
AcDbVertex
100
AcDb3dPolylineVertex
 10
86.862669416
 20
-270.9122073001
 30
0.0
 70
        32
  0
SEQEND
  5
6BD
100
AcDbEntity
  8
CK_LEVEL_1
  6
CONTINUOUS
 62
         7
  0
POLYLINE
  5
6BF
100
AcDbEntity
  8
CK_LEVEL_1
  6
CONTINUOUS
 62
         7
100
AcDb3dPolyline
 66
         1
 10
0.0
 20
0.0
 30
0.0
 70
         8
  0
VERTEX
  5
6C1
100
AcDbEntity
  8
CK_LEVEL_1
  6
CONTINUOUS
 62
         7
100
AcDbVertex
100
AcDb3dPolylineVertex
 10
86.862669416
 20
-270.9122073001
 30
0.0
 70
        32
  0
VERTEX
  5
6C3
100
AcDbEntity
  8
CK_LEVEL_1
  6
CONTINUOUS
 62
         7
100
AcDbVertex
100
AcDb3dPolylineVertex
 10
86.8602368646
 20
-270.8975080673
 30
0.0
 70
        32
  0
VERTEX
  5
6C5
100
AcDbEntity
  8
CK_LEVEL_1
  6
CONTINUOUS
 62
         7
100
AcDbVertex
100
AcDb3dPolylineVertex
 10
86.8578585916
 20
-270.8828004339
 30
0.0
 70
        32
  0
VERTEX
  5
6C7
100
AcDbEntity
  8
CK_LEVEL_1
  6
CONTINUOUS
 62
         7
100
AcDbVertex
100
AcDb3dPolylineVertex
 10
86.8555354138
 20
-270.8680841667
 30
0.0
 70
        32
  0
VERTEX
  5
6C9
100
AcDbEntity
  8
CK_LEVEL_1
  6
CONTINUOUS
 62
         7
100
AcDbVertex
100
AcDb3dPolylineVertex
 10
86.8532681479
 20
-270.8533590327
 30
0.0
 70
        32
  0
VERTEX
  5
6CB
100
AcDbEntity
  8
CK_LEVEL_1
  6
CONTINUOUS
 62
         7
100
AcDbVertex
100
AcDb3dPolylineVertex
 10
86.8510576107
 20
-270.8386247986
 30
0.0
 70
        32
  0
VERTEX
  5
6CD
100
AcDbEntity
  8
CK_LEVEL_1
  6
CONTINUOUS
 62
         7
100
AcDbVertex
100
AcDb3dPolylineVertex
 10
86.8489046188
 20
-270.8238812313
 30
0.0
 70
        32
  0
VERTEX
  5
6CF
100
AcDbEntity
  8
CK_LEVEL_1
  6
CONTINUOUS
 62
         7
100
AcDbVertex
100
AcDb3dPolylineVertex
 10
86.846809989
 20
-270.8091280977
 30
0.0
 70
        32
  0
VERTEX
  5
6D1
100
AcDbEntity
  8
CK_LEVEL_1
  6
CONTINUOUS
 62
         7
100
AcDbVertex
100
AcDb3dPolylineVertex
 10
86.8447745381
 20
-270.7943651646
 30
0.0
 70
        32
  0
VERTEX
  5
6D3
100
AcDbEntity
  8
CK_LEVEL_1
  6
CONTINUOUS
 62
         7
100
AcDbVertex
100
AcDb3dPolylineVertex
 10
86.8427990826
 20
-270.779592199
 30
0.0
 70
        32
  0
VERTEX
  5
6D5
100
AcDbEntity
  8
CK_LEVEL_1
  6
CONTINUOUS
 62
         7
100
AcDbVertex
100
AcDb3dPolylineVertex
 10
86.8373202334
 20
-270.7358773748
 30
0.0
 70
        32
  0
VERTEX
  5
6D7
100
AcDbEntity
  8
CK_LEVEL_1
  6
CONTINUOUS
 62
         7
100
AcDbVertex
100
AcDb3dPolylineVertex
 10
86.832396381
 20
-270.6920839607
 30
0.0
 70
        32
  0
VERTEX
  5
6D9
100
AcDbEntity
  8
CK_LEVEL_1
  6
CONTINUOUS
 62
         7
100
AcDbVertex
100
AcDb3dPolylineVertex
 10
86.828051443
 20
-270.6482230182
 30
0.0
 70
        32
  0
VERTEX
  5
6DB
100
AcDbEntity
  8
CK_LEVEL_1
  6
CONTINUOUS
 62
         7
100
AcDbVertex
100
AcDb3dPolylineVertex
 10
86.824309337
 20
-270.6043056089
 30
0.0
 70
        32
  0
VERTEX
  5
6DD
100
AcDbEntity
  8
CK_LEVEL_1
  6
CONTINUOUS
 62
         7
100
AcDbVertex
100
AcDb3dPolylineVertex
 10
86.8211939805
 20
-270.5603427946
 30
0.0
 70
        32
  0
VERTEX
  5
6DF
100
AcDbEntity
  8
CK_LEVEL_1
  6
CONTINUOUS
 62
         7
100
AcDbVertex
100
AcDb3dPolylineVertex
 10
86.8187292912
 20
-270.5163456368
 30
0.0
 70
        32
  0
VERTEX
  5
6E1
100
AcDbEntity
  8
CK_LEVEL_1
  6
CONTINUOUS
 62
         7
100
AcDbVertex
100
AcDb3dPolylineVertex
 10
86.8169391866
 20
-270.4723251972
 30
0.0
 70
        32
  0
VERTEX
  5
6E3
100
AcDbEntity
  8
CK_LEVEL_1
  6
CONTINUOUS
 62
         7
100
AcDbVertex
100
AcDb3dPolylineVertex
 10
86.8158475843
 20
-270.4282925374
 30
0.0
 70
        32
  0
VERTEX
  5
6E5
100
AcDbEntity
  8
CK_LEVEL_1
  6
CONTINUOUS
 62
         7
100
AcDbVertex
100
AcDb3dPolylineVertex
 10
86.8154784018
 20
-270.3842587191
 30
0.0
 70
        32
  0
SEQEND
  5
6E7
100
AcDbEntity
  8
CK_LEVEL_1
  6
CONTINUOUS
 62
         7
  0
POLYLINE
  5
6E9
100
AcDbEntity
  8
CK_LEVEL_1
  6
CONTINUOUS
 62
         7
100
AcDb3dPolyline
 66
         1
 10
0.0
 20
0.0
 30
0.0
 70
         8
  0
VERTEX
  5
6EB
100
AcDbEntity
  8
CK_LEVEL_1
  6
CONTINUOUS
 62
         7
100
AcDbVertex
100
AcDb3dPolylineVertex
 10
86.862669416
 20
-252.6555524998
 30
0.0
 70
        32
  0
VERTEX
  5
6ED
100
AcDbEntity
  8
CK_LEVEL_1
  6
CONTINUOUS
 62
         7
100
AcDbVertex
100
AcDb3dPolylineVertex
 10
86.8668846483
 20
-252.6311229987
 30
0.0
 70
        32
  0
VERTEX
  5
6EF
100
AcDbEntity
  8
CK_LEVEL_1
  6
CONTINUOUS
 62
         7
100
AcDbVertex
100
AcDb3dPolylineVertex
 10
86.8713638348
 20
-252.6067301477
 30
0.0
 70
        32
  0
VERTEX
  5
6F1
100
AcDbEntity
  8
CK_LEVEL_1
  6
CONTINUOUS
 62
         7
100
AcDbVertex
100
AcDb3dPolylineVertex
 10
86.8761301486
 20
-252.5823861919
 30
0.0
 70
        32
  0
VERTEX
  5
6F3
100
AcDbEntity
  8
CK_LEVEL_1
  6
CONTINUOUS
 62
         7
100
AcDbVertex
100
AcDb3dPolylineVertex
 10
86.881206763
 20
-252.5581033759
 30
0.0
 70
        32
  0
VERTEX
  5
6F5
100
AcDbEntity
  8
CK_LEVEL_1
  6
CONTINUOUS
 62
         7
100
AcDbVertex
100
AcDb3dPolylineVertex
 10
86.8866168511
 20
-252.5338939447
 30
0.0
 70
        32
  0
VERTEX
  5
6F7
100
AcDbEntity
  8
CK_LEVEL_1
  6
CONTINUOUS
 62
         7
100
AcDbVertex
100
AcDb3dPolylineVertex
 10
86.8923835862
 20
-252.5097701431
 30
0.0
 70
        32
  0
VERTEX
  5
6F9
100
AcDbEntity
  8
CK_LEVEL_1
  6
CONTINUOUS
 62
         7
100
AcDbVertex
100
AcDb3dPolylineVertex
 10
86.8985301414
 20
-252.4857442159
 30
0.0
 70
        32
  0
VERTEX
  5
6FB
100
AcDbEntity
  8
CK_LEVEL_1
  6
CONTINUOUS
 62
         7
100
AcDbVertex
100
AcDb3dPolylineVertex
 10
86.9050796899
 20
-252.461828408
 30
0.0
 70
        32
  0
VERTEX
  5
6FD
100
AcDbEntity
  8
CK_LEVEL_1
  6
CONTINUOUS
 62
         7
100
AcDbVertex
100
AcDb3dPolylineVertex
 10
86.9120554049
 20
-252.4380349641
 30
0.0
 70
        32
  0
VERTEX
  5
6FF
100
AcDbEntity
  8
CK_LEVEL_1
  6
CONTINUOUS
 62
         7
100
AcDbVertex
100
AcDb3dPolylineVertex
 10
86.9156030202
 20
-252.4265318163
 30
0.0
 70
        32
  0
VERTEX
  5
701
100
AcDbEntity
  8
CK_LEVEL_1
  6
CONTINUOUS
 62
         7
100
AcDbVertex
100
AcDb3dPolylineVertex
 10
86.9192619083
 20
-252.4150636779
 30
0.0
 70
        32
  0
VERTEX
  5
703
100
AcDbEntity
  8
CK_LEVEL_1
  6
CONTINUOUS
 62
         7
100
AcDbVertex
100
AcDb3dPolylineVertex
 10
86.9230374364
 20
-252.4036338319
 30
0.0
 70
        32
  0
VERTEX
  5
705
100
AcDbEntity
  8
CK_LEVEL_1
  6
CONTINUOUS
 62
         7
100
AcDbVertex
100
AcDb3dPolylineVertex
 10
86.926934972
 20
-252.3922455617
 30
0.0
 70
        32
  0
VERTEX
  5
707
100
AcDbEntity
  8
CK_LEVEL_1
  6
CONTINUOUS
 62
         7
100
AcDbVertex
100
AcDb3dPolylineVertex
 10
86.9309598826
 20
-252.3809021505
 30
0.0
 70
        32
  0
VERTEX
  5
709
100
AcDbEntity
  8
CK_LEVEL_1
  6
CONTINUOUS
 62
         7
100
AcDbVertex
100
AcDb3dPolylineVertex
 10
86.9351175354
 20
-252.3696068814
 30
0.0
 70
        32
  0
VERTEX
  5
70B
100
AcDbEntity
  8
CK_LEVEL_1
  6
CONTINUOUS
 62
         7
100
AcDbVertex
100
AcDb3dPolylineVertex
 10
86.939413298
 20
-252.3583630377
 30
0.0
 70
        32
  0
VERTEX
  5
70D
100
AcDbEntity
  8
CK_LEVEL_1
  6
CONTINUOUS
 62
         7
100
AcDbVertex
100
AcDb3dPolylineVertex
 10
86.9438525377
 20
-252.3471739027
 30
0.0
 70
        32
  0
VERTEX
  5
70F
100
AcDbEntity
  8
CK_LEVEL_1
  6
CONTINUOUS
 62
         7
100
AcDbVertex
100
AcDb3dPolylineVertex
 10
86.948440622
 20
-252.3360427595
 30
0.0
 70
        32
  0
VERTEX
  5
711
100
AcDbEntity
  8
CK_LEVEL_1
  6
CONTINUOUS
 62
         7
100
AcDbVertex
100
AcDb3dPolylineVertex
 10
86.9529965137
 20
-252.3254021313
 30
0.0
 70
        32
  0
VERTEX
  5
713
100
AcDbEntity
  8
CK_LEVEL_1
  6
CONTINUOUS
 62
         7
100
AcDbVertex
100
AcDb3dPolylineVertex
 10
86.957703175
 20
-252.3148258042
 30
0.0
 70
        32
  0
VERTEX
  5
715
100
AcDbEntity
  8
CK_LEVEL_1
  6
CONTINUOUS
 62
         7
100
AcDbVertex
100
AcDb3dPolylineVertex
 10
86.9625689014
 20
-252.3043214679
 30
0.0
 70
        32
  0
VERTEX
  5
717
100
AcDbEntity
  8
CK_LEVEL_1
  6
CONTINUOUS
 62
         7
100
AcDbVertex
100
AcDb3dPolylineVertex
 10
86.9676019885
 20
-252.2938968124
 30
0.0
 70
        32
  0
VERTEX
  5
719
100
AcDbEntity
  8
CK_LEVEL_1
  6
CONTINUOUS
 62
         7
100
AcDbVertex
100
AcDb3dPolylineVertex
 10
86.9728107318
 20
-252.2835595275
 30
0.0
 70
        32
  0
VERTEX
  5
71B
100
AcDbEntity
  8
CK_LEVEL_1
  6
CONTINUOUS
 62
         7
100
AcDbVertex
100
AcDb3dPolylineVertex
 10
86.9782034266
 20
-252.2733173032
 30
0.0
 70
        32
  0
VERTEX
  5
71D
100
AcDbEntity
  8
CK_LEVEL_1
  6
CONTINUOUS
 62
         7
100
AcDbVertex
100
AcDb3dPolylineVertex
 10
86.9837883686
 20
-252.2631778293
 30
0.0
 70
        32
  0
VERTEX
  5
71F
100
AcDbEntity
  8
CK_LEVEL_1
  6
CONTINUOUS
 62
         7
100
AcDbVertex
100
AcDb3dPolylineVertex
 10
86.9895738532
 20
-252.2531487957
 30
0.0
 70
        32
  0
VERTEX
  5
721
100
AcDbEntity
  8
CK_LEVEL_1
  6
CONTINUOUS
 62
         7
100
AcDbVertex
100
AcDb3dPolylineVertex
 10
86.9955681759
 20
-252.2432378923
 30
0.0
 70
        32
  0
VERTEX
  5
723
100
AcDbEntity
  8
CK_LEVEL_1
  6
CONTINUOUS
 62
         7
100
AcDbVertex
100
AcDb3dPolylineVertex
 10
87.0013631126
 20
-252.2340964578
 30
0.0
 70
        32
  0
VERTEX
  5
725
100
AcDbEntity
  8
CK_LEVEL_1
  6
CONTINUOUS
 62
         7
100
AcDbVertex
100
AcDb3dPolylineVertex
 10
87.0073569217
 20
-252.2250807731
 30
0.0
 70
        32
  0
VERTEX
  5
727
100
AcDbEntity
  8
CK_LEVEL_1
  6
CONTINUOUS
 62
         7
100
AcDbVertex
100
AcDb3dPolylineVertex
 10
87.0135590676
 20
-252.216206834
 30
0.0
 70
        32
  0
VERTEX
  5
729
100
AcDbEntity
  8
CK_LEVEL_1
  6
CONTINUOUS
 62
         7
100
AcDbVertex
100
AcDb3dPolylineVertex
 10
87.0199790151
 20
-252.2074906363
 30
0.0
 70
        32
  0
VERTEX
  5
72B
100
AcDbEntity
  8
CK_LEVEL_1
  6
CONTINUOUS
 62
         7
100
AcDbVertex
100
AcDb3dPolylineVertex
 10
87.0266262287
 20
-252.1989481758
 30
0.0
 70
        32
  0
VERTEX
  5
72D
100
AcDbEntity
  8
CK_LEVEL_1
  6
CONTINUOUS
 62
         7
100
AcDbVertex
100
AcDb3dPolylineVertex
 10
87.0335101731
 20
-252.1905954481
 30
0.0
 70
        32
  0
VERTEX
  5
72F
100
AcDbEntity
  8
CK_LEVEL_1
  6
CONTINUOUS
 62
         7
100
AcDbVertex
100
AcDb3dPolylineVertex
 10
87.0406403129
 20
-252.1824484492
 30
0.0
 70
        32
  0
VERTEX
  5
731
100
AcDbEntity
  8
CK_LEVEL_1
  6
CONTINUOUS
 62
         7
100
AcDbVertex
100
AcDb3dPolylineVertex
 10
87.0480261127
 20
-252.1745231748
 30
0.0
 70
        32
  0
VERTEX
  5
733
100
AcDbEntity
  8
CK_LEVEL_1
  6
CONTINUOUS
 62
         7
100
AcDbVertex
100
AcDb3dPolylineVertex
 10
87.055677037
 20
-252.1668356206
 30
0.0
 70
        32
  0
VERTEX
  5
735
100
AcDbEntity
  8
CK_LEVEL_1
  6
CONTINUOUS
 62
         7
100
AcDbVertex
100
AcDb3dPolylineVertex
 10
87.0628601282
 20
-252.1600767787
 30
0.0
 70
        32
  0
VERTEX
  5
737
100
AcDbEntity
  8
CK_LEVEL_1
  6
CONTINUOUS
 62
         7
100
AcDbVertex
100
AcDb3dPolylineVertex
 10
87.0702672392
 20
-252.1535518402
 30
0.0
 70
        32
  0
VERTEX
  5
739
100
AcDbEntity
  8
CK_LEVEL_1
  6
CONTINUOUS
 62
         7
100
AcDbVertex
100
AcDb3dPolylineVertex
 10
87.077896
 20
-252.1472855277
 30
0.0
 70
        32
  0
VERTEX
  5
73B
100
AcDbEntity
  8
CK_LEVEL_1
  6
CONTINUOUS
 62
         7
100
AcDbVertex
100
AcDb3dPolylineVertex
 10
87.0857440402
 20
-252.1413025635
 30
0.0
 70
        32
  0
VERTEX
  5
73D
100
AcDbEntity
  8
CK_LEVEL_1
  6
CONTINUOUS
 62
         7
100
AcDbVertex
100
AcDb3dPolylineVertex
 10
87.0938089895
 20
-252.1356276702
 30
0.0
 70
        32
  0
VERTEX
  5
73F
100
AcDbEntity
  8
CK_LEVEL_1
  6
CONTINUOUS
 62
         7
100
AcDbVertex
100
AcDb3dPolylineVertex
 10
87.1020884777
 20
-252.1302855703
 30
0.0
 70
        32
  0
VERTEX
  5
741
100
AcDbEntity
  8
CK_LEVEL_1
  6
CONTINUOUS
 62
         7
100
AcDbVertex
100
AcDb3dPolylineVertex
 10
87.1105801344
 20
-252.1253009862
 30
0.0
 70
        32
  0
VERTEX
  5
743
100
AcDbEntity
  8
CK_LEVEL_1
  6
CONTINUOUS
 62
         7
100
AcDbVertex
100
AcDb3dPolylineVertex
 10
87.1192815895
 20
-252.1206986404
 30
0.0
 70
        32
  0
VERTEX
  5
745
100
AcDbEntity
  8
CK_LEVEL_1
  6
CONTINUOUS
 62
         7
100
AcDbVertex
100
AcDb3dPolylineVertex
 10
87.1281904725
 20
-252.1165032555
 30
0.0
 70
        32
  0
VERTEX
  5
747
100
AcDbEntity
  8
CK_LEVEL_1
  6
CONTINUOUS
 62
         7
100
AcDbVertex
100
AcDb3dPolylineVertex
 10
87.1366433524
 20
-252.1129910967
 30
0.0
 70
        32
  0
VERTEX
  5
749
100
AcDbEntity
  8
CK_LEVEL_1
  6
CONTINUOUS
 62
         7
100
AcDbVertex
100
AcDb3dPolylineVertex
 10
87.1452529626
 20
-252.1098555549
 30
0.0
 70
        32
  0
VERTEX
  5
74B
100
AcDbEntity
  8
CK_LEVEL_1
  6
CONTINUOUS
 62
         7
100
AcDbVertex
100
AcDb3dPolylineVertex
 10
87.1539992354
 20
-252.107101055
 30
0.0
 70
        32
  0
VERTEX
  5
74D
100
AcDbEntity
  8
CK_LEVEL_1
  6
CONTINUOUS
 62
         7
100
AcDbVertex
100
AcDb3dPolylineVertex
 10
87.162862103
 20
-252.1047320223
 30
0.0
 70
        32
  0
VERTEX
  5
74F
100
AcDbEntity
  8
CK_LEVEL_1
  6
CONTINUOUS
 62
         7
100
AcDbVertex
100
AcDb3dPolylineVertex
 10
87.1718214976
 20
-252.102752882
 30
0.0
 70
        32
  0
VERTEX
  5
751
100
AcDbEntity
  8
CK_LEVEL_1
  6
CONTINUOUS
 62
         7
100
AcDbVertex
100
AcDb3dPolylineVertex
 10
87.1808573514
 20
-252.1011680591
 30
0.0
 70
        32
  0
VERTEX
  5
753
100
AcDbEntity
  8
CK_LEVEL_1
  6
CONTINUOUS
 62
         7
100
AcDbVertex
100
AcDb3dPolylineVertex
 10
87.1899495966
 20
-252.0999819789
 30
0.0
 70
        32
  0
VERTEX
  5
755
100
AcDbEntity
  8
CK_LEVEL_1
  6
CONTINUOUS
 62
         7
100
AcDbVertex
100
AcDb3dPolylineVertex
 10
87.1990781656
 20
-252.0991990664
 30
0.0
 70
        32
  0
VERTEX
  5
757
100
AcDbEntity
  8
CK_LEVEL_1
  6
CONTINUOUS
 62
         7
100
AcDbVertex
100
AcDb3dPolylineVertex
 10
87.2082229903
 20
-252.0988237469
 30
0.0
 70
        32
  0
VERTEX
  5
759
100
AcDbEntity
  8
CK_LEVEL_1
  6
CONTINUOUS
 62
         7
100
AcDbVertex
100
AcDb3dPolylineVertex
 10
87.2173336049
 20
-252.0988559523
 30
0.0
 70
        32
  0
VERTEX
  5
75B
100
AcDbEntity
  8
CK_LEVEL_1
  6
CONTINUOUS
 62
         7
100
AcDbVertex
100
AcDb3dPolylineVertex
 10
87.2264303208
 20
-252.0992798328
 30
0.0
 70
        32
  0
VERTEX
  5
75D
100
AcDbEntity
  8
CK_LEVEL_1
  6
CONTINUOUS
 62
         7
100
AcDbVertex
100
AcDb3dPolylineVertex
 10
87.2355030246
 20
-252.1000779298
 30
0.0
 70
        32
  0
VERTEX
  5
75F
100
AcDbEntity
  8
CK_LEVEL_1
  6
CONTINUOUS
 62
         7
100
AcDbVertex
100
AcDb3dPolylineVertex
 10
87.2445416028
 20
-252.1012327848
 30
0.0
 70
        32
  0
VERTEX
  5
761
100
AcDbEntity
  8
CK_LEVEL_1
  6
CONTINUOUS
 62
         7
100
AcDbVertex
100
AcDb3dPolylineVertex
 10
87.2535359419
 20
-252.1027269392
 30
0.0
 70
        32
  0
VERTEX
  5
763
100
AcDbEntity
  8
CK_LEVEL_1
  6
CONTINUOUS
 62
         7
100
AcDbVertex
100
AcDb3dPolylineVertex
 10
87.2624759285
 20
-252.1045429342
 30
0.0
 70
        32
  0
VERTEX
  5
765
100
AcDbEntity
  8
CK_LEVEL_1
  6
CONTINUOUS
 62
         7
100
AcDbVertex
100
AcDb3dPolylineVertex
 10
87.2713514491
 20
-252.1066633114
 30
0.0
 70
        32
  0
VERTEX
  5
767
100
AcDbEntity
  8
CK_LEVEL_1
  6
CONTINUOUS
 62
         7
100
AcDbVertex
100
AcDb3dPolylineVertex
 10
87.2801523902
 20
-252.1090706121
 30
0.0
 70
        32
  0
VERTEX
  5
769
100
AcDbEntity
  8
CK_LEVEL_1
  6
CONTINUOUS
 62
         7
100
AcDbVertex
100
AcDb3dPolylineVertex
 10
87.2888686385
 20
-252.1117473777
 30
0.0
 70
        32
  0
VERTEX
  5
76B
100
AcDbEntity
  8
CK_LEVEL_1
  6
CONTINUOUS
 62
         7
100
AcDbVertex
100
AcDb3dPolylineVertex
 10
87.2978508908
 20
-252.1148051503
 30
0.0
 70
        32
  0
VERTEX
  5
76D
100
AcDbEntity
  8
CK_LEVEL_1
  6
CONTINUOUS
 62
         7
100
AcDbVertex
100
AcDb3dPolylineVertex
 10
87.3067307437
 20
-252.1181234248
 30
0.0
 70
        32
  0
VERTEX
  5
76F
100
AcDbEntity
  8
CK_LEVEL_1
  6
CONTINUOUS
 62
         7
100
AcDbVertex
100
AcDb3dPolylineVertex
 10
87.3155087108
 20
-252.1216891481
 30
0.0
 70
        32
  0
VERTEX
  5
771
100
AcDbEntity
  8
CK_LEVEL_1
  6
CONTINUOUS
 62
         7
100
AcDbVertex
100
AcDb3dPolylineVertex
 10
87.3241853057
 20
-252.1254892674
 30
0.0
 70
        32
  0
VERTEX
  5
773
100
AcDbEntity
  8
CK_LEVEL_1
  6
CONTINUOUS
 62
         7
100
AcDbVertex
100
AcDb3dPolylineVertex
 10
87.3327610421
 20
-252.1295107298
 30
0.0
 70
        32
  0
VERTEX
  5
775
100
AcDbEntity
  8
CK_LEVEL_1
  6
CONTINUOUS
 62
         7
100
AcDbVertex
100
AcDb3dPolylineVertex
 10
87.3412364335
 20
-252.1337404826
 30
0.0
 70
        32
  0
VERTEX
  5
777
100
AcDbEntity
  8
CK_LEVEL_1
  6
CONTINUOUS
 62
         7
100
AcDbVertex
100
AcDb3dPolylineVertex
 10
87.3496119935
 20
-252.1381654728
 30
0.0
 70
        32
  0
VERTEX
  5
779
100
AcDbEntity
  8
CK_LEVEL_1
  6
CONTINUOUS
 62
         7
100
AcDbVertex
100
AcDb3dPolylineVertex
 10
87.3578882357
 20
-252.1427726477
 30
0.0
 70
        32
  0
VERTEX
  5
77B
100
AcDbEntity
  8
CK_LEVEL_1
  6
CONTINUOUS
 62
         7
100
AcDbVertex
100
AcDb3dPolylineVertex
 10
87.3660656737
 20
-252.1475489542
 30
0.0
 70
        32
  0
VERTEX
  5
77D
100
AcDbEntity
  8
CK_LEVEL_1
  6
CONTINUOUS
 62
         7
100
AcDbVertex
100
AcDb3dPolylineVertex
 10
87.3745290405
 20
-252.1527220359
 30
0.0
 70
        32
  0
VERTEX
  5
77F
100
AcDbEntity
  8
CK_LEVEL_1
  6
CONTINUOUS
 62
         7
100
AcDbVertex
100
AcDb3dPolylineVertex
 10
87.3828871604
 20
-252.1580583861
 30
0.0
 70
        32
  0
VERTEX
  5
781
100
AcDbEntity
  8
CK_LEVEL_1
  6
CONTINUOUS
 62
         7
100
AcDbVertex
100
AcDb3dPolylineVertex
 10
87.3911427019
 20
-252.1635499111
 30
0.0
 70
        32
  0
VERTEX
  5
783
100
AcDbEntity
  8
CK_LEVEL_1
  6
CONTINUOUS
 62
         7
100
AcDbVertex
100
AcDb3dPolylineVertex
 10
87.3992983335
 20
-252.1691885169
 30
0.0
 70
        32
  0
VERTEX
  5
785
100
AcDbEntity
  8
CK_LEVEL_1
  6
CONTINUOUS
 62
         7
100
AcDbVertex
100
AcDb3dPolylineVertex
 10
87.4073567237
 20
-252.1749661096
 30
0.0
 70
        32
  0
VERTEX
  5
787
100
AcDbEntity
  8
CK_LEVEL_1
  6
CONTINUOUS
 62
         7
100
AcDbVertex
100
AcDb3dPolylineVertex
 10
87.4153205409
 20
-252.1808745955
 30
0.0
 70
        32
  0
VERTEX
  5
789
100
AcDbEntity
  8
CK_LEVEL_1
  6
CONTINUOUS
 62
         7
100
AcDbVertex
100
AcDb3dPolylineVertex
 10
87.4231924538
 20
-252.1869058806
 30
0.0
 70
        32
  0
VERTEX
  5
78B
100
AcDbEntity
  8
CK_LEVEL_1
  6
CONTINUOUS
 62
         7
100
AcDbVertex
100
AcDb3dPolylineVertex
 10
87.4309751307
 20
-252.193051871
 30
0.0
 70
        32
  0
VERTEX
  5
78D
100
AcDbEntity
  8
CK_LEVEL_1
  6
CONTINUOUS
 62
         7
100
AcDbVertex
100
AcDb3dPolylineVertex
 10
87.4386712402
 20
-252.1993044729
 30
0.0
 70
        32
  0
VERTEX
  5
78F
100
AcDbEntity
  8
CK_LEVEL_1
  6
CONTINUOUS
 62
         7
100
AcDbVertex
100
AcDb3dPolylineVertex
 10
87.4546322252
 20
-252.2128150688
 30
0.0
 70
        32
  0
VERTEX
  5
791
100
AcDbEntity
  8
CK_LEVEL_1
  6
CONTINUOUS
 62
         7
100
AcDbVertex
100
AcDb3dPolylineVertex
 10
87.4702355194
 20
-252.226735082
 30
0.0
 70
        32
  0
VERTEX
  5
793
100
AcDbEntity
  8
CK_LEVEL_1
  6
CONTINUOUS
 62
         7
100
AcDbVertex
100
AcDb3dPolylineVertex
 10
87.4854967595
 20
-252.241035553
 30
0.0
 70
        32
  0
VERTEX
  5
795
100
AcDbEntity
  8
CK_LEVEL_1
  6
CONTINUOUS
 62
         7
100
AcDbVertex
100
AcDb3dPolylineVertex
 10
87.5004315823
 20
-252.2556875223
 30
0.0
 70
        32
  0
VERTEX
  5
797
100
AcDbEntity
  8
CK_LEVEL_1
  6
CONTINUOUS
 62
         7
100
AcDbVertex
100
AcDb3dPolylineVertex
 10
87.5150556246
 20
-252.2706620303
 30
0.0
 70
        32
  0
VERTEX
  5
799
100
AcDbEntity
  8
CK_LEVEL_1
  6
CONTINUOUS
 62
         7
100
AcDbVertex
100
AcDb3dPolylineVertex
 10
87.5293845232
 20
-252.2859301173
 30
0.0
 70
        32
  0
VERTEX
  5
79B
100
AcDbEntity
  8
CK_LEVEL_1
  6
CONTINUOUS
 62
         7
100
AcDbVertex
100
AcDb3dPolylineVertex
 10
87.5434339147
 20
-252.3014628239
 30
0.0
 70
        32
  0
VERTEX
  5
79D
100
AcDbEntity
  8
CK_LEVEL_1
  6
CONTINUOUS
 62
         7
100
AcDbVertex
100
AcDb3dPolylineVertex
 10
87.5572194361
 20
-252.3172311905
 30
0.0
 70
        32
  0
VERTEX
  5
79F
100
AcDbEntity
  8
CK_LEVEL_1
  6
CONTINUOUS
 62
         7
100
AcDbVertex
100
AcDb3dPolylineVertex
 10
87.5707567241
 20
-252.3332062575
 30
0.0
 70
        32
  0
VERTEX
  5
7A1
100
AcDbEntity
  8
CK_LEVEL_1
  6
CONTINUOUS
 62
         7
100
AcDbVertex
100
AcDb3dPolylineVertex
 10
87.5847265926
 20
-252.3501838231
 30
0.0
 70
        32
  0
VERTEX
  5
7A3
100
AcDbEntity
  8
CK_LEVEL_1
  6
CONTINUOUS
 62
         7
100
AcDbVertex
100
AcDb3dPolylineVertex
 10
87.5984492051
 20
-252.3673484773
 30
0.0
 70
        32
  0
VERTEX
  5
7A5
100
AcDbEntity
  8
CK_LEVEL_1
  6
CONTINUOUS
 62
         7
100
AcDbVertex
100
AcDb3dPolylineVertex
 10
87.6119340107
 20
-252.3846911449
 30
0.0
 70
        32
  0
VERTEX
  5
7A7
100
AcDbEntity
  8
CK_LEVEL_1
  6
CONTINUOUS
 62
         7
100
AcDbVertex
100
AcDb3dPolylineVertex
 10
87.6251904585
 20
-252.4022027509
 30
0.0
 70
        32
  0
VERTEX
  5
7A9
100
AcDbEntity
  8
CK_LEVEL_1
  6
CONTINUOUS
 62
         7
100
AcDbVertex
100
AcDb3dPolylineVertex
 10
87.6382279977
 20
-252.4198742201
 30
0.0
 70
        32
  0
VERTEX
  5
7AB
100
AcDbEntity
  8
CK_LEVEL_1
  6
CONTINUOUS
 62
         7
100
AcDbVertex
100
AcDb3dPolylineVertex
 10
87.6510560774
 20
-252.4376964776
 30
0.0
 70
        32
  0
VERTEX
  5
7AD
100
AcDbEntity
  8
CK_LEVEL_1
  6
CONTINUOUS
 62
         7
100
AcDbVertex
100
AcDb3dPolylineVertex
 10
87.6636841468
 20
-252.4556604482
 30
0.0
 70
        32
  0
VERTEX
  5
7AF
100
AcDbEntity
  8
CK_LEVEL_1
  6
CONTINUOUS
 62
         7
100
AcDbVertex
100
AcDb3dPolylineVertex
 10
87.676121655
 20
-252.4737570569
 30
0.0
 70
        32
  0
VERTEX
  5
7B1
100
AcDbEntity
  8
CK_LEVEL_1
  6
CONTINUOUS
 62
         7
100
AcDbVertex
100
AcDb3dPolylineVertex
 10
87.6883780511
 20
-252.4919772285
 30
0.0
 70
        32
  0
VERTEX
  5
7B3
100
AcDbEntity
  8
CK_LEVEL_1
  6
CONTINUOUS
 62
         7
100
AcDbVertex
100
AcDb3dPolylineVertex
 10
87.7008469952
 20
-252.5109027824
 30
0.0
 70
        32
  0
VERTEX
  5
7B5
100
AcDbEntity
  8
CK_LEVEL_1
  6
CONTINUOUS
 62
         7
100
AcDbVertex
100
AcDb3dPolylineVertex
 10
87.7131383587
 20
-252.5299447542
 30
0.0
 70
        32
  0
VERTEX
  5
7B7
100
AcDbEntity
  8
CK_LEVEL_1
  6
CONTINUOUS
 62
         7
100
AcDbVertex
100
AcDb3dPolylineVertex
 10
87.7252574181
 20
-252.5490976081
 30
0.0
 70
        32
  0
VERTEX
  5
7B9
100
AcDbEntity
  8
CK_LEVEL_1
  6
CONTINUOUS
 62
         7
100
AcDbVertex
100
AcDb3dPolylineVertex
 10
87.7372094496
 20
-252.5683558084
 30
0.0
 70
        32
  0
VERTEX
  5
7BB
100
AcDbEntity
  8
CK_LEVEL_1
  6
CONTINUOUS
 62
         7
100
AcDbVertex
100
AcDb3dPolylineVertex
 10
87.7489997298
 20
-252.5877138194
 30
0.0
 70
        32
  0
VERTEX
  5
7BD
100
AcDbEntity
  8
CK_LEVEL_1
  6
CONTINUOUS
 62
         7
100
AcDbVertex
100
AcDb3dPolylineVertex
 10
87.760633535
 20
-252.6071661053
 30
0.0
 70
        32
  0
VERTEX
  5
7BF
100
AcDbEntity
  8
CK_LEVEL_1
  6
CONTINUOUS
 62
         7
100
AcDbVertex
100
AcDb3dPolylineVertex
 10
87.7721161417
 20
-252.6267071304
 30
0.0
 70
        32
  0
VERTEX
  5
7C1
100
AcDbEntity
  8
CK_LEVEL_1
  6
CONTINUOUS
 62
         7
100
AcDbVertex
100
AcDb3dPolylineVertex
 10
87.7834528264
 20
-252.646331359
 30
0.0
 70
        32
  0
VERTEX
  5
7C3
100
AcDbEntity
  8
CK_LEVEL_1
  6
CONTINUOUS
 62
         7
100
AcDbVertex
100
AcDb3dPolylineVertex
 10
87.7946488653
 20
-252.6660332553
 30
0.0
 70
        32
  0
SEQEND
  5
7C5
100
AcDbEntity
  8
CK_LEVEL_1
  6
CONTINUOUS
 62
         7
  0
POLYLINE
  5
7C7
100
AcDbEntity
  8
CK_LEVEL_1
  6
CONTINUOUS
 62
         7
100
AcDb3dPolyline
 66
         1
 10
0.0
 20
0.0
 30
0.0
 70
         8
  0
VERTEX
  5
7C9
100
AcDbEntity
  8
CK_LEVEL_1
  6
CONTINUOUS
 62
         7
100
AcDbVertex
100
AcDb3dPolylineVertex
 10
87.8154784018
 20
-252.7030155149
 30
0.0
 70
        32
  0
VERTEX
  5
7CB
100
AcDbEntity
  8
CK_LEVEL_1
  6
CONTINUOUS
 62
         7
100
AcDbVertex
100
AcDb3dPolylineVertex
 10
87.8304905173
 20
-252.6972145861
 30
0.0
 70
        32
  0
VERTEX
  5
7CD
100
AcDbEntity
  8
CK_LEVEL_1
  6
CONTINUOUS
 62
         7
100
AcDbVertex
100
AcDb3dPolylineVertex
 10
87.8456755798
 20
-252.6918035421
 30
0.0
 70
        32
  0
VERTEX
  5
7CF
100
AcDbEntity
  8
CK_LEVEL_1
  6
CONTINUOUS
 62
         7
100
AcDbVertex
100
AcDb3dPolylineVertex
 10
87.8610171678
 20
-252.6867993412
 30
0.0
 70
        32
  0
VERTEX
  5
7D1
100
AcDbEntity
  8
CK_LEVEL_1
  6
CONTINUOUS
 62
         7
100
AcDbVertex
100
AcDb3dPolylineVertex
 10
87.8764988602
 20
-252.6822189415
 30
0.0
 70
        32
  0
VERTEX
  5
7D3
100
AcDbEntity
  8
CK_LEVEL_1
  6
CONTINUOUS
 62
         7
100
AcDbVertex
100
AcDb3dPolylineVertex
 10
87.8921042355
 20
-252.6780793012
 30
0.0
 70
        32
  0
VERTEX
  5
7D5
100
AcDbEntity
  8
CK_LEVEL_1
  6
CONTINUOUS
 62
         7
100
AcDbVertex
100
AcDb3dPolylineVertex
 10
87.9078168724
 20
-252.6743973785
 30
0.0
 70
        32
  0
VERTEX
  5
7D7
100
AcDbEntity
  8
CK_LEVEL_1
  6
CONTINUOUS
 62
         7
100
AcDbVertex
100
AcDb3dPolylineVertex
 10
87.9236203496
 20
-252.6711901317
 30
0.0
 70
        32
  0
VERTEX
  5
7D9
100
AcDbEntity
  8
CK_LEVEL_1
  6
CONTINUOUS
 62
         7
100
AcDbVertex
100
AcDb3dPolylineVertex
 10
87.9394982457
 20
-252.6684745187
 30
0.0
 70
        32
  0
VERTEX
  5
7DB
100
AcDbEntity
  8
CK_LEVEL_1
  6
CONTINUOUS
 62
         7
100
AcDbVertex
100
AcDb3dPolylineVertex
 10
87.9554341395
 20
-252.6662674979
 30
0.0
 70
        32
  0
SEQEND
  5
7DD
100
AcDbEntity
  8
CK_LEVEL_1
  6
CONTINUOUS
 62
         7
  0
POLYLINE
  5
7DF
100
AcDbEntity
  8
CK_LEVEL_1
  6
CONTINUOUS
 62
         7
100
AcDb3dPolyline
 66
         1
 10
0.0
 20
0.0
 30
0.0
 70
         8
  0
VERTEX
  5
7E1
100
AcDbEntity
  8
CK_LEVEL_1
  6
CONTINUOUS
 62
         7
100
AcDbVertex
100
AcDb3dPolylineVertex
 10
86.8154784018
 20
-253.1835010808
 30
0.0
 70
        32
  0
VERTEX
  5
7E3
100
AcDbEntity
  8
CK_LEVEL_1
  6
CONTINUOUS
 62
         7
100
AcDbVertex
100
AcDb3dPolylineVertex
 10
86.8155191019
 20
-253.1689312606
 30
0.0
 70
        32
  0
VERTEX
  5
7E5
100
AcDbEntity
  8
CK_LEVEL_1
  6
CONTINUOUS
 62
         7
100
AcDbVertex
100
AcDb3dPolylineVertex
 10
86.8156406165
 20
-253.1543617539
 30
0.0
 70
        32
  0
VERTEX
  5
7E7
100
AcDbEntity
  8
CK_LEVEL_1
  6
CONTINUOUS
 62
         7
100
AcDbVertex
100
AcDb3dPolylineVertex
 10
86.8158420675
 20
-253.1397928867
 30
0.0
 70
        32
  0
VERTEX
  5
7E9
100
AcDbEntity
  8
CK_LEVEL_1
  6
CONTINUOUS
 62
         7
100
AcDbVertex
100
AcDb3dPolylineVertex
 10
86.8161225764
 20
-253.1252249848
 30
0.0
 70
        32
  0
VERTEX
  5
7EB
100
AcDbEntity
  8
CK_LEVEL_1
  6
CONTINUOUS
 62
         7
100
AcDbVertex
100
AcDb3dPolylineVertex
 10
86.8164812651
 20
-253.1106583741
 30
0.0
 70
        32
  0
VERTEX
  5
7ED
100
AcDbEntity
  8
CK_LEVEL_1
  6
CONTINUOUS
 62
         7
100
AcDbVertex
100
AcDb3dPolylineVertex
 10
86.8169172553
 20
-253.0960933806
 30
0.0
 70
        32
  0
VERTEX
  5
7EF
100
AcDbEntity
  8
CK_LEVEL_1
  6
CONTINUOUS
 62
         7
100
AcDbVertex
100
AcDb3dPolylineVertex
 10
86.8174296685
 20
-253.0815303303
 30
0.0
 70
        32
  0
VERTEX
  5
7F1
100
AcDbEntity
  8
CK_LEVEL_1
  6
CONTINUOUS
 62
         7
100
AcDbVertex
100
AcDb3dPolylineVertex
 10
86.8180176267
 20
-253.0669695489
 30
0.0
 70
        32
  0
VERTEX
  5
7F3
100
AcDbEntity
  8
CK_LEVEL_1
  6
CONTINUOUS
 62
         7
100
AcDbVertex
100
AcDb3dPolylineVertex
 10
86.8186802514
 20
-253.0524113626
 30
0.0
 70
        32
  0
VERTEX
  5
7F5
100
AcDbEntity
  8
CK_LEVEL_1
  6
CONTINUOUS
 62
         7
100
AcDbVertex
100
AcDb3dPolylineVertex
 10
86.8211488602
 20
-253.0081006087
 30
0.0
 70
        32
  0
VERTEX
  5
7F7
100
AcDbEntity
  8
CK_LEVEL_1
  6
CONTINUOUS
 62
         7
100
AcDbVertex
100
AcDb3dPolylineVertex
 10
86.8242778217
 20
-252.9638249621
 30
0.0
 70
        32
  0
VERTEX
  5
7F9
100
AcDbEntity
  8
CK_LEVEL_1
  6
CONTINUOUS
 62
         7
100
AcDbVertex
100
AcDb3dPolylineVertex
 10
86.8280433142
 20
-252.9195924472
 30
0.0
 70
        32
  0
VERTEX
  5
7FB
100
AcDbEntity
  8
CK_LEVEL_1
  6
CONTINUOUS
 62
         7
100
AcDbVertex
100
AcDb3dPolylineVertex
 10
86.8324215163
 20
-252.8754110887
 30
0.0
 70
        32
  0
VERTEX
  5
7FD
100
AcDbEntity
  8
CK_LEVEL_1
  6
CONTINUOUS
 62
         7
100
AcDbVertex
100
AcDb3dPolylineVertex
 10
86.8373886063
 20
-252.831288911
 30
0.0
 70
        32
  0
VERTEX
  5
7FF
100
AcDbEntity
  8
CK_LEVEL_1
  6
CONTINUOUS
 62
         7
100
AcDbVertex
100
AcDb3dPolylineVertex
 10
86.8429207629
 20
-252.7872339387
 30
0.0
 70
        32
  0
VERTEX
  5
801
100
AcDbEntity
  8
CK_LEVEL_1
  6
CONTINUOUS
 62
         7
100
AcDbVertex
100
AcDb3dPolylineVertex
 10
86.8489941644
 20
-252.7432541964
 30
0.0
 70
        32
  0
VERTEX
  5
803
100
AcDbEntity
  8
CK_LEVEL_1
  6
CONTINUOUS
 62
         7
100
AcDbVertex
100
AcDb3dPolylineVertex
 10
86.8555849893
 20
-252.6993577086
 30
0.0
 70
        32
  0
VERTEX
  5
805
100
AcDbEntity
  8
CK_LEVEL_1
  6
CONTINUOUS
 62
         7
100
AcDbVertex
100
AcDb3dPolylineVertex
 10
86.862669416
 20
-252.6555524998
 30
0.0
 70
        32
  0
SEQEND
  5
807
100
AcDbEntity
  8
CK_LEVEL_1
  6
CONTINUOUS
 62
         7
  0
POLYLINE
  5
809
100
AcDbEntity
  8
CK_LEVEL_1
  6
CONTINUOUS
 62
         7
100
AcDb3dPolyline
 66
         1
 10
0.0
 20
0.0
 30
0.0
 70
         8
  0
VERTEX
  5
80B
100
AcDbEntity
  8
CK_LEVEL_1
  6
CONTINUOUS
 62
         7
100
AcDbVertex
100
AcDb3dPolylineVertex
 10
109.8144070339
 20
-258.0138329967
 30
0.0
 70
        32
  0
VERTEX
  5
80D
100
AcDbEntity
  8
CK_LEVEL_1
  6
CONTINUOUS
 62
         7
100
AcDbVertex
100
AcDb3dPolylineVertex
 10
109.901551777
 20
-258.0108630403
 30
0.0
 70
        32
  0
VERTEX
  5
80F
100
AcDbEntity
  8
CK_LEVEL_1
  6
CONTINUOUS
 62
         7
100
AcDbVertex
100
AcDb3dPolylineVertex
 10
109.9887768042
 20
-258.0096299988
 30
0.0
 70
        32
  0
VERTEX
  5
811
100
AcDbEntity
  8
CK_LEVEL_1
  6
CONTINUOUS
 62
         7
100
AcDbVertex
100
AcDb3dPolylineVertex
 10
110.0760413492
 20
-258.0101324386
 30
0.0
 70
        32
  0
VERTEX
  5
813
100
AcDbEntity
  8
CK_LEVEL_1
  6
CONTINUOUS
 62
         7
100
AcDbVertex
100
AcDb3dPolylineVertex
 10
110.1633046454
 20
-258.0123689263
 30
0.0
 70
        32
  0
VERTEX
  5
815
100
AcDbEntity
  8
CK_LEVEL_1
  6
CONTINUOUS
 62
         7
100
AcDbVertex
100
AcDb3dPolylineVertex
 10
110.2505259263
 20
-258.0163380283
 30
0.0
 70
        32
  0
VERTEX
  5
817
100
AcDbEntity
  8
CK_LEVEL_1
  6
CONTINUOUS
 62
         7
100
AcDbVertex
100
AcDb3dPolylineVertex
 10
110.3376644256
 20
-258.022038311
 30
0.0
 70
        32
  0
VERTEX
  5
819
100
AcDbEntity
  8
CK_LEVEL_1
  6
CONTINUOUS
 62
         7
100
AcDbVertex
100
AcDb3dPolylineVertex
 10
110.4246793768
 20
-258.029468341
 30
0.0
 70
        32
  0
VERTEX
  5
81B
100
AcDbEntity
  8
CK_LEVEL_1
  6
CONTINUOUS
 62
         7
100
AcDbVertex
100
AcDb3dPolylineVertex
 10
110.5115300133
 20
-258.0386266847
 30
0.0
 70
        32
  0
VERTEX
  5
81D
100
AcDbEntity
  8
CK_LEVEL_1
  6
CONTINUOUS
 62
         7
100
AcDbVertex
100
AcDb3dPolylineVertex
 10
110.5981755688
 20
-258.0495119085
 30
0.0
 70
        32
  0
VERTEX
  5
81F
100
AcDbEntity
  8
CK_LEVEL_1
  6
CONTINUOUS
 62
         7
100
AcDbVertex
100
AcDb3dPolylineVertex
 10
110.6844015329
 20
-258.0620946082
 30
0.0
 70
        32
  0
VERTEX
  5
821
100
AcDbEntity
  8
CK_LEVEL_1
  6
CONTINUOUS
 62
         7
100
AcDbVertex
100
AcDb3dPolylineVertex
 10
110.770349986
 20
-258.0763905312
 30
0.0
 70
        32
  0
VERTEX
  5
823
100
AcDbEntity
  8
CK_LEVEL_1
  6
CONTINUOUS
 62
         7
100
AcDbVertex
100
AcDb3dPolylineVertex
 10
110.8559882678
 20
-258.0923944499
 30
0.0
 70
        32
  0
VERTEX
  5
825
100
AcDbEntity
  8
CK_LEVEL_1
  6
CONTINUOUS
 62
         7
100
AcDbVertex
100
AcDb3dPolylineVertex
 10
110.9412837182
 20
-258.1101011366
 30
0.0
 70
        32
  0
VERTEX
  5
827
100
AcDbEntity
  8
CK_LEVEL_1
  6
CONTINUOUS
 62
         7
100
AcDbVertex
100
AcDb3dPolylineVertex
 10
111.0262036769
 20
-258.1295053638
 30
0.0
 70
        32
  0
VERTEX
  5
829
100
AcDbEntity
  8
CK_LEVEL_1
  6
CONTINUOUS
 62
         7
100
AcDbVertex
100
AcDb3dPolylineVertex
 10
111.1107154836
 20
-258.1506019039
 30
0.0
 70
        32
  0
VERTEX
  5
82B
100
AcDbEntity
  8
CK_LEVEL_1
  6
CONTINUOUS
 62
         7
100
AcDbVertex
100
AcDb3dPolylineVertex
 10
111.1947864781
 20
-258.1733855292
 30
0.0
 70
        32
  0
VERTEX
  5
82D
100
AcDbEntity
  8
CK_LEVEL_1
  6
CONTINUOUS
 62
         7
100
AcDbVertex
100
AcDb3dPolylineVertex
 10
111.2783840002
 20
-258.1978510122
 30
0.0
 70
        32
  0
VERTEX
  5
82F
100
AcDbEntity
  8
CK_LEVEL_1
  6
CONTINUOUS
 62
         7
100
AcDbVertex
100
AcDb3dPolylineVertex
 10
111.3614753895
 20
-258.2239931253
 30
0.0
 70
        32
  0
VERTEX
  5
831
100
AcDbEntity
  8
CK_LEVEL_1
  6
CONTINUOUS
 62
         7
100
AcDbVertex
100
AcDb3dPolylineVertex
 10
111.4438834131
 20
-258.2517558947
 30
0.0
 70
        32
  0
VERTEX
  5
833
100
AcDbEntity
  8
CK_LEVEL_1
  6
CONTINUOUS
 62
         7
100
AcDbVertex
100
AcDb3dPolylineVertex
 10
111.5257187062
 20
-258.281175409
 30
0.0
 70
        32
  0
VERTEX
  5
835
100
AcDbEntity
  8
CK_LEVEL_1
  6
CONTINUOUS
 62
         7
100
AcDbVertex
100
AcDb3dPolylineVertex
 10
111.6069454466
 20
-258.3122428574
 30
0.0
 70
        32
  0
VERTEX
  5
837
100
AcDbEntity
  8
CK_LEVEL_1
  6
CONTINUOUS
 62
         7
100
AcDbVertex
100
AcDb3dPolylineVertex
 10
111.6875278122
 20
-258.3449494286
 30
0.0
 70
        32
  0
VERTEX
  5
839
100
AcDbEntity
  8
CK_LEVEL_1
  6
CONTINUOUS
 62
         7
100
AcDbVertex
100
AcDb3dPolylineVertex
 10
111.7674299807
 20
-258.3792863117
 30
0.0
 70
        32
  0
VERTEX
  5
83B
100
AcDbEntity
  8
CK_LEVEL_1
  6
CONTINUOUS
 62
         7
100
AcDbVertex
100
AcDb3dPolylineVertex
 10
111.84661613
 20
-258.4152446956
 30
0.0
 70
        32
  0
VERTEX
  5
83D
100
AcDbEntity
  8
CK_LEVEL_1
  6
CONTINUOUS
 62
         7
100
AcDbVertex
100
AcDb3dPolylineVertex
 10
111.9250504378
 20
-258.4528157693
 30
0.0
 70
        32
  0
VERTEX
  5
83F
100
AcDbEntity
  8
CK_LEVEL_1
  6
CONTINUOUS
 62
         7
100
AcDbVertex
100
AcDb3dPolylineVertex
 10
112.0026970821
 20
-258.4919907218
 30
0.0
 70
        32
  0
VERTEX
  5
841
100
AcDbEntity
  8
CK_LEVEL_1
  6
CONTINUOUS
 62
         7
100
AcDbVertex
100
AcDb3dPolylineVertex
 10
112.0795202405
 20
-258.5327607418
 30
0.0
 70
        32
  0
VERTEX
  5
843
100
AcDbEntity
  8
CK_LEVEL_1
  6
CONTINUOUS
 62
         7
100
AcDbVertex
100
AcDb3dPolylineVertex
 10
112.1553984906
 20
-258.5750672677
 30
0.0
 70
        32
  0
VERTEX
  5
845
100
AcDbEntity
  8
CK_LEVEL_1
  6
CONTINUOUS
 62
         7
100
AcDbVertex
100
AcDb3dPolylineVertex
 10
112.2303827469
 20
-258.6189420631
 30
0.0
 70
        32
  0
VERTEX
  5
847
100
AcDbEntity
  8
CK_LEVEL_1
  6
CONTINUOUS
 62
         7
100
AcDbVertex
100
AcDb3dPolylineVertex
 10
112.3044363802
 20
-258.6643707283
 30
0.0
 70
        32
  0
VERTEX
  5
849
100
AcDbEntity
  8
CK_LEVEL_1
  6
CONTINUOUS
 62
         7
100
AcDbVertex
100
AcDb3dPolylineVertex
 10
112.3775227613
 20
-258.7113388636
 30
0.0
 70
        32
  0
VERTEX
  5
84B
100
AcDbEntity
  8
CK_LEVEL_1
  6
CONTINUOUS
 62
         7
100
AcDbVertex
100
AcDb3dPolylineVertex
 10
112.4496052611
 20
-258.7598320691
 30
0.0
 70
        32
  0
VERTEX
  5
84D
100
AcDbEntity
  8
CK_LEVEL_1
  6
CONTINUOUS
 62
         7
100
AcDbVertex
100
AcDb3dPolylineVertex
 10
112.5206472504
 20
-258.8098359451
 30
0.0
 70
        32
  0
VERTEX
  5
84F
100
AcDbEntity
  8
CK_LEVEL_1
  6
CONTINUOUS
 62
         7
100
AcDbVertex
100
AcDb3dPolylineVertex
 10
112.5906121
 20
-258.861336092
 30
0.0
 70
        32
  0
VERTEX
  5
851
100
AcDbEntity
  8
CK_LEVEL_1
  6
CONTINUOUS
 62
         7
100
AcDbVertex
100
AcDb3dPolylineVertex
 10
112.6594631808
 20
-258.9143181098
 30
0.0
 70
        32
  0
VERTEX
  5
853
100
AcDbEntity
  8
CK_LEVEL_1
  6
CONTINUOUS
 62
         7
100
AcDbVertex
100
AcDb3dPolylineVertex
 10
112.7271638637
 20
-258.9687675989
 30
0.0
 70
        32
  0
VERTEX
  5
855
100
AcDbEntity
  8
CK_LEVEL_1
  6
CONTINUOUS
 62
         7
100
AcDbVertex
100
AcDb3dPolylineVertex
 10
112.7936866021
 20
-259.0246768091
 30
0.0
 70
        32
  0
VERTEX
  5
857
100
AcDbEntity
  8
CK_LEVEL_1
  6
CONTINUOUS
 62
         7
100
AcDbVertex
100
AcDb3dPolylineVertex
 10
112.8589842892
 20
-259.0820172712
 30
0.0
 70
        32
  0
VERTEX
  5
859
100
AcDbEntity
  8
CK_LEVEL_1
  6
CONTINUOUS
 62
         7
100
AcDbVertex
100
AcDb3dPolylineVertex
 10
112.9230192343
 20
-259.1407667572
 30
0.0
 70
        32
  0
VERTEX
  5
85B
100
AcDbEntity
  8
CK_LEVEL_1
  6
CONTINUOUS
 62
         7
100
AcDbVertex
100
AcDb3dPolylineVertex
 10
112.9857537464
 20
-259.2009030392
 30
0.0
 70
        32
  0
VERTEX
  5
85D
100
AcDbEntity
  8
CK_LEVEL_1
  6
CONTINUOUS
 62
         7
100
AcDbVertex
100
AcDb3dPolylineVertex
 10
113.047150135
 20
-259.2624038893
 30
0.0
 70
        32
  0
VERTEX
  5
85F
100
AcDbEntity
  8
CK_LEVEL_1
  6
CONTINUOUS
 62
         7
100
AcDbVertex
100
AcDb3dPolylineVertex
 10
113.1071707093
 20
-259.3252470797
 30
0.0
 70
        32
  0
VERTEX
  5
861
100
AcDbEntity
  8
CK_LEVEL_1
  6
CONTINUOUS
 62
         7
100
AcDbVertex
100
AcDb3dPolylineVertex
 10
113.1657777786
 20
-259.3894103824
 30
0.0
 70
        32
  0
VERTEX
  5
863
100
AcDbEntity
  8
CK_LEVEL_1
  6
CONTINUOUS
 62
         7
100
AcDbVertex
100
AcDb3dPolylineVertex
 10
113.2229336521
 20
-259.4548715695
 30
0.0
 70
        32
  0
VERTEX
  5
865
100
AcDbEntity
  8
CK_LEVEL_1
  6
CONTINUOUS
 62
         7
100
AcDbVertex
100
AcDb3dPolylineVertex
 10
113.278600639
 20
-259.5216084131
 30
0.0
 70
        32
  0
VERTEX
  5
867
100
AcDbEntity
  8
CK_LEVEL_1
  6
CONTINUOUS
 62
         7
100
AcDbVertex
100
AcDb3dPolylineVertex
 10
113.3328185687
 20
-259.5896960689
 30
0.0
 70
        32
  0
VERTEX
  5
869
100
AcDbEntity
  8
CK_LEVEL_1
  6
CONTINUOUS
 62
         7
100
AcDbVertex
100
AcDb3dPolylineVertex
 10
113.38546991
 20
-259.6590076478
 30
0.0
 70
        32
  0
VERTEX
  5
86B
100
AcDbEntity
  8
CK_LEVEL_1
  6
CONTINUOUS
 62
         7
100
AcDbVertex
100
AcDb3dPolylineVertex
 10
113.4365190687
 20
-259.7295100177
 30
0.0
 70
        32
  0
VERTEX
  5
86D
100
AcDbEntity
  8
CK_LEVEL_1
  6
CONTINUOUS
 62
         7
100
AcDbVertex
100
AcDb3dPolylineVertex
 10
113.4859304504
 20
-259.8011700465
 30
0.0
 70
        32
  0
VERTEX
  5
86F
100
AcDbEntity
  8
CK_LEVEL_1
  6
CONTINUOUS
 62
         7
100
AcDbVertex
100
AcDb3dPolylineVertex
 10
113.5336684609
 20
-259.8739546021
 30
0.0
 70
        32
  0
VERTEX
  5
871
100
AcDbEntity
  8
CK_LEVEL_1
  6
CONTINUOUS
 62
         7
100
AcDbVertex
100
AcDb3dPolylineVertex
 10
113.579697506
 20
-259.9478305525
 30
0.0
 70
        32
  0
VERTEX
  5
873
100
AcDbEntity
  8
CK_LEVEL_1
  6
CONTINUOUS
 62
         7
100
AcDbVertex
100
AcDb3dPolylineVertex
 10
113.6239819913
 20
-260.0227647655
 30
0.0
 70
        32
  0
VERTEX
  5
875
100
AcDbEntity
  8
CK_LEVEL_1
  6
CONTINUOUS
 62
         7
100
AcDbVertex
100
AcDb3dPolylineVertex
 10
113.6664863227
 20
-260.098724109
 30
0.0
 70
        32
  0
VERTEX
  5
877
100
AcDbEntity
  8
CK_LEVEL_1
  6
CONTINUOUS
 62
         7
100
AcDbVertex
100
AcDb3dPolylineVertex
 10
113.7071749058
 20
-260.1756754509
 30
0.0
 70
        32
  0
VERTEX
  5
879
100
AcDbEntity
  8
CK_LEVEL_1
  6
CONTINUOUS
 62
         7
100
AcDbVertex
100
AcDb3dPolylineVertex
 10
113.7460946934
 20
-260.2537515438
 30
0.0
 70
        32
  0
VERTEX
  5
87B
100
AcDbEntity
  8
CK_LEVEL_1
  6
CONTINUOUS
 62
         7
100
AcDbVertex
100
AcDb3dPolylineVertex
 10
113.7831275868
 20
-260.3327452232
 30
0.0
 70
        32
  0
VERTEX
  5
87D
100
AcDbEntity
  8
CK_LEVEL_1
  6
CONTINUOUS
 62
         7
100
AcDbVertex
100
AcDb3dPolylineVertex
 10
113.8182459739
 20
-260.412611097
 30
0.0
 70
        32
  0
VERTEX
  5
87F
100
AcDbEntity
  8
CK_LEVEL_1
  6
CONTINUOUS
 62
         7
100
AcDbVertex
100
AcDb3dPolylineVertex
 10
113.8514222429
 20
-260.4933037731
 30
0.0
 70
        32
  0
VERTEX
  5
881
100
AcDbEntity
  8
CK_LEVEL_1
  6
CONTINUOUS
 62
         7
100
AcDbVertex
100
AcDb3dPolylineVertex
 10
113.8826287817
 20
-260.5747778596
 30
0.0
 70
        32
  0
VERTEX
  5
883
100
AcDbEntity
  8
CK_LEVEL_1
  6
CONTINUOUS
 62
         7
100
AcDbVertex
100
AcDb3dPolylineVertex
 10
113.9118379784
 20
-260.6569879642
 30
0.0
 70
        32
  0
VERTEX
  5
885
100
AcDbEntity
  8
CK_LEVEL_1
  6
CONTINUOUS
 62
         7
100
AcDbVertex
100
AcDb3dPolylineVertex
 10
113.9390222211
 20
-260.739888695
 30
0.0
 70
        32
  0
VERTEX
  5
887
100
AcDbEntity
  8
CK_LEVEL_1
  6
CONTINUOUS
 62
         7
100
AcDbVertex
100
AcDb3dPolylineVertex
 10
113.9641538978
 20
-260.8234346598
 30
0.0
 70
        32
  0
VERTEX
  5
889
100
AcDbEntity
  8
CK_LEVEL_1
  6
CONTINUOUS
 62
         7
100
AcDbVertex
100
AcDb3dPolylineVertex
 10
113.9872053966
 20
-260.9075804666
 30
0.0
 70
        32
  0
VERTEX
  5
88B
100
AcDbEntity
  8
CK_LEVEL_1
  6
CONTINUOUS
 62
         7
100
AcDbVertex
100
AcDb3dPolylineVertex
 10
114.0081854164
 20
-260.9924233369
 30
0.0
 70
        32
  0
VERTEX
  5
88D
100
AcDbEntity
  8
CK_LEVEL_1
  6
CONTINUOUS
 62
         7
100
AcDbVertex
100
AcDb3dPolylineVertex
 10
114.027038289
 20
-261.0777679
 30
0.0
 70
        32
  0
VERTEX
  5
88F
100
AcDbEntity
  8
CK_LEVEL_1
  6
CONTINUOUS
 62
         7
100
AcDbVertex
100
AcDb3dPolylineVertex
 10
114.0437518137
 20
-261.1635595165
 30
0.0
 70
        32
  0
VERTEX
  5
891
100
AcDbEntity
  8
CK_LEVEL_1
  6
CONTINUOUS
 62
         7
100
AcDbVertex
100
AcDb3dPolylineVertex
 10
114.0583137898
 20
-261.2497435466
 30
0.0
 70
        32
  0
VERTEX
  5
893
100
AcDbEntity
  8
CK_LEVEL_1
  6
CONTINUOUS
 62
         7
100
AcDbVertex
100
AcDb3dPolylineVertex
 10
114.0707120167
 20
-261.336265351
 30
0.0
 70
        32
  0
VERTEX
  5
895
100
AcDbEntity
  8
CK_LEVEL_1
  6
CONTINUOUS
 62
         7
100
AcDbVertex
100
AcDb3dPolylineVertex
 10
114.0809342936
 20
-261.4230702898
 30
0.0
 70
        32
  0
VERTEX
  5
897
100
AcDbEntity
  8
CK_LEVEL_1
  6
CONTINUOUS
 62
         7
100
AcDbVertex
100
AcDb3dPolylineVertex
 10
114.0889684199
 20
-261.5101037237
 30
0.0
 70
        32
  0
VERTEX
  5
899
100
AcDbEntity
  8
CK_LEVEL_1
  6
CONTINUOUS
 62
         7
100
AcDbVertex
100
AcDb3dPolylineVertex
 10
114.0948021949
 20
-261.597311013
 30
0.0
 70
        32
  0
VERTEX
  5
89B
100
AcDbEntity
  8
CK_LEVEL_1
  6
CONTINUOUS
 62
         7
100
AcDbVertex
100
AcDb3dPolylineVertex
 10
114.098423418
 20
-261.6846375182
 30
0.0
 70
        32
  0
VERTEX
  5
89D
100
AcDbEntity
  8
CK_LEVEL_1
  6
CONTINUOUS
 62
         7
100
AcDbVertex
100
AcDb3dPolylineVertex
 10
114.0998232169
 20
-261.7720480086
 30
0.0
 70
        32
  0
VERTEX
  5
89F
100
AcDbEntity
  8
CK_LEVEL_1
  6
CONTINUOUS
 62
         7
100
AcDbVertex
100
AcDb3dPolylineVertex
 10
114.0990046502
 20
-261.8594672571
 30
0.0
 70
        32
  0
VERTEX
  5
8A1
100
AcDbEntity
  8
CK_LEVEL_1
  6
CONTINUOUS
 62
         7
100
AcDbVertex
100
AcDb3dPolylineVertex
 10
114.0959751033
 20
-261.9468394167
 30
0.0
 70
        32
  0
VERTEX
  5
8A3
100
AcDbEntity
  8
CK_LEVEL_1
  6
CONTINUOUS
 62
         7
100
AcDbVertex
100
AcDb3dPolylineVertex
 10
114.0907419614
 20
-262.0341086402
 30
0.0
 70
        32
  0
VERTEX
  5
8A5
100
AcDbEntity
  8
CK_LEVEL_1
  6
CONTINUOUS
 62
         7
100
AcDbVertex
100
AcDb3dPolylineVertex
 10
114.0833126096
 20
-262.1212190805
 30
0.0
 70
        32
  0
VERTEX
  5
8A7
100
AcDbEntity
  8
CK_LEVEL_1
  6
CONTINUOUS
 62
         7
100
AcDbVertex
100
AcDb3dPolylineVertex
 10
114.0736944332
 20
-262.2081148904
 30
0.0
 70
        32
  0
VERTEX
  5
8A9
100
AcDbEntity
  8
CK_LEVEL_1
  6
CONTINUOUS
 62
         7
100
AcDbVertex
100
AcDb3dPolylineVertex
 10
114.0618948175
 20
-262.294740223
 30
0.0
 70
        32
  0
VERTEX
  5
8AB
100
AcDbEntity
  8
CK_LEVEL_1
  6
CONTINUOUS
 62
         7
100
AcDbVertex
100
AcDb3dPolylineVertex
 10
114.0479211476
 20
-262.381039231
 30
0.0
 70
        32
  0
VERTEX
  5
8AD
100
AcDbEntity
  8
CK_LEVEL_1
  6
CONTINUOUS
 62
         7
100
AcDbVertex
100
AcDb3dPolylineVertex
 10
114.0317808088
 20
-262.4669560673
 30
0.0
 70
        32
  0
VERTEX
  5
8AF
100
AcDbEntity
  8
CK_LEVEL_1
  6
CONTINUOUS
 62
         7
100
AcDbVertex
100
AcDb3dPolylineVertex
 10
114.0135110228
 20
-262.5523173549
 30
0.0
 70
        32
  0
VERTEX
  5
8B1
100
AcDbEntity
  8
CK_LEVEL_1
  6
CONTINUOUS
 62
         7
100
AcDbVertex
100
AcDb3dPolylineVertex
 10
113.9931123755
 20
-262.6371936055
 30
0.0
 70
        32
  0
VERTEX
  5
8B3
100
AcDbEntity
  8
CK_LEVEL_1
  6
CONTINUOUS
 62
         7
100
AcDbVertex
100
AcDb3dPolylineVertex
 10
113.970609277
 20
-262.7215365815
 30
0.0
 70
        32
  0
VERTEX
  5
8B5
100
AcDbEntity
  8
CK_LEVEL_1
  6
CONTINUOUS
 62
         7
100
AcDbVertex
100
AcDb3dPolylineVertex
 10
113.9460261373
 20
-262.8052980449
 30
0.0
 70
        32
  0
VERTEX
  5
8B7
100
AcDbEntity
  8
CK_LEVEL_1
  6
CONTINUOUS
 62
         7
100
AcDbVertex
100
AcDb3dPolylineVertex
 10
113.9193873663
 20
-262.8884297581
 30
0.0
 70
        32
  0
VERTEX
  5
8B9
100
AcDbEntity
  8
CK_LEVEL_1
  6
CONTINUOUS
 62
         7
100
AcDbVertex
100
AcDb3dPolylineVertex
 10
113.8907173741
 20
-262.9708834832
 30
0.0
 70
        32
  0
VERTEX
  5
8BB
100
AcDbEntity
  8
CK_LEVEL_1
  6
CONTINUOUS
 62
         7
100
AcDbVertex
100
AcDb3dPolylineVertex
 10
113.8600405706
 20
-263.0526109824
 30
0.0
 70
        32
  0
VERTEX
  5
8BD
100
AcDbEntity
  8
CK_LEVEL_1
  6
CONTINUOUS
 62
         7
100
AcDbVertex
100
AcDb3dPolylineVertex
 10
113.8273813658
 20
-263.133564018
 30
0.0
 70
        32
  0
VERTEX
  5
8BF
100
AcDbEntity
  8
CK_LEVEL_1
  6
CONTINUOUS
 62
         7
100
AcDbVertex
100
AcDb3dPolylineVertex
 10
113.7927641697
 20
-263.2136943521
 30
0.0
 70
        32
  0
VERTEX
  5
8C1
100
AcDbEntity
  8
CK_LEVEL_1
  6
CONTINUOUS
 62
         7
100
AcDbVertex
100
AcDb3dPolylineVertex
 10
113.7562955463
 20
-263.292786586
 30
0.0
 70
        32
  0
VERTEX
  5
8C3
100
AcDbEntity
  8
CK_LEVEL_1
  6
CONTINUOUS
 62
         7
100
AcDbVertex
100
AcDb3dPolylineVertex
 10
113.7179358918
 20
-263.3709754026
 30
0.0
 70
        32
  0
VERTEX
  5
8C5
100
AcDbEntity
  8
CK_LEVEL_1
  6
CONTINUOUS
 62
         7
100
AcDbVertex
100
AcDb3dPolylineVertex
 10
113.6777194671
 20
-263.4482245897
 30
0.0
 70
        32
  0
VERTEX
  5
8C7
100
AcDbEntity
  8
CK_LEVEL_1
  6
CONTINUOUS
 62
         7
100
AcDbVertex
100
AcDb3dPolylineVertex
 10
113.6356805329
 20
-263.5244979355
 30
0.0
 70
        32
  0
VERTEX
  5
8C9
100
AcDbEntity
  8
CK_LEVEL_1
  6
CONTINUOUS
 62
         7
100
AcDbVertex
100
AcDb3dPolylineVertex
 10
113.59185335
 20
-263.599759228
 30
0.0
 70
        32
  0
VERTEX
  5
8CB
100
AcDbEntity
  8
CK_LEVEL_1
  6
CONTINUOUS
 62
         7
100
AcDbVertex
100
AcDb3dPolylineVertex
 10
113.5462721792
 20
-263.673972255
 30
0.0
 70
        32
  0
VERTEX
  5
8CD
100
AcDbEntity
  8
CK_LEVEL_1
  6
CONTINUOUS
 62
         7
100
AcDbVertex
100
AcDb3dPolylineVertex
 10
113.4989712812
 20
-263.7471008048
 30
0.0
 70
        32
  0
VERTEX
  5
8CF
100
AcDbEntity
  8
CK_LEVEL_1
  6
CONTINUOUS
 62
         7
100
AcDbVertex
100
AcDb3dPolylineVertex
 10
113.4499849168
 20
-263.8191086652
 30
0.0
 70
        32
  0
VERTEX
  5
8D1
100
AcDbEntity
  8
CK_LEVEL_1
  6
CONTINUOUS
 62
         7
100
AcDbVertex
100
AcDb3dPolylineVertex
 10
113.3993473467
 20
-263.8899596243
 30
0.0
 70
        32
  0
VERTEX
  5
8D3
100
AcDbEntity
  8
CK_LEVEL_1
  6
CONTINUOUS
 62
         7
100
AcDbVertex
100
AcDb3dPolylineVertex
 10
113.3471839409
 20
-263.95950152
 30
0.0
 70
        32
  0
VERTEX
  5
8D5
100
AcDbEntity
  8
CK_LEVEL_1
  6
CONTINUOUS
 62
         7
100
AcDbVertex
100
AcDb3dPolylineVertex
 10
113.2934466648
 20
-264.0278296479
 30
0.0
 70
        32
  0
VERTEX
  5
8D7
100
AcDbEntity
  8
CK_LEVEL_1
  6
CONTINUOUS
 62
         7
100
AcDbVertex
100
AcDb3dPolylineVertex
 10
113.2381730792
 20
-264.0949192848
 30
0.0
 70
        32
  0
VERTEX
  5
8D9
100
AcDbEntity
  8
CK_LEVEL_1
  6
CONTINUOUS
 62
         7
100
AcDbVertex
100
AcDb3dPolylineVertex
 10
113.1814007446
 20
-264.1607457076
 30
0.0
 70
        32
  0
VERTEX
  5
8DB
100
AcDbEntity
  8
CK_LEVEL_1
  6
CONTINUOUS
 62
         7
100
AcDbVertex
100
AcDb3dPolylineVertex
 10
113.1231672218
 20
-264.2252841932
 30
0.0
 70
        32
  0
VERTEX
  5
8DD
100
AcDbEntity
  8
CK_LEVEL_1
  6
CONTINUOUS
 62
         7
100
AcDbVertex
100
AcDb3dPolylineVertex
 10
113.0635100714
 20
-264.2885100184
 30
0.0
 70
        32
  0
VERTEX
  5
8DF
100
AcDbEntity
  8
CK_LEVEL_1
  6
CONTINUOUS
 62
         7
100
AcDbVertex
100
AcDb3dPolylineVertex
 10
113.0024668541
 20
-264.3503984601
 30
0.0
 70
        32
  0
VERTEX
  5
8E1
100
AcDbEntity
  8
CK_LEVEL_1
  6
CONTINUOUS
 62
         7
100
AcDbVertex
100
AcDb3dPolylineVertex
 10
112.9400751307
 20
-264.4109247951
 30
0.0
 70
        32
  0
VERTEX
  5
8E3
100
AcDbEntity
  8
CK_LEVEL_1
  6
CONTINUOUS
 62
         7
100
AcDbVertex
100
AcDb3dPolylineVertex
 10
112.8763724618
 20
-264.4700643003
 30
0.0
 70
        32
  0
VERTEX
  5
8E5
100
AcDbEntity
  8
CK_LEVEL_1
  6
CONTINUOUS
 62
         7
100
AcDbVertex
100
AcDb3dPolylineVertex
 10
112.8114284391
 20
-264.5277657752
 30
0.0
 70
        32
  0
VERTEX
  5
8E7
100
AcDbEntity
  8
CK_LEVEL_1
  6
CONTINUOUS
 62
         7
100
AcDbVertex
100
AcDb3dPolylineVertex
 10
112.7452492671
 20
-264.5840410099
 30
0.0
 70
        32
  0
VERTEX
  5
8E9
100
AcDbEntity
  8
CK_LEVEL_1
  6
CONTINUOUS
 62
         7
100
AcDbVertex
100
AcDb3dPolylineVertex
 10
112.6778719348
 20
-264.6388739353
 30
0.0
 70
        32
  0
VERTEX
  5
8EB
100
AcDbEntity
  8
CK_LEVEL_1
  6
CONTINUOUS
 62
         7
100
AcDbVertex
100
AcDb3dPolylineVertex
 10
112.6093334311
 20
-264.6922484823
 30
0.0
 70
        32
  0
VERTEX
  5
8ED
100
AcDbEntity
  8
CK_LEVEL_1
  6
CONTINUOUS
 62
         7
100
AcDbVertex
100
AcDb3dPolylineVertex
 10
112.5396707451
 20
-264.7441485819
 30
0.0
 70
        32
  0
VERTEX
  5
8EF
100
AcDbEntity
  8
CK_LEVEL_1
  6
CONTINUOUS
 62
         7
100
AcDbVertex
100
AcDb3dPolylineVertex
 10
112.4689208658
 20
-264.7945581649
 30
0.0
 70
        32
  0
VERTEX
  5
8F1
100
AcDbEntity
  8
CK_LEVEL_1
  6
CONTINUOUS
 62
         7
100
AcDbVertex
100
AcDb3dPolylineVertex
 10
112.397120782
 20
-264.8434611621
 30
0.0
 70
        32
  0
VERTEX
  5
8F3
100
AcDbEntity
  8
CK_LEVEL_1
  6
CONTINUOUS
 62
         7
100
AcDbVertex
100
AcDb3dPolylineVertex
 10
112.3243074827
 20
-264.8908415047
 30
0.0
 70
        32
  0
VERTEX
  5
8F5
100
AcDbEntity
  8
CK_LEVEL_1
  6
CONTINUOUS
 62
         7
100
AcDbVertex
100
AcDb3dPolylineVertex
 10
112.250517957
 20
-264.9366831233
 30
0.0
 70
        32
  0
VERTEX
  5
8F7
100
AcDbEntity
  8
CK_LEVEL_1
  6
CONTINUOUS
 62
         7
100
AcDbVertex
100
AcDb3dPolylineVertex
 10
112.1757258431
 20
-264.9810075112
 30
0.0
 70
        32
  0
VERTEX
  5
8F9
100
AcDbEntity
  8
CK_LEVEL_1
  6
CONTINUOUS
 62
         7
100
AcDbVertex
100
AcDb3dPolylineVertex
 10
112.1000290437
 20
-265.0237643741
 30
0.0
 70
        32
  0
VERTEX
  5
8FB
100
AcDbEntity
  8
CK_LEVEL_1
  6
CONTINUOUS
 62
         7
100
AcDbVertex
100
AcDb3dPolylineVertex
 10
112.0234636903
 20
-265.0649435946
 30
0.0
 70
        32
  0
VERTEX
  5
8FD
100
AcDbEntity
  8
CK_LEVEL_1
  6
CONTINUOUS
 62
         7
100
AcDbVertex
100
AcDb3dPolylineVertex
 10
111.9460659143
 20
-265.1045350552
 30
0.0
 70
        32
  0
VERTEX
  5
8FF
100
AcDbEntity
  8
CK_LEVEL_1
  6
CONTINUOUS
 62
         7
100
AcDbVertex
100
AcDb3dPolylineVertex
 10
111.8678718473
 20
-265.1425286385
 30
0.0
 70
        32
  0
VERTEX
  5
901
100
AcDbEntity
  8
CK_LEVEL_1
  6
CONTINUOUS
 62
         7
100
AcDbVertex
100
AcDb3dPolylineVertex
 10
111.7889176206
 20
-265.1789142272
 30
0.0
 70
        32
  0
VERTEX
  5
903
100
AcDbEntity
  8
CK_LEVEL_1
  6
CONTINUOUS
 62
         7
100
AcDbVertex
100
AcDb3dPolylineVertex
 10
111.7092393658
 20
-265.2136817037
 30
0.0
 70
        32
  0
VERTEX
  5
905
100
AcDbEntity
  8
CK_LEVEL_1
  6
CONTINUOUS
 62
         7
100
AcDbVertex
100
AcDb3dPolylineVertex
 10
111.6288732144
 20
-265.2468209507
 30
0.0
 70
        32
  0
VERTEX
  5
907
100
AcDbEntity
  8
CK_LEVEL_1
  6
CONTINUOUS
 62
         7
100
AcDbVertex
100
AcDb3dPolylineVertex
 10
111.5478552977
 20
-265.2783218508
 30
0.0
 70
        32
  0
VERTEX
  5
909
100
AcDbEntity
  8
CK_LEVEL_1
  6
CONTINUOUS
 62
         7
100
AcDbVertex
100
AcDb3dPolylineVertex
 10
111.4660821973
 20
-265.3082242343
 30
0.0
 70
        32
  0
VERTEX
  5
90B
100
AcDbEntity
  8
CK_LEVEL_1
  6
CONTINUOUS
 62
         7
100
AcDbVertex
100
AcDb3dPolylineVertex
 10
111.3837242314
 20
-265.3364666872
 30
0.0
 70
        32
  0
VERTEX
  5
90D
100
AcDbEntity
  8
CK_LEVEL_1
  6
CONTINUOUS
 62
         7
100
AcDbVertex
100
AcDb3dPolylineVertex
 10
111.3008142588
 20
-265.3630433403
 30
0.0
 70
        32
  0
VERTEX
  5
90F
100
AcDbEntity
  8
CK_LEVEL_1
  6
CONTINUOUS
 62
         7
100
AcDbVertex
100
AcDb3dPolylineVertex
 10
111.2173851382
 20
-265.3879483247
 30
0.0
 70
        32
  0
VERTEX
  5
911
100
AcDbEntity
  8
CK_LEVEL_1
  6
CONTINUOUS
 62
         7
100
AcDbVertex
100
AcDb3dPolylineVertex
 10
111.1334697282
 20
-265.4111757712
 30
0.0
 70
        32
  0
VERTEX
  5
913
100
AcDbEntity
  8
CK_LEVEL_1
  6
CONTINUOUS
 62
         7
100
AcDbVertex
100
AcDb3dPolylineVertex
 10
111.0491008874
 20
-265.4327198107
 30
0.0
 70
        32
  0
VERTEX
  5
915
100
AcDbEntity
  8
CK_LEVEL_1
  6
CONTINUOUS
 62
         7
100
AcDbVertex
100
AcDb3dPolylineVertex
 10
110.9643114745
 20
-265.4525745742
 30
0.0
 70
        32
  0
VERTEX
  5
917
100
AcDbEntity
  8
CK_LEVEL_1
  6
CONTINUOUS
 62
         7
100
AcDbVertex
100
AcDb3dPolylineVertex
 10
110.8791343482
 20
-265.4707341926
 30
0.0
 70
        32
  0
VERTEX
  5
919
100
AcDbEntity
  8
CK_LEVEL_1
  6
CONTINUOUS
 62
         7
100
AcDbVertex
100
AcDb3dPolylineVertex
 10
110.7936023671
 20
-265.4871927968
 30
0.0
 70
        32
  0
VERTEX
  5
91B
100
AcDbEntity
  8
CK_LEVEL_1
  6
CONTINUOUS
 62
         7
100
AcDbVertex
100
AcDb3dPolylineVertex
 10
110.7075864435
 20
-265.5019714005
 30
0.0
 70
        32
  0
VERTEX
  5
91D
100
AcDbEntity
  8
CK_LEVEL_1
  6
CONTINUOUS
 62
         7
100
AcDbVertex
100
AcDb3dPolylineVertex
 10
110.6212879215
 20
-265.5150338239
 30
0.0
 70
        32
  0
VERTEX
  5
91F
100
AcDbEntity
  8
CK_LEVEL_1
  6
CONTINUOUS
 62
         7
100
AcDbVertex
100
AcDb3dPolylineVertex
 10
110.5347474223
 20
-265.5263772544
 30
0.0
 70
        32
  0
VERTEX
  5
921
100
AcDbEntity
  8
CK_LEVEL_1
  6
CONTINUOUS
 62
         7
100
AcDbVertex
100
AcDb3dPolylineVertex
 10
110.4480055669
 20
-265.5359988793
 30
0.0
 70
        32
  0
VERTEX
  5
923
100
AcDbEntity
  8
CK_LEVEL_1
  6
CONTINUOUS
 62
         7
100
AcDbVertex
100
AcDb3dPolylineVertex
 10
110.3611029764
 20
-265.5438958861
 30
0.0
 70
        32
  0
VERTEX
  5
925
100
AcDbEntity
  8
CK_LEVEL_1
  6
CONTINUOUS
 62
         7
100
AcDbVertex
100
AcDb3dPolylineVertex
 10
110.2740802718
 20
-265.5500654621
 30
0.0
 70
        32
  0
VERTEX
  5
927
100
AcDbEntity
  8
CK_LEVEL_1
  6
CONTINUOUS
 62
         7
100
AcDbVertex
100
AcDb3dPolylineVertex
 10
110.1869780743
 20
-265.5545047947
 30
0.0
 70
        32
  0
VERTEX
  5
929
100
AcDbEntity
  8
CK_LEVEL_1
  6
CONTINUOUS
 62
         7
100
AcDbVertex
100
AcDb3dPolylineVertex
 10
110.0998370048
 20
-265.5572110713
 30
0.0
 70
        32
  0
VERTEX
  5
92B
100
AcDbEntity
  8
CK_LEVEL_1
  6
CONTINUOUS
 62
         7
100
AcDbVertex
100
AcDb3dPolylineVertex
 10
110.0126976844
 20
-265.5581814792
 30
0.0
 70
        32
  0
SEQEND
  5
92D
100
AcDbEntity
  8
CK_LEVEL_1
  6
CONTINUOUS
 62
         7
  0
POLYLINE
  5
92F
100
AcDbEntity
  8
CK_LEVEL_1
  6
CONTINUOUS
 62
         7
100
AcDb3dPolyline
 66
         1
 10
0.0
 20
0.0
 30
0.0
 70
         8
  0
VERTEX
  5
931
100
AcDbEntity
  8
CK_LEVEL_1
  6
CONTINUOUS
 62
         7
100
AcDbVertex
100
AcDb3dPolylineVertex
 10
138.1904784018
 20
-254.4354106716
 30
0.0
 70
        32
  0
VERTEX
  5
933
100
AcDbEntity
  8
CK_LEVEL_1
  6
CONTINUOUS
 62
         7
100
AcDbVertex
100
AcDb3dPolylineVertex
 10
138.2014029114
 20
-254.4349218158
 30
0.0
 70
        32
  0
VERTEX
  5
935
100
AcDbEntity
  8
CK_LEVEL_1
  6
CONTINUOUS
 62
         7
100
AcDbVertex
100
AcDb3dPolylineVertex
 10
138.2122828769
 20
-254.4334993851
 30
0.0
 70
        32
  0
VERTEX
  5
937
100
AcDbEntity
  8
CK_LEVEL_1
  6
CONTINUOUS
 62
         7
100
AcDbVertex
100
AcDb3dPolylineVertex
 10
138.223072613
 20
-254.4312095845
 30
0.0
 70
        32
  0
VERTEX
  5
939
100
AcDbEntity
  8
CK_LEVEL_1
  6
CONTINUOUS
 62
         7
100
AcDbVertex
100
AcDb3dPolylineVertex
 10
138.2337264341
 20
-254.428118619
 30
0.0
 70
        32
  0
VERTEX
  5
93B
100
AcDbEntity
  8
CK_LEVEL_1
  6
CONTINUOUS
 62
         7
100
AcDbVertex
100
AcDb3dPolylineVertex
 10
138.2441986551
 20
-254.4242926936
 30
0.0
 70
        32
  0
VERTEX
  5
93D
100
AcDbEntity
  8
CK_LEVEL_1
  6
CONTINUOUS
 62
         7
100
AcDbVertex
100
AcDb3dPolylineVertex
 10
138.2544435903
 20
-254.4197980134
 30
0.0
 70
        32
  0
VERTEX
  5
93F
100
AcDbEntity
  8
CK_LEVEL_1
  6
CONTINUOUS
 62
         7
100
AcDbVertex
100
AcDb3dPolylineVertex
 10
138.2644155546
 20
-254.4147007833
 30
0.0
 70
        32
  0
VERTEX
  5
941
100
AcDbEntity
  8
CK_LEVEL_1
  6
CONTINUOUS
 62
         7
100
AcDbVertex
100
AcDb3dPolylineVertex
 10
138.2740688625
 20
-254.4090672084
 30
0.0
 70
        32
  0
VERTEX
  5
943
100
AcDbEntity
  8
CK_LEVEL_1
  6
CONTINUOUS
 62
         7
100
AcDbVertex
100
AcDb3dPolylineVertex
 10
138.2833578287
 20
-254.4029634937
 30
0.0
 70
        32
  0
VERTEX
  5
945
100
AcDbEntity
  8
CK_LEVEL_1
  6
CONTINUOUS
 62
         7
100
AcDbVertex
100
AcDb3dPolylineVertex
 10
138.2879038845
 20
-254.3997183387
 30
0.0
 70
        32
  0
VERTEX
  5
947
100
AcDbEntity
  8
CK_LEVEL_1
  6
CONTINUOUS
 62
         7
100
AcDbVertex
100
AcDb3dPolylineVertex
 10
138.2923506815
 20
-254.3963747995
 30
0.0
 70
        32
  0
VERTEX
  5
949
100
AcDbEntity
  8
CK_LEVEL_1
  6
CONTINUOUS
 62
         7
100
AcDbVertex
100
AcDb3dPolylineVertex
 10
138.2967038158
 20
-254.3929377886
 30
0.0
 70
        32
  0
VERTEX
  5
94B
100
AcDbEntity
  8
CK_LEVEL_1
  6
CONTINUOUS
 62
         7
100
AcDbVertex
100
AcDb3dPolylineVertex
 10
138.3009688834
 20
-254.3894122186
 30
0.0
 70
        32
  0
VERTEX
  5
94D
100
AcDbEntity
  8
CK_LEVEL_1
  6
CONTINUOUS
 62
         7
100
AcDbVertex
100
AcDb3dPolylineVertex
 10
138.3051514801
 20
-254.385803002
 30
0.0
 70
        32
  0
VERTEX
  5
94F
100
AcDbEntity
  8
CK_LEVEL_1
  6
CONTINUOUS
 62
         7
100
AcDbVertex
100
AcDb3dPolylineVertex
 10
138.3092572021
 20
-254.3821150514
 30
0.0
 70
        32
  0
VERTEX
  5
951
100
AcDbEntity
  8
CK_LEVEL_1
  6
CONTINUOUS
 62
         7
100
AcDbVertex
100
AcDb3dPolylineVertex
 10
138.3132916453
 20
-254.3783532794
 30
0.0
 70
        32
  0
VERTEX
  5
953
100
AcDbEntity
  8
CK_LEVEL_1
  6
CONTINUOUS
 62
         7
100
AcDbVertex
100
AcDb3dPolylineVertex
 10
138.3172604057
 20
-254.3745225984
 30
0.0
 70
        32
  0
VERTEX
  5
955
100
AcDbEntity
  8
CK_LEVEL_1
  6
CONTINUOUS
 62
         7
100
AcDbVertex
100
AcDb3dPolylineVertex
 10
138.3211690794
 20
-254.3706279212
 30
0.0
 70
        32
  0
VERTEX
  5
957
100
AcDbEntity
  8
CK_LEVEL_1
  6
CONTINUOUS
 62
         7
100
AcDbVertex
100
AcDb3dPolylineVertex
 10
138.3250196711
 20
-254.3666766467
 30
0.0
 70
        32
  0
VERTEX
  5
959
100
AcDbEntity
  8
CK_LEVEL_1
  6
CONTINUOUS
 62
         7
100
AcDbVertex
100
AcDb3dPolylineVertex
 10
138.3288165162
 20
-254.362668903
 30
0.0
 70
        32
  0
VERTEX
  5
95B
100
AcDbEntity
  8
CK_LEVEL_1
  6
CONTINUOUS
 62
         7
100
AcDbVertex
100
AcDb3dPolylineVertex
 10
138.3325602804
 20
-254.358607219
 30
0.0
 70
        32
  0
VERTEX
  5
95D
100
AcDbEntity
  8
CK_LEVEL_1
  6
CONTINUOUS
 62
         7
100
AcDbVertex
100
AcDb3dPolylineVertex
 10
138.3362516291
 20
-254.3544941237
 30
0.0
 70
        32
  0
VERTEX
  5
95F
100
AcDbEntity
  8
CK_LEVEL_1
  6
CONTINUOUS
 62
         7
100
AcDbVertex
100
AcDb3dPolylineVertex
 10
138.3398912276
 20
-254.3503321461
 30
0.0
 70
        32
  0
VERTEX
  5
961
100
AcDbEntity
  8
CK_LEVEL_1
  6
CONTINUOUS
 62
         7
100
AcDbVertex
100
AcDb3dPolylineVertex
 10
138.3434797415
 20
-254.3461238151
 30
0.0
 70
        32
  0
VERTEX
  5
963
100
AcDbEntity
  8
CK_LEVEL_1
  6
CONTINUOUS
 62
         7
100
AcDbVertex
100
AcDb3dPolylineVertex
 10
138.3470178362
 20
-254.3418716599
 30
0.0
 70
        32
  0
VERTEX
  5
965
100
AcDbEntity
  8
CK_LEVEL_1
  6
CONTINUOUS
 62
         7
100
AcDbVertex
100
AcDb3dPolylineVertex
 10
138.3505061772
 20
-254.3375782094
 30
0.0
 70
        32
  0
VERTEX
  5
967
100
AcDbEntity
  8
CK_LEVEL_1
  6
CONTINUOUS
 62
         7
100
AcDbVertex
100
AcDb3dPolylineVertex
 10
138.35394543
 20
-254.3332459925
 30
0.0
 70
        32
  0
VERTEX
  5
969
100
AcDbEntity
  8
CK_LEVEL_1
  6
CONTINUOUS
 62
         7
100
AcDbVertex
100
AcDb3dPolylineVertex
 10
138.3606732034
 20
-254.3244823605
 30
0.0
 70
        32
  0
VERTEX
  5
96B
100
AcDbEntity
  8
CK_LEVEL_1
  6
CONTINUOUS
 62
         7
100
AcDbVertex
100
AcDb3dPolylineVertex
 10
138.3672160031
 20
-254.3155831777
 30
0.0
 70
        32
  0
VERTEX
  5
96D
100
AcDbEntity
  8
CK_LEVEL_1
  6
CONTINUOUS
 62
         7
100
AcDbVertex
100
AcDb3dPolylineVertex
 10
138.3735821599
 20
-254.3065575532
 30
0.0
 70
        32
  0
VERTEX
  5
96F
100
AcDbEntity
  8
CK_LEVEL_1
  6
CONTINUOUS
 62
         7
100
AcDbVertex
100
AcDb3dPolylineVertex
 10
138.3797800046
 20
-254.297414596
 30
0.0
 70
        32
  0
VERTEX
  5
971
100
AcDbEntity
  8
CK_LEVEL_1
  6
CONTINUOUS
 62
         7
100
AcDbVertex
100
AcDb3dPolylineVertex
 10
138.3858178678
 20
-254.2881634152
 30
0.0
 70
        32
  0
VERTEX
  5
973
100
AcDbEntity
  8
CK_LEVEL_1
  6
CONTINUOUS
 62
         7
100
AcDbVertex
100
AcDb3dPolylineVertex
 10
138.3917040804
 20
-254.2788131197
 30
0.0
 70
        32
  0
VERTEX
  5
975
100
AcDbEntity
  8
CK_LEVEL_1
  6
CONTINUOUS
 62
         7
100
AcDbVertex
100
AcDb3dPolylineVertex
 10
138.3974469731
 20
-254.2693728187
 30
0.0
 70
        32
  0
VERTEX
  5
977
100
AcDbEntity
  8
CK_LEVEL_1
  6
CONTINUOUS
 62
         7
100
AcDbVertex
100
AcDb3dPolylineVertex
 10
138.4030548765
 20
-254.2598516211
 30
0.0
 70
        32
  0
VERTEX
  5
979
100
AcDbEntity
  8
CK_LEVEL_1
  6
CONTINUOUS
 62
         7
100
AcDbVertex
100
AcDb3dPolylineVertex
 10
138.4085361216
 20
-254.2502586361
 30
0.0
 70
        32
  0
VERTEX
  5
97B
100
AcDbEntity
  8
CK_LEVEL_1
  6
CONTINUOUS
 62
         7
100
AcDbVertex
100
AcDb3dPolylineVertex
 10
138.4138997332
 20
-254.2405993659
 30
0.0
 70
        32
  0
VERTEX
  5
97D
100
AcDbEntity
  8
CK_LEVEL_1
  6
CONTINUOUS
 62
         7
100
AcDbVertex
100
AcDb3dPolylineVertex
 10
138.4191489906
 20
-254.2308803113
 30
0.0
 70
        32
  0
VERTEX
  5
97F
100
AcDbEntity
  8
CK_LEVEL_1
  6
CONTINUOUS
 62
         7
100
AcDbVertex
100
AcDb3dPolylineVertex
 10
138.4242879299
 20
-254.2211043995
 30
0.0
 70
        32
  0
VERTEX
  5
981
100
AcDbEntity
  8
CK_LEVEL_1
  6
CONTINUOUS
 62
         7
100
AcDbVertex
100
AcDb3dPolylineVertex
 10
138.4293205876
 20
-254.211274558
 30
0.0
 70
        32
  0
VERTEX
  5
983
100
AcDbEntity
  8
CK_LEVEL_1
  6
CONTINUOUS
 62
         7
100
AcDbVertex
100
AcDb3dPolylineVertex
 10
138.4342510001
 20
-254.2013937139
 30
0.0
 70
        32
  0
VERTEX
  5
985
100
AcDbEntity
  8
CK_LEVEL_1
  6
CONTINUOUS
 62
         7
100
AcDbVertex
100
AcDb3dPolylineVertex
 10
138.4390832035
 20
-254.1914647947
 30
0.0
 70
        32
  0
VERTEX
  5
987
100
AcDbEntity
  8
CK_LEVEL_1
  6
CONTINUOUS
 62
         7
100
AcDbVertex
100
AcDb3dPolylineVertex
 10
138.4438212343
 20
-254.1814907278
 30
0.0
 70
        32
  0
VERTEX
  5
989
100
AcDbEntity
  8
CK_LEVEL_1
  6
CONTINUOUS
 62
         7
100
AcDbVertex
100
AcDb3dPolylineVertex
 10
138.4484691287
 20
-254.1714744403
 30
0.0
 70
        32
  0
VERTEX
  5
98B
100
AcDbEntity
  8
CK_LEVEL_1
  6
CONTINUOUS
 62
         7
100
AcDbVertex
100
AcDb3dPolylineVertex
 10
138.4530309232
 20
-254.1614188597
 30
0.0
 70
        32
  0
VERTEX
  5
98D
100
AcDbEntity
  8
CK_LEVEL_1
  6
CONTINUOUS
 62
         7
100
AcDbVertex
100
AcDb3dPolylineVertex
 10
138.4619067013
 20
-254.1412055651
 30
0.0
 70
        32
  0
VERTEX
  5
98F
100
AcDbEntity
  8
CK_LEVEL_1
  6
CONTINUOUS
 62
         7
100
AcDbVertex
100
AcDb3dPolylineVertex
 10
138.4704690415
 20
-254.1208566639
 30
0.0
 70
        32
  0
VERTEX
  5
991
100
AcDbEntity
  8
CK_LEVEL_1
  6
CONTINUOUS
 62
         7
100
AcDbVertex
100
AcDb3dPolylineVertex
 10
138.4787325564
 20
-254.1003819222
 30
0.0
 70
        32
  0
VERTEX
  5
993
100
AcDbEntity
  8
CK_LEVEL_1
  6
CONTINUOUS
 62
         7
100
AcDbVertex
100
AcDb3dPolylineVertex
 10
138.4867118587
 20
-254.079791106
 30
0.0
 70
        32
  0
VERTEX
  5
995
100
AcDbEntity
  8
CK_LEVEL_1
  6
CONTINUOUS
 62
         7
100
AcDbVertex
100
AcDb3dPolylineVertex
 10
138.4944215609
 20
-254.0590939815
 30
0.0
 70
        32
  0
VERTEX
  5
997
100
AcDbEntity
  8
CK_LEVEL_1
  6
CONTINUOUS
 62
         7
100
AcDbVertex
100
AcDb3dPolylineVertex
 10
138.5018762757
 20
-254.0383003148
 30
0.0
 70
        32
  0
VERTEX
  5
999
100
AcDbEntity
  8
CK_LEVEL_1
  6
CONTINUOUS
 62
         7
100
AcDbVertex
100
AcDb3dPolylineVertex
 10
138.5090906157
 20
-254.017419872
 30
0.0
 70
        32
  0
VERTEX
  5
99B
100
AcDbEntity
  8
CK_LEVEL_1
  6
CONTINUOUS
 62
         7
100
AcDbVertex
100
AcDb3dPolylineVertex
 10
138.5160791935
 20
-253.9964624192
 30
0.0
 70
        32
  0
VERTEX
  5
99D
100
AcDbEntity
  8
CK_LEVEL_1
  6
CONTINUOUS
 62
         7
100
AcDbVertex
100
AcDb3dPolylineVertex
 10
138.5228566218
 20
-253.9754377225
 30
0.0
 70
        32
  0
VERTEX
  5
99F
100
AcDbEntity
  8
CK_LEVEL_1
  6
CONTINUOUS
 62
         7
100
AcDbVertex
100
AcDb3dPolylineVertex
 10
138.5294376585
 20
-253.9543489875
 30
0.0
 70
        32
  0
VERTEX
  5
9A1
100
AcDbEntity
  8
CK_LEVEL_1
  6
CONTINUOUS
 62
         7
100
AcDbVertex
100
AcDb3dPolylineVertex
 10
138.5358276635
 20
-253.9332053376
 30
0.0
 70
        32
  0
VERTEX
  5
9A3
100
AcDbEntity
  8
CK_LEVEL_1
  6
CONTINUOUS
 62
         7
100
AcDbVertex
100
AcDb3dPolylineVertex
 10
138.542032242
 20
-253.9120093647
 30
0.0
 70
        32
  0
VERTEX
  5
9A5
100
AcDbEntity
  8
CK_LEVEL_1
  6
CONTINUOUS
 62
         7
100
AcDbVertex
100
AcDb3dPolylineVertex
 10
138.548056999
 20
-253.8907636609
 30
0.0
 70
        32
  0
VERTEX
  5
9A7
100
AcDbEntity
  8
CK_LEVEL_1
  6
CONTINUOUS
 62
         7
100
AcDbVertex
100
AcDb3dPolylineVertex
 10
138.5539075396
 20
-253.8694708183
 30
0.0
 70
        32
  0
VERTEX
  5
9A9
100
AcDbEntity
  8
CK_LEVEL_1
  6
CONTINUOUS
 62
         7
100
AcDbVertex
100
AcDb3dPolylineVertex
 10
138.559589469
 20
-253.8481334289
 30
0.0
 70
        32
  0
VERTEX
  5
9AB
100
AcDbEntity
  8
CK_LEVEL_1
  6
CONTINUOUS
 62
         7
100
AcDbVertex
100
AcDb3dPolylineVertex
 10
138.5651083923
 20
-253.8267540847
 30
0.0
 70
        32
  0
VERTEX
  5
9AD
100
AcDbEntity
  8
CK_LEVEL_1
  6
CONTINUOUS
 62
         7
100
AcDbVertex
100
AcDb3dPolylineVertex
 10
138.5704699146
 20
-253.8053353777
 30
0.0
 70
        32
  0
VERTEX
  5
9AF
100
AcDbEntity
  8
CK_LEVEL_1
  6
CONTINUOUS
 62
         7
100
AcDbVertex
100
AcDb3dPolylineVertex
 10
138.575679641
 20
-253.7838799
 30
0.0
 70
        32
  0
SEQEND
  5
9B1
100
AcDbEntity
  8
CK_LEVEL_1
  6
CONTINUOUS
 62
         7
  0
POLYLINE
  5
9B3
100
AcDbEntity
  8
CK_LEVEL_1
  6
CONTINUOUS
 62
         7
100
AcDb3dPolyline
 66
         1
 10
0.0
 20
0.0
 30
0.0
 70
         8
  0
VERTEX
  5
9B5
100
AcDbEntity
  8
CK_LEVEL_1
  6
CONTINUOUS
 62
         7
100
AcDbVertex
100
AcDb3dPolylineVertex
 10
131.3154784018
 20
-230.2838799
 30
0.0
 70
        32
  0
VERTEX
  5
9B7
100
AcDbEntity
  8
CK_LEVEL_1
  6
CONTINUOUS
 62
         7
100
AcDbVertex
100
AcDb3dPolylineVertex
 10
131.1282602972
 20
-230.3113202105
 30
0.0
 70
        32
  0
VERTEX
  5
9B9
100
AcDbEntity
  8
CK_LEVEL_1
  6
CONTINUOUS
 62
         7
100
AcDbVertex
100
AcDb3dPolylineVertex
 10
130.9408967233
 20
-230.3378477508
 30
0.0
 70
        32
  0
VERTEX
  5
9BB
100
AcDbEntity
  8
CK_LEVEL_1
  6
CONTINUOUS
 62
         7
100
AcDbVertex
100
AcDb3dPolylineVertex
 10
130.7533928458
 20
-230.3634592931
 30
0.0
 70
        32
  0
VERTEX
  5
9BD
100
AcDbEntity
  8
CK_LEVEL_1
  6
CONTINUOUS
 62
         7
100
AcDbVertex
100
AcDb3dPolylineVertex
 10
130.5657538303
 20
-230.3881516095
 30
0.0
 70
        32
  0
VERTEX
  5
9BF
100
AcDbEntity
  8
CK_LEVEL_1
  6
CONTINUOUS
 62
         7
100
AcDbVertex
100
AcDb3dPolylineVertex
 10
130.3779848424
 20
-230.4119214721
 30
0.0
 70
        32
  0
VERTEX
  5
9C1
100
AcDbEntity
  8
CK_LEVEL_1
  6
CONTINUOUS
 62
         7
100
AcDbVertex
100
AcDb3dPolylineVertex
 10
130.1900910477
 20
-230.4347656531
 30
0.0
 70
        32
  0
VERTEX
  5
9C3
100
AcDbEntity
  8
CK_LEVEL_1
  6
CONTINUOUS
 62
         7
100
AcDbVertex
100
AcDb3dPolylineVertex
 10
130.002077612
 20
-230.4566809247
 30
0.0
 70
        32
  0
VERTEX
  5
9C5
100
AcDbEntity
  8
CK_LEVEL_1
  6
CONTINUOUS
 62
         7
100
AcDbVertex
100
AcDb3dPolylineVertex
 10
129.8139497007
 20
-230.477664059
 30
0.0
 70
        32
  0
VERTEX
  5
9C7
100
AcDbEntity
  8
CK_LEVEL_1
  6
CONTINUOUS
 62
         7
100
AcDbVertex
100
AcDb3dPolylineVertex
 10
129.6257124795
 20
-230.4977118282
 30
0.0
 70
        32
  0
VERTEX
  5
9C9
100
AcDbEntity
  8
CK_LEVEL_1
  6
CONTINUOUS
 62
         7
100
AcDbVertex
100
AcDb3dPolylineVertex
 10
129.2036683263
 20
-230.5392101183
 30
0.0
 70
        32
  0
VERTEX
  5
9CB
100
AcDbEntity
  8
CK_LEVEL_1
  6
CONTINUOUS
 62
         7
100
AcDbVertex
100
AcDb3dPolylineVertex
 10
128.7811596309
 20
-230.5759621348
 30
0.0
 70
        32
  0
VERTEX
  5
9CD
100
AcDbEntity
  8
CK_LEVEL_1
  6
CONTINUOUS
 62
         7
100
AcDbVertex
100
AcDb3dPolylineVertex
 10
128.3582444612
 20
-230.6079315929
 30
0.0
 70
        32
  0
VERTEX
  5
9CF
100
AcDbEntity
  8
CK_LEVEL_1
  6
CONTINUOUS
 62
         7
100
AcDbVertex
100
AcDb3dPolylineVertex
 10
127.9349808853
 20
-230.6350822073
 30
0.0
 70
        32
  0
VERTEX
  5
9D1
100
AcDbEntity
  8
CK_LEVEL_1
  6
CONTINUOUS
 62
         7
100
AcDbVertex
100
AcDb3dPolylineVertex
 10
127.511426971
 20
-230.6573776933
 30
0.0
 70
        32
  0
VERTEX
  5
9D3
100
AcDbEntity
  8
CK_LEVEL_1
  6
CONTINUOUS
 62
         7
100
AcDbVertex
100
AcDb3dPolylineVertex
 10
127.0876407865
 20
-230.6747817656
 30
0.0
 70
        32
  0
VERTEX
  5
9D5
100
AcDbEntity
  8
CK_LEVEL_1
  6
CONTINUOUS
 62
         7
100
AcDbVertex
100
AcDb3dPolylineVertex
 10
126.6636803996
 20
-230.6872581393
 30
0.0
 70
        32
  0
VERTEX
  5
9D7
100
AcDbEntity
  8
CK_LEVEL_1
  6
CONTINUOUS
 62
         7
100
AcDbVertex
100
AcDb3dPolylineVertex
 10
126.2396038782
 20
-230.6947705295
 30
0.0
 70
        32
  0
VERTEX
  5
9D9
100
AcDbEntity
  8
CK_LEVEL_1
  6
CONTINUOUS
 62
         7
100
AcDbVertex
100
AcDb3dPolylineVertex
 10
125.8154692905
 20
-230.697282651
 30
0.0
 70
        32
  0
VERTEX
  5
9DB
100
AcDbEntity
  8
CK_LEVEL_1
  6
CONTINUOUS
 62
         7
100
AcDbVertex
100
AcDb3dPolylineVertex
 10
125.3913358735
 20
-230.6947703278
 30
0.0
 70
        32
  0
VERTEX
  5
9DD
100
AcDbEntity
  8
CK_LEVEL_1
  6
CONTINUOUS
 62
         7
100
AcDbVertex
100
AcDb3dPolylineVertex
 10
124.9672605255
 20
-230.6872577638
 30
0.0
 70
        32
  0
VERTEX
  5
9DF
100
AcDbEntity
  8
CK_LEVEL_1
  6
CONTINUOUS
 62
         7
100
AcDbVertex
100
AcDb3dPolylineVertex
 10
124.5433013138
 20
-230.674781244
 30
0.0
 70
        32
  0
VERTEX
  5
9E1
100
AcDbEntity
  8
CK_LEVEL_1
  6
CONTINUOUS
 62
         7
100
AcDbVertex
100
AcDb3dPolylineVertex
 10
124.1195163057
 20
-230.6573770536
 30
0.0
 70
        32
  0
VERTEX
  5
9E3
100
AcDbEntity
  8
CK_LEVEL_1
  6
CONTINUOUS
 62
         7
100
AcDbVertex
100
AcDb3dPolylineVertex
 10
123.6959635686
 20
-230.6350814774
 30
0.0
 70
        32
  0
VERTEX
  5
9E5
100
AcDbEntity
  8
CK_LEVEL_1
  6
CONTINUOUS
 62
         7
100
AcDbVertex
100
AcDb3dPolylineVertex
 10
123.2727011699
 20
-230.6079308006
 30
0.0
 70
        32
  0
VERTEX
  5
9E7
100
AcDbEntity
  8
CK_LEVEL_1
  6
CONTINUOUS
 62
         7
100
AcDbVertex
100
AcDb3dPolylineVertex
 10
122.849787177
 20
-230.5759613082
 30
0.0
 70
        32
  0
VERTEX
  5
9E9
100
AcDbEntity
  8
CK_LEVEL_1
  6
CONTINUOUS
 62
         7
100
AcDbVertex
100
AcDb3dPolylineVertex
 10
122.4272796573
 20
-230.5392092853
 30
0.0
 70
        32
  0
VERTEX
  5
9EB
100
AcDbEntity
  8
CK_LEVEL_1
  6
CONTINUOUS
 62
         7
100
AcDbVertex
100
AcDb3dPolylineVertex
 10
122.005236678
 20
-230.4977110169
 30
0.0
 70
        32
  0
VERTEX
  5
9ED
100
AcDbEntity
  8
CK_LEVEL_1
  6
CONTINUOUS
 62
         7
100
AcDbVertex
100
AcDb3dPolylineVertex
 10
121.8170003108
 20
-230.4776633025
 30
0.0
 70
        32
  0
VERTEX
  5
9EF
100
AcDbEntity
  8
CK_LEVEL_1
  6
CONTINUOUS
 62
         7
100
AcDbVertex
100
AcDb3dPolylineVertex
 10
121.6288732525
 20
-230.4566802319
 30
0.0
 70
        32
  0
VERTEX
  5
9F1
100
AcDbEntity
  8
CK_LEVEL_1
  6
CONTINUOUS
 62
         7
100
AcDbVertex
100
AcDb3dPolylineVertex
 10
121.4408606688
 20
-230.4347650328
 30
0.0
 70
        32
  0
VERTEX
  5
9F3
100
AcDbEntity
  8
CK_LEVEL_1
  6
CONTINUOUS
 62
         7
100
AcDbVertex
100
AcDb3dPolylineVertex
 10
121.2529677251
 20
-230.4119209331
 30
0.0
 70
        32
  0
VERTEX
  5
9F5
100
AcDbEntity
  8
CK_LEVEL_1
  6
CONTINUOUS
 62
         7
100
AcDbVertex
100
AcDb3dPolylineVertex
 10
121.0651995871
 20
-230.3881511606
 30
0.0
 70
        32
  0
VERTEX
  5
9F7
100
AcDbEntity
  8
CK_LEVEL_1
  6
CONTINUOUS
 62
         7
100
AcDbVertex
100
AcDb3dPolylineVertex
 10
120.8775614202
 20
-230.3634589433
 30
0.0
 70
        32
  0
VERTEX
  5
9F9
100
AcDbEntity
  8
CK_LEVEL_1
  6
CONTINUOUS
 62
         7
100
AcDbVertex
100
AcDb3dPolylineVertex
 10
120.69005839
 20
-230.3378475088
 30
0.0
 70
        32
  0
VERTEX
  5
9FB
100
AcDbEntity
  8
CK_LEVEL_1
  6
CONTINUOUS
 62
         7
100
AcDbVertex
100
AcDb3dPolylineVertex
 10
120.502695662
 20
-230.3113200851
 30
0.0
 70
        32
  0
VERTEX
  5
9FD
100
AcDbEntity
  8
CK_LEVEL_1
  6
CONTINUOUS
 62
         7
100
AcDbVertex
100
AcDb3dPolylineVertex
 10
120.3154784018
 20
-230.2838799
 30
0.0
 70
        32
  0
SEQEND
  5
9FF
100
AcDbEntity
  8
CK_LEVEL_1
  6
CONTINUOUS
 62
         7
  0
DIMENSION
  5
A02
100
AcDbEntity
  8
CK_LEVEL_1
  6
CONTINUOUS
 62
         4
100
AcDbDimension
  2
*D2
 10
194.6472070173
 20
-247.7838799
 30
0.0
 11
192.0222070173
 21
-243.0190743209
 31
0.0
  3
DIMSTYLE1
100
AcDbAlignedDimension
 13
188.8154784018
 23
-247.7838799
 33
0.0
 14
188.8154784018
 24
-275.7838799
 34
0.0
 50
90.0
100
AcDbRotatedDimension
  0
ENDSEC
  0
SECTION
  2
OBJECTS
  0
DICTIONARY
  5
19
100
AcDbDictionary
  3
ACAD_GROUP
350
1A
  3
ACAD_MLINESTYLE
350
1B
  0
DICTIONARY
  5
1A
102
{ACAD_REACTORS
330
19
102
}
100
AcDbDictionary
  0
DICTIONARY
  5
1B
102
{ACAD_REACTORS
330
19
102
}
100
AcDbDictionary
  3
STANDARD
350
1C
  0
MLINESTYLE
  5
1C
102
{ACAD_REACTORS
330
1B
102
}
100
AcDbMlineStyle
  2
STANDARD
 70
         0
  3

 62
         0
 51
90.0
 52
90.0
 71
         2
 49
0.5
 62
       256
  6
BYLAYER
 49
-0.5
 62
       256
  6
BYLAYER
  0
ENDSEC
  0
EOF
